#TITLE:Born To Be Alive;
#SUBTITLE:(Remix);
#ARTIST:Benny Benassi;
#TITLETRANSLIT:;
#SUBTITLETRANSLIT:;
#ARTISTTRANSLIT:;
#CREDIT:;
#BANNER:bn.png;
#BACKGROUND:bg.png;
#LYRICSPATH:;
#CDTITLE:;
#MUSIC:Benny_Benassi__Born_To_Be_Alive_(Remix).mp3;
#OFFSET:-0.135;
#SAMPLESTART:14.880;
#SAMPLELENGTH:12.000;
#SELECTABLE:YES;
#BPMS:0.000=130.000;
#STOPS:;
#BGCHANGES:;

//---------------dance-single - ----------------
#NOTES:
     dance-single:
     :
     Hard:
     6:
     0.291,0.347,0.045,0.099,0.000:
0000
0000
0000
0000
,
0000
0000
0000
0000
,
0000
0000
0000
0000
,
0000
0000
0000
0000
,
1000
0001
0100
0100
,
0001
1000
0010
0010
,
0100
0010
1000
1000
,
0010
0100
0001
0001
,
1002
0100
0013
0000
,
0001
0000
0000
0001
0100
0000
0010
0000
,
0010
1000
0100
0000
1000
0000
0001
0000
,
0100
0000
0001
0010
0200
0000
0000
0000
,
1300
0000
0000
0000
,
0000
0000
0000
0000
1000
0100
0010
0100
,
1000
0000
0000
0000
1000
0001
0100
0001
,
0010
0000
0000
0001
,
0101
0000
0000
0000
,
0100
0000
0000
0000
,
0100
0100
0100
0100
,
0100
0100
0100
0100
,
0200
0000
0000
0000
,
0300
0000
0000
0000
0010
1000
0010
1000
,
1010
0010
2000
3010
,
1000
0100
0100
1000
,
0010
0100
0001
0020
,
0031
0100
0001
0001
,
1000
0001
0100
0010
,
1000
0100
1000
0010
,
0100
0010
1000
0001
,
0010
0000
0000
0000
,
0001
0000
1000
0100
2000
0000
3010
0000
,
1000
0000
0100
1000
0010
0000
0100
0001
,
1000
0000
1000
0100
0001
0000
0001
0000
,
0001
0000
0001
0100
1000
0000
0100
1000
,
0010
0000
0100
0000
0010
0000
0010
1000
,
0001
0000
1000
0000
0100
0000
1000
0010
,
0100
0001
0020
0031
,
0001
0000
0001
0100
0010
0000
0100
0010
,
1000
0000
0001
1000
0002
0000
1003
0000
,
0001
0000
1000
0010
0200
0000
0310
0000
,
0010
0000
1000
0100
2000
0000
3100
0000
,
1000
0000
0001
0000
0100
0001
0010
0000
,
0000
0001
0000
0001
0000
1000
0000
1000
,
0000
1000
0000
0100
0000
0010
0000
0001
,
0000
1000
0000
0100
0000
0010
0000
0001
,
0000
0000
0000
0000
,
1001
0000
0001
0000
,
1000
0000
0001
0000
0100
0000
0010
1000
,
0100
0000
0100
0000
,
1000
0000
0000
0000
1000
0010
1000
0100
,
1000
0000
0001
0000
,
0100
0000
0000
0000
0010
0100
0010
1000
,
0001
0000
0001
0000
,
1001
0000
0000
0000
0001
0010
0001
0100
,
0001
0001
0001
1000
,
0010
0000
0010
0000
0100
0010
0100
0000
,
0010
0010
1000
1000
,
0001
0000
0000
1000
0000
0010
0100
1000
,
0002
0000
0000
0000
,
0003
0000
0000
0000
;

//---------------dance-single - ----------------
#NOTES:
     dance-single:
     :
     Medium:
     5:
     0.269,0.288,0.045,0.307,0.000:
0000
0000
0000
0000
,
0000
0000
0000
0000
,
0000
0000
0000
0000
,
0000
0000
0000
0000
,
0001
1000
0001
0001
,
1000
0001
1000
1000
,
0010
0100
0010
0010
,
0100
0010
1000
1000
,
0002
1000
0103
0000
,
0000
0000
0000
0020
2000
0000
3030
0000
,
2000
0010
3100
0000
,
0000
0000
0000
0002
0020
0000
0033
0000
,
0011
0000
0000
0000
,
0000
0000
0001
0100
,
1000
0000
1000
0100
,
0001
0000
0000
0010
,
0100
0000
0000
0000
,
0100
0000
0000
0000
,
0100
0100
0100
0100
,
0100
0100
0100
0100
,
0200
0000
0000
0000
,
0300
0000
0000
0000
,
1001
0001
0002
0003
,
1000
1000
2000
3000
,
0010
0010
0020
0030
,
0100
0100
0200
0300
,
0001
0100
0001
0000
,
0100
1000
0020
0030
,
1000
0100
1000
0000
,
2002
0000
0000
3003
,
0001
2000
0200
3300
,
0001
0020
0200
0330
,
0100
2000
0020
3030
,
1000
0020
0200
0330
,
0001
2000
0200
3300
,
1000
0200
0002
0303
,
0001
0010
2000
3000
,
0010
0100
0002
0003
,
1000
0001
0200
0301
,
0100
0010
2000
3100
,
1000
0010
0200
0301
,
0000
1000
0000
0001
0000
0100
0000
0001
,
0000
0100
0000
0100
0000
0100
0000
0100
,
0000
0100
0000
0100
0000
0100
0000
0200
,
0000
0000
0000
0000
,
0300
0000
0000
0000
,
1001
0010
0001
0010
,
0001
0000
0100
0000
0010
1000
0010
0000
,
1000
1000
0001
0001
,
1000
0000
0100
0000
0100
1000
0010
0100
,
0001
0001
1000
1000
,
0010
0000
0100
0000
0100
0010
1000
0001
,
0010
0100
1000
0010
,
0100
0000
0010
0000
1000
0001
1000
0001
,
1000
1000
0001
0001
,
0100
0000
0100
0000
0010
0100
0010
0100
,
0010
0010
1000
1000
,
2002
0000
0000
0000
,
3003
0000
0000
0000
;

//---------------dance-double - ----------------
#NOTES:
     dance-double:
     :
     Challenge:
     7:
     0.413,0.480,0.371,0.262,0.000:
00000000
00000000
00000000
00000000
,
00000000
00000000
00000000
00000000
,
00000000
00000000
00000000
00000000
,
00000000
00000000
00000000
00000000
,
10000000
00000000
11000000
00000000
10000000
00010000
00100000
00000000
,
00010000
00000000
00101000
00000000
00100000
00001000
00010000
00000100
,
00001000
00000000
00001010
00000000
00001000
00000001
00000010
00000000
,
00000001
00000100
00000010
00001000
00000100
00010000
01000000
00100000
,
20000000
01000000
30100000
10000000
,
00010000
00000000
00100000
00002000
00020000
00000000
00033000
00000000
,
00020100
00001000
00032000
00013000
,
00000100
00010000
00000010
00000100
00000002
00000000
00000003
00000000
,
00000110
00000000
00000000
00000000
,
00000000
00000000
00000000
00000000
00000010
00001000
00000100
00010000
,
00001000
00000000
00000000
00000000
00001000
01000000
00010000
01000000
,
00100000
00000000
00000000
00000000
00000000
00100000
10000000
01000000
,
00100000
00000000
00000000
00000000
,
00110000
00000000
00000000
00000000
,
02010000
00010000
00010000
00010000
,
00010000
00010000
00010000
00010000
,
00020000
00000000
00000000
00000000
,
03030000
00000000
00000000
00000000
01000000
00010000
00100000
00001000
,
00011000
00011000
00012000
00013000
,
00010100
00011000
00001200
00001300
,
00001100
00000110
00000012
00000013
,
00000011
00001010
00001100
00000120
,
00000130
00000110
00001100
00010200
,
00010300
00001000
01000000
00000000
00100000
10000000
01000000
00000000
,
01000000
00100000
00010000
00000000
00100000
00001000
00010000
00000000
,
00010000
00000010
00000200
00000000
00000000
00000000
00000300
00000000
,
00000100
00000001
00000010
00000100
00002000
00000000
00003100
00000000
,
00001000
00000010
00000100
00000001
00000020
00000000
00000130
00000000
,
00000010
00001000
00000100
00010000
00002000
00000000
00013000
00000000
,
00001000
00100000
00010000
00100000
00002000
00000000
01003000
00000000
,
01000000
00100000
10000000
01000000
00200000
00000000
01300000
00000000
,
01000000
00100000
01000000
10000000
02000000
00000000
03100000
00000000
,
00100000
00010000
01000000
00100000
02000000
00000000
03010000
00000000
,
10000000
00010000
00100000
00001000
00020000
00000000
00030100
00000000
,
00000100
00010000
00001000
00010000
00000020
00000000
00000130
00000000
,
00000010
00001000
00000100
00000010
00000002
00000000
00000013
00000000
,
00000001
00000100
00000010
00001000
00000200
00000000
00010300
00000000
,
00000100
00010000
00001000
00100000
02000000
00000000
03100000
00000000
,
00010000
00100000
00000000
00010000
00000000
01000000
00000000
00100000
,
00000000
10000000
00000000
01000000
00000000
00100000
00000000
00010000
,
00000000
00001000
00000000
00000100
00000000
00000010
00000000
00000001
,
00000000
00000000
00000000
00000000
,
00001001
00000010
00001001
00000100
,
00001001
00000000
00000010
00000000
00000001
00001000
00000010
00001000
,
00001100
00000010
00001100
00000001
,
00001100
00000000
00000010
00000000
00000010
00001000
00000100
00010000
,
00001000
00101000
00001000
00011000
,
00001000
00000000
00101000
00000000
00001000
00100000
00010000
01000000
,
00100000
01010000
00100000
10100000
,
10000000
00000000
01100000
00000000
00100000
10000000
01000000
00100000
,
00010000
00110000
01000000
00110000
,
10000000
00000000
00110000
00000000
00010000
01000000
00010000
00100000
,
00001000
00101000
00001000
00011000
,
00020200
00000000
00030300
00000100
00000000
00000100
00000100
00001000
,
00000020
00000000
00000000
00000000
,
00000030
00000000
00000000
00000000
;

//---------------dance-single - ----------------
#NOTES:
     dance-single:
     :
     Easy:
     3:
     0.198,0.240,0.063,0.172,0.000: // measure 1
0000
0000
0000
0000
,  // measure 2
0000
0000
0000
0000
,  // measure 3
0000
0000
0000
0000
,  // measure 4
0000
0000
0000
0000
,  // measure 5
0001
0000
1000
0000
,  // measure 6
0010
0010
0010
0000
,  // measure 7
0100
0000
0001
0000
,  // measure 8
0010
0010
0010
0000
,  // measure 9
0010
0001
0100
0000
,  // measure 10
0000
0000
2002
3003
,  // measure 11
0010
1000
0100
0000
,  // measure 12
0000
0000
2200
3300
,  // measure 13
1010
0000
0000
0000
,  // measure 14
0000
0000
1000
0001
,  // measure 15
0100
0000
0010
0010
,  // measure 16
0010
0000
0000
0100
,  // measure 17
0001
0000
0000
0000
,  // measure 18
1000
0000
0000
0000
,  // measure 19
0010
0010
0010
0010
,  // measure 20
0010
0010
0010
0010
,  // measure 21
0020
0000
0000
0000
,  // measure 22
0030
0000
0100
0010
,  // measure 23
1001
0000
1000
0000
,  // measure 24
0001
0000
0100
0000
,  // measure 25
0010
0000
1000
0000
,  // measure 26
0100
0000
1000
0000
,  // measure 27
0010
0100
0002
0003
,  // measure 28
1000
0001
0020
0030
,  // measure 29
0100
1000
0020
0030
,  // measure 30
2002
0000
0000
3003
,  // measure 31
0001
0000
1000
0000
,  // measure 32
0010
0100
0001
0000
,  // measure 33
0100
0000
0010
0000
,  // measure 34
1000
1000
0001
0000
,  // measure 35
0010
0000
0100
0000
,  // measure 36
0100
0000
0010
0001
,  // measure 37
0100
0000
0010
0000
,  // measure 38
1000
0000
0100
0000
,  // measure 39
0100
1000
0020
0030
,  // measure 40
0100
0010
2000
3000
,  // measure 41
0001
1000
0002
0003
,  // measure 42
0010
0001
0020
0030
,  // measure 43
0001
0100
0020
0030
,  // measure 44
0100
0010
2000
3000
,  // measure 45
0001
1000
0200
0300
,  // measure 46
1000
0000
0000
0000
,  // measure 47
0010
0000
0100
0000
,  // measure 48
0010
0000
1000
0001
,  // measure 49
0010
0000
0010
0000
,  // measure 50
0010
0000
0010
0001
,  // measure 51
0100
0000
0100
0000
,  // measure 52
0100
0000
0100
0010
,  // measure 53
1000
0000
1000
0000
,  // measure 54
1000
0000
1000
0001
,  // measure 55
0101
0000
0100
0000
,  // measure 56
0010
0000
1000
0001
,  // measure 57
0100
0000
0010
0000
,  // measure 58
1000
0000
0000
0000
,  // measure 59
2002
0000
0000
0000
,  // measure 60
3003
0000
0000
0000
;

//---------------dance-single - ----------------
#NOTES:
     dance-single:
     :
     Beginner:
     1:
     0.114,0.184,0.018,0.000,0.000: // measure 1
0000
0000
0000
0000
,  // measure 2
0000
0000
0000
0000
,  // measure 3
0000
0000
0000
0000
,  // measure 4
0000
0000
0000
0000
,  // measure 5
0010
0000
0000
0000
,  // measure 6
1000
0000
0000
0000
,  // measure 7
1000
0000
0000
0000
,  // measure 8
0001
0000
0000
0000
,  // measure 9
0100
0100
0100
0000
,  // measure 10
0000
0000
0000
0000
,  // measure 11
0010
0010
0010
0000
,  // measure 12
0000
0000
0000
0000
,  // measure 13
0001
0000
0000
0000
,  // measure 14
0000
0000
1000
0000
,  // measure 15
1000
0000
0100
0000
,  // measure 16
0100
0000
0000
0000
,  // measure 17
0010
0000
0000
0000
,  // measure 18
0100
0000
0000
0000
,  // measure 19
0001
0000
0000
0000
,  // measure 20
0000
0000
0000
0000
,  // measure 21
0000
0000
0000
0000
,  // measure 22
0000
0000
1000
1000
,  // measure 23
1001
0000
0000
0000
,  // measure 24
0100
0000
0000
0000
,  // measure 25
0100
0000
0000
0000
,  // measure 26
0010
0000
0000
0000
,  // measure 27
0010
0000
0000
0000
,  // measure 28
1000
0000
0000
0000
,  // measure 29
0001
0000
0000
0000
,  // measure 30
0000
0000
0000
0000
,  // measure 31
0100
0000
0100
0000
,  // measure 32
0100
0000
0100
0000
,  // measure 33
0010
0000
0010
0000
,  // measure 34
0010
0000
0010
0000
,  // measure 35
1000
0000
1000
0000
,  // measure 36
1000
0000
1000
0000
,  // measure 37
0001
0000
0001
0000
,  // measure 38
0001
0000
0001
0000
,  // measure 39
1000
1000
1000
0000
,  // measure 40
0001
0001
0001
0000
,  // measure 41
0010
0010
0010
0000
,  // measure 42
0100
0100
0100
0000
,  // measure 43
1000
0000
1000
0000
,  // measure 44
1000
0000
0001
0000
,  // measure 45
0001
0000
0001
0000
,  // measure 46
0000
0000
0000
0000
,  // measure 47
0100
0000
0100
0000
,  // measure 48
0100
0000
0100
0100
,  // measure 49
0010
0000
0010
0000
,  // measure 50
0010
0000
0010
0010
,  // measure 51
1000
0000
1000
0000
,  // measure 52
1000
0000
1000
1000
,  // measure 53
0001
0000
0001
0000
,  // measure 54
0001
0000
0000
0000
,  // measure 55
0001
0000
0000
0000
,  // measure 56
0000
0000
0001
1000
,  // measure 57
0100
0000
0000
0000
,  // measure 58
0000
0000
0100
0100
,  // measure 59
0110
0000
0000
0000
;
