#TITLE:Bahram Attack;
#SUBTITLE:-Nekomata Master Remix-;
#ARTIST:Nekomata Master Feat. JUNE;
#TITLETRANSLIT:;
#SUBTITLETRANSLIT:;
#ARTISTTRANSLIT:;
#CREDIT:;
#BANNER:bn.png;
#BACKGROUND:bg.png;
#LYRICSPATH:;
#CDTITLE:;
#MUSIC:Bahram Attack -tî½sÅëMaster Remix-.mp3;
#OFFSET:-0.036;
#SAMPLESTART:78.960;
#SAMPLELENGTH:12.000;
#SELECTABLE:YES;
#BPMS:0.000=155.000;
#STOPS:137.000=0.774
;
#BGCHANGES:;

//---------------dance-single - ----------------
#NOTES:
     dance-single:
     :
     Hard:
     7:
     0.360,0.501,0.096,0.193,0.026:
0000
0000
0000
0000
,
0000
0000
0000
0000
,
0000
0000
0000
0000
,
0000
0000
0000
0000
,
0000
0000
0000
0000
,
0000
0000
0000
0000
,
0000
0000
0000
0000
,
0000
0000
0000
0000
,
0000
0000
0000
0000
,
0000
0000
0000
0000
,
0000
0000
0000
0000
,
0100
0001
0010
0100
,
0010
0001
0200
0310
,
0100
0010
1000
0001
,
0010
0001
0200
0301
,
0100
0001
0010
0001
,
0100
0010
2000
3100
,
0100
1000
0010
0100
,
0001
1000
0001
0200
,
0020
0000
0000
0000
,
0330
0000
2010
0010
,
0200
0000
0000
0000
,
0000
3300
0002
0000
,
0200
0000
0000
0000
,
0303
0000
0120
1000
,
0230
0000
0000
0000
,
0000
0000
0020
0300
,
2030
0000
0000
0000
,
0000
0000
0010
0000
,
3010
0000
0000
0000
,
0000
0000
0100
0000
,
0011
0000
0000
0000
,
0000
0000
2000
0000
,
3100
0000
0000
0000
,
0000
0000
1001
0100
,
0000
0100
0010
0000
0000
0000
0000
0000
,
1000
0001
0020
0000
0030
0000
0100
0010
,
0000
0000
0010
0000
0001
0000
1000
0000
0000
0000
0000
0000
1000
0000
0000
0010
,
0100
0000
0100
0000
0101
0000
0010
1000
,
0000
0000
0100
0000
0001
0000
0000
0000
0000
0000
0000
0000
0001
1000
0001
0000
,
0000
0000
0100
0010
0100
0000
0000
0000
0000
0000
0000
0000
0010
0000
0000
0000
,
0000
0010
0000
0010
,
0000
0000
0010
0100
0001
1000
0100
0000
,
0100
0010
0001
0000
0000
0000
0000
0000
,
0010
0010
2002
0000
3003
0000
0010
1000
,
0100
0010
0100
1000
0000
0000
0000
0000
,
1001
0000
0101
0000
0011
0000
0010
0100
,
0000
0000
0100
0000
1000
0000
0000
0000
0000
0000
0010
1000
0010
0000
0000
0000
,
0100
0001
0100
0000
0020
0000
0000
0000
0130
0000
1000
0000
0010
0000
0000
0000
,
0010
1000
0100
0000
0200
1000
1300
0000
,
0200
0010
0310
0000
0010
0100
0000
0010
,
0100
0010
0000
0001
1000
0100
0000
0100
,
1000
0100
0000
0100
0010
0100
0000
0010
,
0001
0010
0000
0001
0100
0001
0000
0100
,
0010
1000
0000
1000
0001
0010
0000
0010
,
0001
0100
0000
0100
0010
0100
0000
0010
,
0100
0010
0000
0010
1000
0010
0000
0100
,
1000
0100
0000
0100
0010
0100
0000
0010
,
0002
0000
0203
0000
0310
1000
0000
1000
,
0001
0010
0000
0010
0001
0100
0000
0010
,
0100
0001
0000
1000
0100
0010
0000
0100
,
1000
0010
0000
0100
0001
0010
0000
0001
,
0100
0000
0000
0010
0000
0000
0010
0000
1000
0000
0001
0000
0000
0000
0010
0000
,
0100
1000
0000
0100
0010
0001
0000
0010
,
0100
1000
0000
0100
0010
0001
0000
0100
,
0010
1000
0000
0100
0010
0001
0000
0100
,
0020
0000
2030
0000
3100
1000
1010
0000
,
0100
0001
0020
0000
0030
0000
0100
0000
,
0110
0000
1000
0000
0001
0001
0001
0100
,
0010
0010
1000
0000
0100
0010
0001
0000
,
0010
0100
1000
0001
0100
0010
0000
0010
,
1000
0100
0000
0000
0010
0010
0000
0000
,
0001
0000
0001
0000
0100
0100
0010
1000
,
0001
0001
0010
0100
0010
0001
0100
0100
,
0010
1000
0001
0100
,
1000
0100
0001
0010
,
1000
0010
0001
0100
,
0001
0010
0100
1000
,
0010
0000
0000
0000
0100
0000
0000
0000
0000
0000
0001
0000
0000
0000
0000
0001
,
0100
0000
0010
0100
0000
0000
0000
0010
,
1000
0100
0001
0100
1100
0000
0010
0000
,
1100
0000
0000
0001
0010
0100
0010
0001
,
0100
0010
1000
0100
2000
0000
0000
0000
,
0000
0000
0000
0000
,
0000
0000
0000
3000
0000
0000
0000
0000
;

//---------------dance-single - ----------------
#NOTES:
     dance-single:
     :
     Medium:
     4:
     0.222,0.312,0.067,0.096,0.000:
0000
0000
0000
0000
,
0000
0000
0000
0000
,
0000
0000
0000
0000
,
0000
0000
0000
0000
,
0000
0000
0000
0000
,
0000
0000
0000
0000
,
0000
0000
0000
0000
,
0000
0000
0000
0000
,
0000
0000
0000
0000
,
0000
0000
0000
0000
,
0000
0000
0000
0000
,
0010
0000
1000
0000
,
0001
0000
0010
0000
,
0100
0000
0010
0000
,
0001
0000
1001
0000
,
0100
0000
0010
0000
,
1000
0000
0001
0000
,
0010
0000
0100
0000
,
1000
0000
0010
1000
,
0200
0000
0000
0000
,
0000
0300
1000
0010
,
0200
0000
0000
0000
,
0000
0300
0002
0000
,
2000
0000
0000
0000
,
0000
3003
0010
2000
,
0200
0000
0000
0000
,
0000
0000
3300
0000
,
2002
0000
0000
0000
,
0000
3000
1000
0000
,
2000
0000
0000
0000
,
0000
0003
0001
0000
,
0002
0000
0000
0000
,
0000
3000
0100
0000
,
0200
0000
0000
0000
,
0000
0303
0000
1000
,
0000
0001
0100
0000
0000
0000
0000
0000
,
1000
0100
0010
0000
0000
0000
0001
0010
,
0000
0010
0100
1000
0000
0000
0000
0000
,
1000
0000
0001
0000
0100
0000
0010
1000
,
0000
0010
0100
0001
0000
0000
1000
0000
,
0000
0001
1000
0000
0000
0000
1001
0000
,
0000
1001
0000
1001
,
0000
1001
0001
1000
,
0100
1000
0100
0000
1000
0000
0010
0000
,
0100
0100
0010
1000
,
0001
1000
0010
0000
1000
0000
0100
0000
,
1000
1000
0010
0100
,
0100
0001
0010
0000
0001
0000
0100
0000
,
0010
1000
0100
1000
0010
0000
0100
0000
,
0001
0010
0200
0000
,
0000
0300
1000
0000
,
0001
0000
0100
0000
,
0010
0010
1000
0000
,
0001
0000
0100
0000
,
0100
0001
0010
0000
,
0100
0000
1000
0000
,
0100
1000
0010
0000
,
0100
0000
0001
0000
,
1001
0010
0100
0000
,
0010
0000
1000
0000
,
0001
0000
0010
0000
,
0100
0000
1000
0000
,
1010
0000
1010
0000
,
0100
0000
0001
0000
,
0100
0000
1000
0100
,
0001
0100
1000
1000
,
1000
1000
1000
0100
,
0001
0010
0100
1000
,
0100
0010
0001
1000
,
0001
0100
0001
1000
,
0100
0100
1000
0010
,
0100
0001
0010
0100
,
0010
0000
0001
1000
0001
0000
1000
0000
,
0001
0100
0010
1000
,
0100
0010
0001
0000
,
1000
0000
0010
0000
,
0100
0000
0001
0000
,
1000
0000
0010
0000
,
1000
0100
1000
0000
,
0010
0000
0100
0000
,
0001
0001
0010
0000
,
0100
0000
0010
0001
,
0100
1000
0200
0000
,
0000
0000
0000
0000
,
0300
0000
0000
0000
;

//---------------dance-single - ----------------
#NOTES:
     dance-single:
     :
     Easy:
     2:
     0.134,0.187,0.015,0.067,0.000:
0000
0000
0000
0000
,
0000
0000
0000
0000
,
0000
0000
0000
0000
,
0000
0000
0000
0000
,
0000
0000
0000
0000
,
0000
0000
0000
0000
,
0000
0000
0000
0000
,
0000
0000
0000
0000
,
0000
0000
0000
0000
,
0000
0000
0000
0000
,
0000
0000
0000
0000
,
0010
0000
0010
0000
,
0010
0000
0010
0000
,
1000
0000
1000
0000
,
1000
0000
1000
0000
,
0001
0000
0001
0000
,
0001
0000
0001
0000
,
0010
0000
0100
0000
,
1000
0000
0010
0000
,
0200
0000
0000
0000
,
0000
0000
0000
0000
,
0000
0000
0000
0000
,
0000
0000
0300
0000
,
0020
0000
0000
0000
,
0000
0000
0000
0000
,
0000
0000
0000
0000
,
0000
0000
0000
0030
,
2002
0000
0000
0000
,
0000
0000
3000
0000
,
0003
0000
0000
0000
,
0000
0000
2000
0000
,
0002
0000
0000
0000
,
0000
0000
0003
0000
,
3000
0000
0000
0000
,
0000
0000
0010
0000
,
0000
0000
0000
0000
,
1000
0001
0000
0001
,
0000
0010
0000
0000
,
0010
0001
0100
0010
,
0000
0010
0000
0000
,
0000
0000
0000
0010
,
0000
0010
0000
0010
,
0000
0010
1000
0001
,
0000
0100
0000
0000
,
0010
1010
0000
1000
,
0000
1000
0000
0000
,
0001
0100
0010
1000
,
0000
0100
0000
0100
,
0000
1000
0000
0010
,
0000
0010
0000
0010
,
0000
0000
0100
0000
,
0100
0000
0100
0000
,
0100
0000
0001
0000
,
0001
0000
0001
0000
,
0001
1000
0001
0000
,
0010
0000
0001
0000
,
0010
0000
0100
0000
,
1000
0000
0100
0000
,
1000
0010
0100
0000
,
0001
0000
0010
0000
,
0001
0000
0100
0000
,
0001
0000
0010
0000
,
0100
0000
1000
0000
,
0010
0000
1000
0000
,
0100
0000
1000
0000
,
0010
0000
0100
0000
,
0001
2000
0200
0000
,
0000
0000
0000
3300
,
1000
1000
0001
0000
,
0010
0000
0010
0000
,
0001
0001
1000
0000
,
0010
0000
0100
0000
,
0001
0100
0001
0000
,
1000
0000
0010
0000
,
1000
0000
0100
0000
,
1000
0000
0000
0000
,
0001
0010
0000
0000
,
0000
0000
0000
0000
,
0000
0000
1000
0000
,
0001
0000
0000
0000
,
0100
0100
0000
0000
,
0000
0000
0010
0000
,
1000
0000
0200
0000
,
0000
0000
0000
0000
,
0300
0000
0000
0000
;

//---------------dance-double - ----------------
#NOTES:
     dance-double:
     :
     Challenge:
     7:
     0.366,0.470,0.126,0.126,0.000:
00000000
00000000
00000000
00000000
,
00000000
00000000
00000000
00000000
,
00000000
00000000
00000000
00000000
,
00000000
00000000
00000000
00000000
,
00000000
00000000
00000000
00000000
,
00000000
00000000
00000000
00000000
,
00000000
00000000
00000000
00000000
,
00000000
00000000
00000000
00000000
,
00000000
00000000
00000000
00000000
,
00000000
00000000
00000000
00000000
,
00000000
00000000
00000000
00000000
00000000
00000000
00000000
00100000
,
10000000
01000000
00000000
01000000
10000000
00100000
00000000
01000000
,
00010000
10000000
00000000
00010000
00100000
00001000
00000000
00010000
,
00000100
00001000
00000000
00000010
00000100
00000001
00000000
00000001
,
00000010
00000100
00000000
00000100
00002000
00000000
00003200
00000000
,
00010300
00001000
00000000
00001000
00100000
00010000
00000000
00010000
,
01000000
10000000
00000000
10000000
01000000
00010000
00000000
00010000
,
00100000
00010000
00000000
10000000
01000000
10000000
00000000
01000000
,
10000000
00100000
00000000
01000000
00010000
00000000
10000000
00000000
,
02000000
00000000
00000000
00000000
,
03000000
00000000
01000000
00001000
,
00020000
00000000
00000000
00000000
,
00030000
00000000
00000200
00000000
,
00000020
00000000
00000000
00000000
,
00000330
00000000
00000001
00000100
,
00000020
00000000
00000000
00000000
,
00000030
00000000
00000200
00000000
,
00020000
00000000
00000000
00000000
00000000
00000000
00000000
00030300
,
00000000
00000000
00000100
00000010
,
00002000
00003000
00000000
00000000
,
00000000
00000000
00001000
00100000
,
01100000
00000000
00000000
00000000
,
00000000
00000000
01000000
10000000
,
00100000
00000000
00000000
00000000
,
00000000
00000000
10010000
10000000
,
00000000
10000000
00010000
00000000
00000000
00000000
00000000
00000000
,
00100000
00100000
00202000
00303000
00000000
00000000
00100000
00001000
,
00000000
00010000
00000100
00000010
00000000
00000000
00000100
00000000
,
00000100
00000000
00001000
00000000
00000011
00000000
00000001
00000001
,
00000000
00001000
00000100
00010000
00000000
00000000
00010000
00100000
,
00000000
10000000
01000000
00000000
00000000
00000000
10000000
00000000
,
00000000
00010000
00000000
00100000
,
00000000
01000000
10010000
10000000
,
00000000
10000000
00010000
00000000
00100000
00000000
00100000
00000000
,
00100000
00100000
00202000
00303000
00001000
00000000
00100000
00001000
,
00000000
00010000
00000100
00000010
00000000
00000000
00000100
00000000
,
00000100
00000000
00001000
00000000
00000011
00000000
00000001
00000001
,
00000000
00001000
00000100
00010000
00000000
00000000
00010000
00100000
,
00000000
10000000
01000000
00000000
10000000
00000000
10010000
00000000
,
00100000
00110000
01000000
01100000
,
10000000
00000000
11000000
00000000
00100000
00010000
00000000
00010000
,
01000000
00100000
00000000
01000000
00100000
01000000
00000000
01000000
,
00010000
00100000
00000000
00100000
00010000
01000000
00000000
01000000
,
00010000
00100000
00000000
00010000
01000000
00010000
00000000
00010000
,
00100000
00001000
00000000
00001000
00000010
00000001
00000000
00000001
,
00000100
00001000
00000000
00001000
00000100
00000010
00000000
00000100
,
00000001
00001000
00000000
00001000
00000100
00000010
00000000
00000010
,
00000100
00001000
00000000
00000100
00001000
00000010
00000000
00000100
,
00000001
00000010
00000100
00001000
00000100
00010000
00000000
00001000
,
00010000
00000100
00000000
00000100
00010000
00001000
00000000
00001000
,
00100000
00010000
00000000
00100000
00001000
00010000
00000000
00010000
,
00000100
00001000
00000000
00000100
00001000
00000100
00000000
00000100
,
00020000
00000000
00032000
00000000
00103000
00010000
00000000
00010000
,
01000000
00100000
00000000
10000000
01000000
00100000
00000000
00100000
,
01000000
10000000
00000000
10000000
00010000
00100000
00001000
00010000
,
00000100
00001000
00000010
00000001
00000010
00001000
00000100
00000000
,
00000000
00000000
00001100
00000011
,
00000001
00000100
00000010
00000000
00000100
00000010
00000010
00000100
,
00000010
00001000
00000100
00010000
00001000
00000000
00110000
00000000
,
00010000
01000000
00100000
10000000
01000000
00000000
01000000
00000000
,
00110000
00000000
00011000
00000000
00001100
00001000
00000010
00000100
,
00000001
00000000
00000001
00000010
00000000
00000000
00000000
00000001
,
00000010
00001000
00000010
00000001
00000100
00000000
00000010
00000000
,
00000100
00000000
00000010
00000000
00000010
00001000
00000100
00010000
,
00001000
00100000
00010000
01000000
00100000
00000000
00100000
00000000
,
10000000
10000000
00010000
00010000
,
00100000
00100000
00001000
00001000
,
00010000
00010000
00000010
00000010
,
00000100
00000100
00000001
00000100
,
00000010
00001000
00000100
00010000
,
00001000
00100000
00010000
00100000
,
01000000
00000000
10000000
00000000
00010000
00100000
01000000
10000000
,
00010000
00100000
01000000
10000000
00200000
00000000
00000000
00000000
,
00000000
00000000
00000000
00000000
,
00000000
00000000
00300000
00000000
;

//---------------dance-single - ----------------
#NOTES:
     dance-single:
     :
     Beginner:
     1:
     0.092,0.153,0.030,0.000,0.000: // measure 1
0000
0000
0000
0000
,  // measure 2
0000
0000
0000
0000
,  // measure 3
0000
0000
0000
0000
,  // measure 4
0000
0000
0000
0000
,  // measure 5
0000
0000
0000
0000
,  // measure 6
0000
0000
0000
0000
,  // measure 7
0000
0000
0000
0000
,  // measure 8
0000
0000
0000
0000
,  // measure 9
0000
0000
0000
0000
,  // measure 10
0000
0000
0000
0000
,  // measure 11
0000
0000
0000
0000
,  // measure 12
0010
0000
0000
0000
,  // measure 13
0000
0000
0000
0000
,  // measure 14
0100
0000
0000
0000
,  // measure 15
0000
0000
0000
0000
,  // measure 16
0001
0000
0000
0000
,  // measure 17
0000
0000
0000
0000
,  // measure 18
1000
0000
0000
0000
,  // measure 19
0000
0000
0000
0000
,  // measure 20
0010
0000
0000
0000
,  // measure 21
0000
0000
0000
0000
,  // measure 22
0100
0000
0000
0000
,  // measure 23
0000
0000
0000
0000
,  // measure 24
1001
0000
0000
0000
,  // measure 25
0000
0000
0000
0000
,  // measure 26
0001
0000
0000
0000
,  // measure 27
0000
0000
0000
0000
,  // measure 28
1000
0000
0000
0000
,  // measure 29
0000
0000
0010
0000
,  // measure 30
0010
0000
0000
0000
,  // measure 31
0000
0000
0100
0000
,  // measure 32
0100
0000
0000
0000
,  // measure 33
0000
0000
0010
0000
,  // measure 34
0010
0000
0000
0000
,  // measure 35
0000
0000
1000
0000
,  // measure 36
0000
0000
0000
0000
,  // measure 37
0001
0001
0000
0100
,  // measure 38
0000
0000
0000
0000
,  // measure 39
0010
0010
0010
0000
,  // measure 40
0000
0000
0000
0000
,  // measure 41
0000
0000
0000
1000
,  // measure 42
0000
1000
0000
1000
,  // measure 43
0000
1000
1001
0001
,  // measure 44
0000
0001
0000
0000
,  // measure 45
0000
0000
0000
0010
,  // measure 46
0000
0100
0000
0000
,  // measure 47
1000
1000
0001
0000
,  // measure 48
0000
1000
0000
0000
,  // measure 49
0000
0000
0000
0010
,  // measure 50
0000
0010
0000
0010
,  // measure 51
0000
0000
0100
0000
,  // measure 52
0100
0000
0100
0000
,  // measure 53
0000
0000
0001
0000
,  // measure 54
1000
0000
0010
0000
,  // measure 55
0000
0000
0100
0000
,  // measure 56
0010
0000
1000
0000
,  // measure 57
0000
0000
0001
0000
,  // measure 58
1000
0000
0010
0000
,  // measure 59
0000
0000
0100
0000
,  // measure 60
0010
0000
1000
0000
,  // measure 61
0000
0000
1000
0000
,  // measure 62
0010
0000
0100
0000
,  // measure 63
0000
0000
0100
0000
,  // measure 64
0001
0000
0100
0000
,  // measure 65
0000
0000
0001
0000
,  // measure 66
0100
0000
0010
0000
,  // measure 67
0000
0000
0010
0000
,  // measure 68
0000
0000
0000
0000
,  // measure 69
0000
0000
1000
0000
,  // measure 70
0000
0000
0000
0000
,  // measure 71
0001
0001
1001
0000
,  // measure 72
0000
0000
0000
0000
,  // measure 73
0010
0010
0010
0000
,  // measure 74
0000
0000
0100
0000
,  // measure 75
1000
0000
0010
0000
,  // measure 76
0010
0000
0000
0000
,  // measure 77
0010
0010
0000
0000
,  // measure 78
0000
0000
0000
0000
,  // measure 79
0000
0000
1000
0000
,  // measure 80
1000
0000
0000
0000
,  // measure 81
0001
0001
0000
0000
,  // measure 82
0000
0000
0100
0000
,  // measure 83
0010
0000
1001
0000
;
