#TITLE:BIG BROTHER;
#SUBTITLE:;
#ARTIST:Fastway;
#TITLETRANSLIT:;
#SUBTITLETRANSLIT:;
#ARTISTTRANSLIT:;
#CREDIT:;
#BANNER:BIG BROTHER-bn.png;
#BACKGROUND:BIG BROTHER-bg.png;
#LYRICSPATH:;
#CDTITLE:;
#MUSIC:BIG BROTHER.mp3;
#OFFSET:-0.360;
#SAMPLESTART:36.900;
#SAMPLELENGTH:12.000;
#SELECTABLE:YES;
#BPMS:0.000=157.000;
#STOPS:;
#BGCHANGES:;

//---------------dance-single - ----------------
#NOTES:
     dance-single:
     :
     Easy:
     3:
     0.277,0.287,0.046,0.191,0.000:
0000
0000
0000
0000
,
0000
0000
0000
0000
,
0000
0000
0000
0000
,
0000
0000
0000
0000
,
1000
0100
0020
0030
,
0001
0100
0020
0030
,
0100
0001
0200
0300
,
2000
3000
0002
0003
,
1000
0100
0001
0000
,
0001
0010
1000
0000
,
0010
0100
0010
1000
,
0002
0000
0200
0303
,
0010
0100
0010
0000
,
1000
0100
0001
0000
,
0100
1000
0010
0000
,
2000
0000
0020
3030
,
0100
0100
0100
0000
,
0001
0001
0010
0001
,
0100
0000
0010
0000
,
1000
0000
1001
1001
,
0010
0100
1000
0000
,
0100
0010
0001
0000
,
1000
0000
0020
0000
,
0130
0000
0000
0000
,
0010
0001
0010
0000
,
1000
0100
1000
0000
,
0010
0100
0001
1000
,
0100
0000
0010
0000
,
0100
1000
0100
0000
,
0010
0100
0010
0000
,
0001
0100
0001
0000
,
1000
0100
0001
0100
,
1000
0010
1000
0000
,
0001
0100
0001
0000
,
0010
0001
0100
0010
,
1000
0000
0100
0000
,
0010
0100
0010
0000
,
0001
0010
0001
0000
,
1000
0010
1000
0100
,
1000
0010
0100
0000
,
2002
0000
3003
0000
,
0010
0100
0010
0000
,
1000
0100
0001
0000
,
0010
0001
0100
0000
,
0020
0000
2000
3030
,
0010
0100
0010
0000
,
1000
0001
1000
0000
,
0001
0010
0001
0000
,
0020
0000
0200
0330
,
0010
0001
0100
0000
,
1000
0100
0010
0000
,
0100
0001
1000
0000
,
0010
0000
1001
1001
,
0001
0100
0001
0000
,
1000
0010
1000
0000
,
0001
0000
2000
0000
,
3100
0000
0000
0000
,
0010
0100
0001
0000
,
0100
0010
1000
0000
,
0100
1000
0001
0100
,
0010
0000
1000
0000
,
0100
0010
1000
0000
,
0010
0001
0100
0000
,
0010
0100
0001
1000
,
0100
0010
0100
0000
,
0010
0100
0001
0000
,
0010
0001
1000
0000
,
0100
0100
1000
0010
,
1000
0000
0100
0000
,
1000
0100
1000
0000
,
0001
0100
0001
0000
,
0010
0001
1000
0100
,
1000
0001
0010
0000
,
0220
0000
0330
0000
,
0001
0100
0001
0000
,
1000
0100
1000
0000
,
0010
0100
0010
0000
,
1000
0000
0001
0000
,
0010
0001
0200
0300
,
0010
1000
0200
0300
,
0010
0001
2000
3000
,
0020
0030
2000
3000
,
0200
0000
0000
0000
,
0000
0000
0300
0000
;

//---------------dance-single - Copied from----------------
#NOTES:
     dance-single:
     Copied from:
     Beginner:
     2:
     0.148,0.156,0.015,0.069,0.000:
0000
0000
0000
0000
,
0000
0000
0000
0000
,
0000
0000
0000
0000
,
0000
0000
0000
0000
,
1000
0000
1000
0000
,
0001
0000
0001
0000
,
0010
0000
0010
0000
,
0200
0000
0300
0000
,
1000
0000
0000
0100
,
0100
0000
0000
0000
,
0001
0000
0010
0000
,
0100
0000
0000
0000
,
0010
0000
0000
0001
,
0001
0000
0000
0000
,
1000
0000
0010
0000
,
1000
0000
0000
0000
,
0020
0000
0030
0000
,
2000
0000
3000
0000
,
0002
0000
0003
0000
,
0000
0100
0100
0100
,
0000
0010
0010
0000
,
0000
1000
1000
0000
,
0002
0000
0000
0000
,
0003
0000
0000
0000
,
1000
0000
1000
0000
,
0001
0000
0001
0000
,
0100
0000
0100
0000
,
0010
0000
0000
0000
,
0001
0000
0001
0000
,
0010
0000
0010
0000
,
0100
0000
0100
0000
,
1000
0000
0000
0000
,
1000
0000
1000
0000
,
0001
0000
0001
0000
,
0010
0000
0010
0000
,
0100
0000
0000
0000
,
0100
0000
0100
0000
,
1000
0000
1000
0000
,
0010
0000
0010
0000
,
0001
0000
0000
0000
,
1001
0000
0000
0000
,
0010
0000
0000
0000
,
1000
0000
0000
0000
,
0001
0000
1000
0000
,
0100
0000
0000
0000
,
0010
0000
0000
0100
,
0100
0000
0000
0000
,
1000
0000
0010
0000
,
0001
0000
0000
0000
,
0200
0000
0300
0000
,
0002
0000
0003
0000
,
2000
0000
3000
0000
,
0000
0010
0010
0010
,
0000
1000
1000
0000
,
0000
0001
0001
0000
,
0020
0000
0000
0000
,
0030
0000
0000
0000
,
0001
0000
0001
0000
,
1000
0000
1000
0000
,
0100
0000
0100
0000
,
0010
0000
0000
0000
,
1000
0000
1000
0000
,
0010
0000
0010
0000
,
0100
0000
0100
0000
,
0001
0000
0000
0000
,
0010
0000
0010
0000
,
0001
0000
0001
0000
,
0100
0000
0100
0000
,
1000
0000
0000
0000
,
0100
0000
0100
0000
,
0001
0000
0001
0000
,
1000
0000
1000
0000
,
0010
0000
0000
0000
,
1001
0000
0000
0000
,
1000
0000
1000
0000
,
0001
0000
0001
0000
,
0010
0000
0100
0000
,
0010
0000
0000
0000
,
0100
0000
0001
0000
,
0100
0000
0001
0000
,
1000
0000
0010
0000
,
1000
0000
0000
0000
,
0010
0000
0000
0000
;

//---------------dance-single - Copied from----------------
#NOTES:
     dance-single:
     Copied from:
     Medium:
     6:
     0.408,0.414,0.092,0.084,0.000:
0000
0000
0000
0000
,
0000
0000
0000
0000
,
0000
0000
0000
0000
,
0000
0000
0000
0000
,
0010
0000
0100
0000
0001
0100
1000
0000
,
0010
0000
0100
0000
0001
0100
1000
0000
,
0010
0000
0100
0000
0010
1000
0100
0001
,
0100
0100
1000
0010
,
0100
0001
1000
0000
,
0100
1000
0001
0000
,
0010
0000
0100
2000
0100
0000
0100
0000
,
3100
0000
0010
0001
,
0100
0000
0001
0010
0100
0000
0010
0000
,
0100
0000
0001
0010
0100
0000
0010
0000
,
0001
0000
1000
0001
0100
0000
0000
0000
,
0010
1000
0010
0100
,
0001
0100
1000
0100
,
0001
0010
1000
0010
,
0001
0000
0100
0001
1000
0000
0100
0000
,
1000
0010
0110
1001
,
0010
0000
0100
0000
0010
0000
1000
0100
,
0001
0000
0100
0000
0010
0000
0100
0010
,
0001
0010
0200
0000
,
2000
0000
0000
3300
,
0001
0000
0100
0000
0001
0010
0100
0000
,
0010
0000
0100
0000
1000
0100
0010
0000
,
0100
0001
1000
0010
,
0100
0001
1001
0010
,
0100
0000
0010
0000
1000
0010
0100
0000
,
0001
0000
0100
0000
0010
0100
0001
0000
,
0010
0001
1000
1000
,
0010
0100
0010
0100
0001
0100
1000
0000
,
0100
0000
0010
0000
1000
0001
0100
0000
,
0001
0000
0100
0000
0001
1000
0100
0000
,
1000
0010
0100
0100
,
0010
0000
1000
0010
0100
0000
1001
0000
,
0010
0000
0100
0000
0001
0010
0100
0000
,
0010
0000
0100
0000
1000
0100
0010
0000
,
0100
0001
1000
0010
,
0100
0010
0100
0010
1000
0100
1000
0000
,
0020
0000
0000
0030
,
0001
0000
0100
0000
0010
0100
1000
0000
,
0010
0000
0100
0000
0001
1000
0100
0000
,
0010
0010
0100
0000
,
1000
0100
0001
0100
,
1000
0000
0010
1000
0001
0000
0100
0000
,
0010
0000
0100
0010
0100
0000
0001
0000
,
0010
0010
0100
0000
,
1000
0001
0100
0001
,
1000
0100
1000
0010
,
0100
0000
0001
0000
0010
0000
0100
0010
,
0001
0000
0100
0000
0001
1000
0100
0000
,
1000
0010
0110
1001
,
0100
0000
1000
0000
0001
0000
0100
0002
,
0010
0000
0010
0003
0100
0000
1000
0200
,
1000
1000
0310
0000
,
2002
0000
0000
3003
,
0010
0000
0100
0010
0100
0000
0001
0000
,
1000
0000
0100
1000
0010
0000
0100
0000
,
0001
1000
0100
0010
,
0001
1000
0101
1100
,
0010
0000
0100
0000
0001
0010
0100
0000
,
1000
0000
0010
0000
1000
0010
0100
0000
,
0001
1000
0100
0100
,
1000
0000
0010
0100
0001
1000
0100
0010
,
0100
0000
0100
0000
0010
0100
1000
0000
,
0010
0000
0100
0000
0001
0100
1000
0000
,
1000
0100
0010
1000
,
0001
0100
0001
0000
1001
0000
0110
0000
,
0010
0000
0100
0000
0010
0001
0100
0000
,
0100
0000
0010
1000
0010
0000
1000
0000
,
0100
1000
0100
0010
0100
0000
0010
0000
,
0001
0000
1000
0000
0001
0100
0001
0000
,
2002
0000
0000
3003
,
0010
0000
0100
0000
0001
0010
0100
0000
,
0010
0000
0100
0000
0001
0010
0100
0000
,
0010
0000
0100
0000
1000
0100
0010
0001
,
1000
0010
0100
0001
,
1000
0000
0010
0000
1000
0100
0010
0000
,
1000
0000
0010
0000
1000
0100
0010
0000
,
1000
0000
0010
0000
1000
0001
0100
0001
,
1000
0000
0010
0000
0100
0000
0001
1000
,
0002
0000
0000
0000
,
0000
0000
0003
0000
;

//---------------dance-single - Copied from----------------
#NOTES:
     dance-single:
     Copied from:
     Hard:
     8:
     0.594,0.733,0.366,0.237,0.153:
0000
0000
0000
0000
,
0000
0000
0000
0000
,
0000
0000
0000
0000
,
0000
0000
0000
0000
,
0010
0000
0000
0100
0000
0000
0010
0000
0100
0000
0001
0000
1000
0000
0000
0000
,
0100
0000
0000
1000
0000
0000
0100
0000
0010
0000
0001
0000
0100
0000
0000
0000
,
0010
0000
0000
0100
0000
0000
0001
0000
0100
0000
1000
0000
0100
0000
0000
0000
,
0010
0100
0010
1000
0100
1000
0100
0000
,
0001
0100
0010
0100
1000
0000
0100
0000
,
0010
0000
0100
0001
0010
0000
0100
0000
,
0020
0000
0000
0230
0000
0000
2300
0000
0001
0000
0000
0000
3001
0000
0000
0000
,
0010
0000
0100
0010
0000
0000
0100
0000
0001
0000
0100
0000
0010
0000
0000
0000
,
1000
0000
0100
1000
0010
0100
0001
0000
,
1000
0000
0001
0100
0001
1000
0100
0000
,
0020
0000
0000
0230
0000
0000
0302
0000
1000
0000
0000
0000
1003
0000
0000
0000
,
0010
0000
1000
0010
0000
0000
0100
0000
0010
0000
0100
0000
0001
0000
0000
0000
,
1000
0100
0010
0100
1000
0001
0100
0000
,
0010
0100
0001
0100
1000
0100
0010
0000
,
1000
0001
0100
0000
0001
0000
0100
0000
,
0010
1000
1000
0000
0011
0000
1100
0000
,
0100
1000
0100
0010
0100
0000
0010
0000
,
0001
0010
0001
0010
0100
0000
0100
0000
,
1000
0010
0100
0001
0020
0000
0000
0000
,
0130
0100
1000
0100
0000
0000
1001
0000
,
0110
0000
0000
0010
0000
0000
0100
0000
0010
0000
1000
0000
1001
0000
0000
0000
,
0011
0000
0000
0001
0000
0000
0100
0000
0001
0000
0000
0000
1001
0000
0000
0000
,
0010
0100
0010
2000
0000
0001
3001
0100
,
0000
0010
1000
0100
0020
0000
0130
0000
,
0011
0000
0000
0001
0000
0000
1000
0000
0010
0000
0100
0000
0101
0000
0000
0000
,
1010
0000
0000
0010
0000
0000
0100
0000
0001
0000
0000
0000
1001
0000
0000
0000
,
0010
0100
0001
2000
0010
0000
0000
3010
,
0010
0100
0001
0010
0100
0000
1001
0000
,
1001
0000
0000
0010
0000
0000
0100
0000
0010
0000
0001
0000
1001
0000
0000
0000
,
0110
0000
0000
0001
0000
0000
1000
0000
0001
0000
0000
0000
0110
0000
0000
0000
,
0010
0100
0010
0000
1000
0001
0010
0002
,
0100
0000
0100
0103
0001
0100
1000
0000
,
0110
0000
0000
1000
0000
0000
1000
0000
0001
0000
1000
0000
1010
0000
0000
0000
,
0101
0000
0000
0001
0000
0000
1000
0000
0010
0000
0000
0000
0110
0000
0000
0000
,
0010
0100
0001
2000
0010
0000
0001
3001
,
1000
0010
0100
0001
0010
0000
0001
0000
,
2002
0000
0000
3003
,
0001
0010
0001
0100
0000
0010
1000
0000
,
0100
1000
0010
0100
0000
0001
0010
0000
,
0002
0000
0000
0203
0000
0000
2300
0000
0100
0000
0000
0000
3100
0000
0000
0000
,
0010
0000
0100
0010
0000
0000
0100
0000
0001
0000
1000
0000
0100
0000
0000
0000
,
0010
0001
1000
0000
0010
0000
0100
0000
,
0010
0001
1000
0000
0010
0000
1000
0000
,
0200
0000
0000
2300
0000
0000
3002
0000
0010
0000
0000
0000
0013
0000
0000
0000
,
0001
0000
1000
0001
0000
0000
0100
0000
0100
0000
0010
0000
1000
0000
0000
0000
,
0001
0100
0001
0100
0001
0100
0010
1000
,
0100
1000
0100
1000
0010
0000
0101
0000
,
1010
0000
0100
0010
0100
0000
1000
0000
,
0001
0100
1000
0100
0101
0000
1100
0000
,
0010
0100
0010
0100
0010
0100
0001
0010
,
0100
1000
0100
1000
0100
1000
0001
0000
,
0110
0001
2002
0003
,
3001
0100
0010
1000
0000
0000
0110
0000
,
0011
0000
0000
0010
0000
0000
0100
0000
1000
0000
0010
0000
1100
0000
0000
0000
,
0101
0000
0000
1000
0000
0000
0001
0000
0100
0000
0000
0000
1001
0000
0000
0000
,
0010
0001
0100
0020
0000
0100
0130
0001
,
0100
1000
0100
0010
1000
0000
0001
0000
,
1001
0000
0000
0010
0000
0000
0100
0000
0010
0000
1000
0000
1001
0000
0000
0000
,
0101
0000
0000
0010
0000
0000
0100
0000
1000
0000
0000
0000
1010
0000
0000
0000
,
0001
0100
1000
0200
0010
0000
0310
0010
,
0100
0001
1000
0010
0100
0000
0011
0000
,
0110
0000
0000
0010
0000
0000
0100
0000
0010
0000
1000
0000
1001
0000
0000
0000
,
0011
0000
0000
0001
0000
0000
0100
0000
0001
0000
0000
0000
1001
0000
0000
0000
,
0010
0100
0010
2000
0000
0001
3001
0100
,
0000
0010
1000
0100
0020
0000
0130
0000
,
0011
0000
0000
0001
0000
0000
1000
0000
0010
0000
0100
0000
0101
0000
0000
0000
,
1010
0000
0000
0010
0000
0000
0100
0000
0001
0000
0000
0000
1001
0000
0000
0000
,
0010
0100
0001
2000
0010
0000
0000
3010
,
0010
0100
0001
0010
0100
0000
1001
0000
,
2002
0000
0000
3003
,
0001
0000
0000
0100
0000
0000
0001
0000
1000
0000
0010
0000
0100
0000
0000
0000
,
0010
0000
0000
0100
0000
0000
0010
0000
1000
0000
0010
0000
0001
0000
0000
0000
,
0100
0000
0000
0010
0000
0000
0001
0000
1000
0000
0010
0000
0100
0000
0001
0000
,
1000
0100
0010
0001
0010
0100
1000
0000
,
0010
0000
1000
0100
0000
0001
0100
0000
0010
0000
0100
0000
0010
0000
0000
0000
,
1000
0000
0010
0100
0000
1000
0100
0000
0010
0000
0100
0000
0001
0000
0000
0000
,
1000
0000
0010
0100
0000
0001
0100
0000
0010
0000
1000
0000
0001
0000
0100
0000
,
0001
0010
0001
0010
0001
0000
1000
0100
1000
0100
1000
0000
0010
0000
0100
0000
,
2002
0000
0000
0000
,
0000
0000
3003
0000
;

//---------------dance-double - ----------------
#NOTES:
     dance-double:
     :
     Challenge:
     9:
     0.647,0.760,0.443,0.275,0.240: // measure 1
00000000
00000000
00000000
00000000
,  // measure 2
00000000
00000000
00000000
00000000
,  // measure 3
00000000
00000000
00000000
00000000
,  // measure 4
00000000
00000000
00000000
00000000
,  // measure 5
00100000
00000000
00000000
01000000
00000000
00000000
00100000
00000000
10000000
00000000
00010000
00000000
00100000
00000000
00001000
00000000
,  // measure 6
00010000
00000000
00000000
00000010
00000000
00000000
00000100
00000000
00000010
00000000
00001000
00000000
00000001
00000000
00000010
00000000
,  // measure 7
00000100
00000000
00000000
00000100
00000000
00000000
00000100
00000000
00000010
00000000
00000001
00000000
00000100
00000000
00000010
00000000
,  // measure 8
00001000
00000100
00001000
00000100
00000010
00000000
00000010
00000100
00001000
00000100
00000010
00000000
00000001
00000000
00000100
00000000
,  // measure 9
00001010
00000000
00011000
00000000
00001000
00100000
00010000
01000000
,  // measure 10
01100000
00000000
01010000
00000000
00010000
01000000
00100000
10000000
,  // measure 11
22000000
00000000
00000000
33000000
,  // measure 12
10000000
00000000
00010000
00100000
00000000
00010000
01000000
00000000
01000000
00000000
00001000
00000000
00010000
00000000
00000010
00000000
,  // measure 13
00000100
00000100
00000010
00001000
00000000
00001000
00000001
00000010
,  // measure 14
00000100
00000010
00000001
00000100
00000000
00000010
00001000
00000100
,  // measure 15
00010000
00000000
00001000
00200000
00000000
00000000
00000000
00000000
,  // measure 16
01300000
00000000
01000000
00100000
00000000
00000000
01000000
00000000
22000000
00000000
00000000
00000000
00000000
00000000
33000000
00000000
,  // measure 17
10000000
00010000
00100000
01000000
00100000
00010000
01000000
01000000
,  // measure 18
00000000
00010000
00100000
00001000
00010000
00000100
00001000
00001000
,  // measure 19
00000000
00001000
00000001
00000010
00000001
00000200
00000000
00000300
,  // measure 20
00000010
00001000
00000100
00000010
00000101
00000000
00002020
00003030
,  // measure 21
00000000
00000010
00010000
00001000
00010000
00100000
00010000
01000000
,  // measure 22
00000000
00100000
10000000
01000000
00010000
01000000
10000000
00200000
,  // measure 23
00000000
00000000
00000000
00300000
,  // measure 24
10010000
00110000
00101000
00011000
00000000
00000000
00000000
00000000
,  // measure 25
00010200
00000000
00000000
00001000
00000000
00000000
00001300
00000000
00000010
00000000
00000110
00000000
00000000
00000000
00000000
00000000
,  // measure 26
00000012
00000000
00000000
00000010
00000000
00000000
00000103
00000000
00000020
00000000
00000000
00000000
00000130
00000000
00000000
00000000
,  // measure 27
00000100
00001000
00000010
00000100
00000001
00000100
00001000
00000100
,  // measure 28
00010000
00011000
00001000
00011000
,  // measure 29
00102000
00000000
00000000
00010000
00000000
00000000
00013000
00000000
00001000
00000000
00100000
00000000
00000000
00000000
00000000
00000000
,  // measure 30
12000000
00000000
00000000
00100000
00000000
00000000
13000000
00000000
00200000
00000000
00000000
00000000
01300000
00000000
00000000
00000000
,  // measure 31
10000000
00010000
00100000
00001000
00000000
00002000
00000000
00000000
,  // measure 32
00013000
00001000
00010000
00000100
00001000
00000010
00000100
00000000
,  // measure 33
00000120
00000000
00000000
00001000
00000000
00000000
00000130
00000000
00000010
00000000
00001000
00000000
00000000
00000000
00000000
00000000
,  // measure 34
00012000
00000000
00000000
00100000
00000000
00000000
00103000
00000000
00020000
00000000
00000000
00000000
01030000
00000000
00000000
00000000
,  // measure 35
00010000
01000000
00100000
10000000
01000000
00010000
01000000
10000000
,  // measure 36
11000000
01010000
00011000
00001100
,  // measure 37
00002001
00000000
00000000
00000100
00000000
00000000
00003100
00000000
00001000
00000000
00000020
00000000
00000000
00000000
00000030
00000000
,  // measure 38
00001100
00000000
00000000
00000011
00000000
00000000
00000001
00000000
00000220
00000000
00000000
00000000
00000330
00000000
00000000
00000000
,  // measure 39
00000100
00001000
00000010
00000100
00000001
00000100
00001000
00000100
,  // measure 40
00000001
00000010
00000100
00001000
00000100
00010000
00001000
00100000
,  // measure 41
00020000
00000000
00000000
00000000
,  // measure 42
00130000
00010000
01000000
00100000
00000000
01000000
00100000
10000000
,  // measure 43
01000000
00100000
00010000
00100000
00000000
00100000
00010000
00100000
,  // measure 44
00001000
00010000
00000100
00000100
00000000
00000000
00000000
00000000
,  // measure 45
00001000
00000000
00000001
00000010
00000000
00000001
00000100
00000000
00000001
00000000
00000100
00000000
00001000
00000000
00000100
00000000
,  // measure 46
00000001
00000100
00000001
00000010
00000000
00000010
00000100
00001000
,  // measure 47
00000100
00000010
00000100
00001000
00000000
00000100
00001000
00000010
,  // measure 48
00000100
00000000
00000100
00000001
00000000
00000000
00000000
00000000
,  // measure 49
00000100
00000000
00000010
00010000
00000000
00010000
00001000
00000000
00102000
00000000
00103000
00000000
00201000
00000000
00001000
00000000
,  // measure 50
00301000
00100000
00010000
01000000
00100000
00100000
00010000
01010000
,  // measure 51
00000000
00010000
10000000
10000000
01000000
00100000
01000000
10000000
,  // measure 52
00000000
00010000
01000000
00100000
10000000
20000000
00000000
30000000
,  // measure 53
00000000
10000000
01000000
00100000
00010000
00000000
00101000
00000000
,  // measure 54
00010000
00001000
00010000
00000100
00001000
00000010
00000100
00000001
,  // measure 55
00000000
00000001
00000010
00000100
00000010
00000001
00000100
00000020
,  // measure 56
00000000
00000000
00000000
00000000
00000000
00000000
00000000
00000030
,  // measure 57
00000110
00001010
00001100
00000110
00000000
00000000
00000000
00000000
,  // measure 58
00000110
00000000
00000000
00011000
00000000
00000000
00001000
00000000
00100000
00000000
01000000
00000000
00000000
00000000
00000000
00000000
,  // measure 59
11000000
00000000
00000000
00110000
00000000
00000000
00010000
00000000
02000000
00000000
00000000
00000000
03100000
00000000
00000000
00000000
,  // measure 60
10000000
00010000
00100000
00001000
00010000
00000100
00001000
00000010
,  // measure 61
00000101
00001010
00001100
00000011
,  // measure 62
00000101
00000000
00000000
00001100
00000000
00000000
00001000
00000000
00000100
00000000
00000010
00000000
00000000
00000000
00000000
00000000
,  // measure 63
00000011
00000000
00000000
00001010
00000000
00000000
00000010
00000000
00020000
00000000
00000000
00000000
00031000
00000000
00000000
00000000
,  // measure 64
00010000
00100000
01000000
00100000
00010000
01000000
00100000
10000000
,  // measure 65
01000000
10000000
01000000
00100000
01000000
10000000
00010000
01000000
00100000
10000000
01000000
00100000
01000000
10000000
00010000
01000000
,  // measure 66
00010000
00000000
00000000
01010000
00000000
00000000
01000000
00000000
00100000
00000000
00100000
00000000
00000000
00000000
00000000
00000000
,  // measure 67
10010000
00000000
00000000
00110000
00000000
00000000
00100000
00000000
00002000
00000000
00000000
00000000
00013000
00000000
00000000
00000000
,  // measure 68
00010000
00001000
00010000
00000100
00010000
00001000
00100000
00010000
,  // measure 69
01000000
00010000
00100000
00001000
00010000
00000100
00001000
00000000
,  // measure 70
00001100
00000000
00000000
00001010
00000000
00000000
00000010
00000000
00000100
00000000
00001000
00000000
00000000
00000000
00000000
00000000
,  // measure 71
00001100
00000000
00000000
00000011
00000000
00000000
00000001
00000000
00000202
00000000
00000000
00000000
00000303
00000000
00000000
00000000
,  // measure 72
00000001
00001000
00000100
00000100
00001000
00000001
00000010
00000100
,  // measure 73
00000010
00000001
00001000
00000100
00001000
00000100
00001000
00000010
00000100
00000001
00000010
00000100
00000010
00000001
00001000
00000010
,  // measure 74
00002000
00000000
00000000
00000000
,  // measure 75
00003100
00000000
00000000
00000100
00000000
00000000
00000100
00000000
00010000
00000000
00001000
00000000
00100000
00000000
00010000
00000000
,  // measure 76
01000000
00000000
00000000
01000000
00000000
00000000
01000000
00000000
00100000
00000000
10000000
00000000
00010000
00000000
00100000
00000000
,  // measure 77
01000000
00000000
00000000
00100000
00000000
00000000
00010000
00000000
01000000
00000000
00100000
00000000
10000000
00000000
01000000
00000000
,  // measure 78
10000000
00010000
00100000
00010000
01000000
00000000
01000000
00010000
00100000
00001000
00010000
00000000
00010000
00000000
00000100
00000000
,  // measure 79
00001000
00000000
00000010
00000100
00000000
00000100
00000001
00000000
00000001
00000000
00000010
00000000
00000100
00000000
00000010
00000000
,  // measure 80
00000001
00000000
00000001
00000100
00000000
00000010
00001000
00000000
00000100
00000000
00001000
00000000
00000010
00000000
00000100
00000000
,  // measure 81
00000001
00000000
00001000
00000001
00000000
00000001
00000010
00000000
00000100
00000000
00001000
00000000
00000100
00000000
00000010
00000000
,  // measure 82
00000001
00001000
00000001
00001000
00000010
00000000
00000010
00000001
00000010
00000001
00000100
00000000
00000100
00000000
00000010
00000000
,  // measure 83
00000102
00000200
00000000
00000000
00000000
00000000
00000000
00000000
,  // measure 84
00000303
00000000
00000000
00000000
;
