#TITLE:Aurora;
#SUBTITLE:;
#ARTIST:Ryu*;
#TITLETRANSLIT:;
#SUBTITLETRANSLIT:;
#ARTISTTRANSLIT:;
#CREDIT:;
#BANNER:bn.png;
#BACKGROUND:bg.png;
#LYRICSPATH:;
#CDTITLE:CDTitle.png;
#MUSIC:Aurora.mp3;
#OFFSET:2.234;
#SAMPLESTART:69.340;
#SAMPLELENGTH:10.760;
#SELECTABLE:YES;
#BPMS:0.000=181.000,40.000=90.500,42.000=181.000,203.000=90.500,205.000=181.000;
#STOPS:138.000=2.320
;
#BGCHANGES:0.000=Ryu Aurora.avi=1.000=1=0=1,
99999=-nosongbg-=1.000=0=0=0 // don't automatically add -songbackground-
;

//---------------dance-single - ----------------
#NOTES:
     dance-single:
     :
     Hard:
     9:
     0.566,0.717,0.153,0.161,0.543:
0000
0000
0000
0000
,
0000
0000
0000
0000
,
0000
0000
0000
0000
,
0000
0000
0000
0000
,
0000
0000
0000
0000
,
0000
0000
0000
0000
,
0000
0000
0000
0000
,
0000
0000
0000
0000
,
0000
0000
0000
0000
,
0000
0000
0000
0000
,
2002
0000
0000
3003
1000
0001
0010
0001
,
1000
0100
0010
0000
0001
1000
0001
0100
,
0001
0001
0010
0000
0010
0100
1000
0010
,
0100
0001
0010
0000
0010
0100
1000
0001
,
0200
0000
0310
0000
0010
1000
0001
0010
,
0100
1000
0000
0000
1000
0001
0100
0001
,
1000
1000
1100
0000
1000
0001
0010
0001
,
0100
0010
0000
0000
0110
0000
0110
0000
,
0010
1000
0000
1000
0001
0000
0010
0000
0100
0000
0000
0100
0000
0000
0100
0000
,
0000
0000
1000
0000
0100
0000
0001
0000
0100
0000
0000
0010
0000
0000
0100
0000
,
0000
0001
0000
0000
0100
0000
0000
0000
1000
0000
0000
0010
0000
0000
0100
0000
,
0000
0000
0010
0000
1000
0000
0001
0000
0010
0000
0000
0100
0000
0000
1000
0000
,
0000
0001
0000
0000
0100
0000
0010
0000
1000
0000
0000
0000
0101
0000
0000
0000
,
0000
0000
0001
0000
1000
0000
0100
0000
1000
0000
0000
0010
0000
0000
0100
0000
,
0000
0010
0000
0000
1000
0000
0000
0000
1000
0000
0000
0001
0000
0000
0010
0000
,
0000
0000
0001
0000
0100
0000
0010
0000
0100
0000
0000
0001
0000
0000
0010
0000
,
0000
0100
0000
0000
1000
0000
0000
0000
1002
0000
0000
0000
0103
0000
0000
0000
,
2001
3100
1002
0103
,
2001
3100
1002
0103
,
2001
3100
0110
1001
,
0110
0000
1001
0000
0001
0100
0010
1000
,
0100
1000
0010
0000
0010
0100
0010
1000
,
0001
0010
0100
0000
0100
0010
0001
0010
,
0100
1000
0001
0100
0020
0000
0000
0000
,
2030
0000
3100
0001
,
0000
1000
0000
0010
,
0010
0100
0100
0010
,
0000
1000
0000
0001
,
0100
1000
0100
0100
,
0000
0001
0000
0001
,
0010
1000
0010
0001
,
0000
0100
0000
0001
,
0100
0000
0010
0000
0001
0100
2000
0000
,
3100
0000
0000
0000
0200
0000
0000
0000
0310
0000
0000
0000
0100
0000
0000
0010
,
0000
0000
1000
0000
0000
0001
0000
0000
0001
0000
0010
0000
0100
0000
0000
0000
,
0100
0000
0000
0000
0100
0000
0000
0000
0100
0000
0000
0000
0100
0000
0000
0100
,
0000
0000
0100
0000
0000
0100
0000
0000
0100
0000
1000
0000
0010
0000
0000
0000
,
0010
0000
0000
0000
0010
0000
0000
0000
0010
0000
0000
0000
0100
0000
0000
0010
,
0000
0000
1000
0000
0000
0001
0000
0000
0001
0000
0010
0000
0100
0000
0000
0000
,
0000
1000
1010
0000
0000
0001
0202
0000
,
0000
0000
0000
0303
,
0000
0000
1000
0100
1000
0000
0001
0100
,
0001
0000
0000
0000
0001
0000
0000
0100
0000
0000
0010
0000
0000
1000
0000
0000
,
1000
0010
0100
0010
1000
0000
0001
0100
,
0010
0000
0000
0000
0100
0000
0000
0010
0000
0000
0100
0000
0000
0001
0000
0000
,
0001
1000
0100
0010
0100
0000
0010
1000
,
0001
0000
0000
0000
0001
0000
0000
0100
0000
0000
0010
0000
0000
1000
0000
0000
,
1000
0001
0010
0100
1000
0000
0100
0010
,
0001
0000
0000
0000
0100
0000
0000
0010
0000
0000
1000
0000
0000
0001
0000
0000
,
0010
0000
0001
0000
1000
0000
0000
0001
0000
0100
0000
0000
0010
0000
0000
0100
,
0000
0010
0000
0000
1000
0000
0000
0100
0000
1000
0000
0000
0010
0000
0000
0001
,
0000
0010
0000
0000
0001
0000
0000
0100
0000
0010
0000
0000
0100
0000
0000
0010
,
0000
1000
0000
0000
0001
0000
0000
0001
0000
0000
1000
0000
0000
1000
0000
0000
,
0001
0000
0100
0000
0010
0000
0000
0100
0000
0010
0000
0000
1000
0000
0000
0001
,
0000
0010
0000
0000
0100
0000
0000
1000
0000
0100
0000
0000
1000
0000
0000
0001
,
0000
0100
0000
0000
0010
0000
0000
0100
0000
0010
0000
0000
1000
0000
0000
1000
,
0000
0001
0000
0001
0010
0000
0000
0001
0000
0000
0100
0000
0000
0010
0000
0000
,
1000
0000
0001
0000
0100
0000
0010
1000
0000
0001
0000
0010
0001
0000
0001
0100
,
0000
0001
0100
0010
1000
0000
0000
1000
0000
0000
1000
0000
0000
1000
0000
0000
,
1000
0000
0001
0000
0100
0000
0010
1000
0000
0100
0000
1000
0100
0000
0100
1000
,
0000
1000
0001
0100
0010
0000
0000
0010
0000
0000
0010
0000
0000
0010
0000
0000
,
0010
0000
0100
0000
0010
0000
1000
0001
0000
0010
0000
0010
0001
0000
0001
0100
,
0000
0010
1000
0001
0010
0000
0000
0010
0000
0000
0010
0000
0000
0010
0000
0000
,
0010
0000
0001
0000
0100
0000
0001
0100
0000
0010
0000
0100
0010
0000
0010
1000
,
0000
0001
0000
1000
0100
0000
0000
1000
0000
0000
0010
0000
0000
0100
0000
0000
,
0001
0000
1000
0000
0100
0000
0000
1000
0000
1000
0000
1000
0100
0000
0000
0010
,
0000
0001
0000
0010
0001
0000
0000
0100
0000
0010
0000
1000
0100
0000
0000
1000
,
0000
0001
0000
0010
0001
0000
0000
0001
0000
0100
0000
0010
0100
0000
0000
0010
,
0000
1000
0000
0001
0010
0000
0000
0100
0000
0000
1000
0000
0000
0001
0000
0000
,
0001
0000
0100
0000
0010
0000
1000
0010
0000
1000
0000
0100
1000
0000
1000
0100
,
0000
0010
0000
0010
0001
0000
0001
0010
0000
0001
0000
0001
0100
0000
0100
0010
,
0000
0100
0000
0010
1000
0000
0001
0010
0000
0001
0000
0100
0010
0000
1000
0100
,
0000
0010
0000
0001
0020
0000
0000
0031
0000
0000
0020
0000
0000
0130
0000
0000
,
0100
1000
0220
0000
0000
0000
0000
0000
,
0000
0000
0330
0000
;

//---------------dance-single - ----------------
#NOTES:
     dance-single:
     :
     Medium:
     7:
     0.451,0.567,0.229,0.255,0.093:
0000
0000
0000
0000
,
0000
0000
0000
0000
,
0000
0000
0000
0000
,
0000
0000
0000
0000
,
0000
0000
0000
0000
,
0000
0000
0000
0000
,
0000
0000
0000
0000
,
0000
0000
0000
0000
,
0000
0000
0000
0000
,
0000
0000
0000
0000
,
1001
0000
0001
0100
,
0010
0100
0010
0000
1000
0000
0100
0000
,
1000
0100
0010
0000
0001
0000
0010
0000
,
0001
0100
0010
0000
0100
0000
0110
0000
,
0010
0000
1001
0000
0001
0100
0001
0100
,
0010
1000
0000
0000
1000
0100
1000
0100
,
1000
1000
1000
0000
0001
1000
0001
1000
,
0001
1000
0000
0000
1001
0000
1001
0000
,
1001
0001
1001
0000
0001
0100
0010
0000
,
0010
0100
0010
0010
,
1000
0000
1000
0000
0001
0100
0010
0000
,
0100
0000
0010
1000
0100
0000
0100
0000
,
1000
0000
0010
0100
0001
0000
1100
0000
,
0000
0010
1000
0001
0100
0000
0100
0000
,
0100
0100
0010
1000
,
0001
0000
0001
0100
0010
0000
1000
0000
,
0001
0100
0020
1030
,
0200
1300
0020
0130
,
0002
0013
0200
0000
,
0000
0300
0020
1030
,
2000
3100
2000
3100
,
1000
0100
0010
0001
0020
0000
0000
0000
,
0031
0010
0100
0010
2000
0000
0000
0000
,
0000
0000
0100
0000
,
0010
0000
3001
0001
,
0000
1000
0000
0010
,
0010
0010
0010
0100
,
0000
0100
0000
0100
,
0100
0100
0100
0010
,
0000
1000
0000
0001
,
0001
0001
0001
1000
,
0000
1000
0000
0010
,
0100
0010
1000
1001
,
0000
0000
0000
0001
,
0000
1000
0000
0020
,
0000
0000
0030
0100
,
0000
0000
0010
0000
1000
0010
0100
0000
,
0000
0000
0000
0000
0000
0010
0100
0000
,
0000
0000
0000
0000
0000
0001
0100
0000
,
0000
1000
0100
0000
0000
0010
0011
0000
,
1100
0000
0110
0000
0001
1000
2020
0000
,
3030
0000
0100
0001
1000
0000
0001
0100
,
0001
0100
0100
0100
,
0100
0000
0010
1000
0001
0000
0001
0010
,
0100
1000
0010
0100
,
0001
0100
0010
1000
0100
0000
1000
0100
,
1000
0010
0100
0001
,
1000
0001
0100
0010
0100
0000
0010
1000
,
0010
1000
0100
0010
,
0001
0100
0020
0000
1030
0000
0020
0000
,
0130
0020
1030
0020
,
0130
0020
1030
0020
,
0130
0010
1000
0001
,
1000
0001
0020
0000
0031
0000
0020
0000
,
0130
0020
0031
0020
,
0130
0020
0031
0020
,
0130
2002
0000
0000
,
3003
0001
0100
0010
,
1000
0000
0000
0000
1100
0000
0000
1100
0000
0000
1100
0000
0000
1100
0000
0000
,
1000
0001
0100
0000
0010
0000
1000
0000
,
0001
0000
0000
0000
0011
0000
0000
0011
0000
0000
0011
0000
0000
0011
0000
0000
,
0001
0100
0010
0000
0100
0000
0010
0000
,
1000
0000
0000
0000
1001
0000
0000
1100
0000
0000
1001
0000
0000
0101
0000
0000
,
0010
1000
0100
0000
1000
0001
0100
0000
,
0100
0010
2000
0000
0000
0000
0000
0000
,
3000
0000
0001
0100
0001
0000
0001
0100
,
0010
0000
0010
1000
0100
0000
0100
1000
,
0010
0000
0010
1000
0001
0000
0001
0010
,
0001
0000
0000
0000
0001
0000
0000
0100
0000
0000
0010
0000
0000
1000
0000
0000
,
0001
0000
0100
0000
0010
0000
0000
0100
0000
0010
0000
0000
1000
0000
0000
0100
,
0000
1000
0000
0000
0010
0000
0000
0100
0000
0010
0000
0000
0100
0000
0000
0010
,
0000
1000
0000
0000
0001
0000
0000
0010
0000
0001
0000
0000
0100
0000
0000
0010
,
0000
1000
0000
0000
0001
0000
0000
0001
0000
0000
1000
0000
0000
1000
0000
0000
,
0001
1000
0220
0000
0330
0000
0000
0000
;

//---------------dance-double - ----------------
#NOTES:
     dance-double:
     :
     Challenge:
     9:
     0.584,0.708,0.365,0.407,0.454:
00000000
00000000
00000000
00000000
,
00000000
00000000
00000000
00000000
,
00000000
00000000
00000000
00000000
,
00000000
00000000
00000000
00000000
,
00000000
00000000
00000000
00000000
,
00000000
00000000
00000000
00000000
,
00000000
00000000
00000000
00000000
,
00000000
00000000
00000000
00000000
,
00000000
00000000
00000000
00000000
,
00000000
00000000
00000000
00000000
,
02200000
03300000
01000000
01010000
,
01000000
00010000
00100000
00000000
00001000
00000000
00101000
00000000
,
00100000
00001000
00010000
00000000
00011000
00000000
00001100
00000000
,
00001000
00000001
00000010
00000000
00000001
00000100
00000010
00000000
,
00000010
00001000
00000100
00000000
00000100
00010000
00001000
00100000
,
00010000
01000000
00100000
00000000
00100000
10000000
01000000
00100000
,
00010000
00010000
00110000
00000000
00010000
01000000
00100000
01000000
,
00010000
00100000
00001000
00000000
00011000
00000000
00011000
00000000
,
00100000
00001000
00010000
00001000
00100000
00000000
00010000
00000000
01000000
00000000
00000000
00100000
00000000
00000000
10000000
00000000
,
00000000
00000000
10000000
00000000
01000000
00000000
00100000
00000000
00010000
00000000
00000000
00100000
00000000
00000000
00001000
00000000
,
00000000
00010000
00000000
00000000
00000010
00000000
00000000
00000000
00000100
00000000
00000000
00000100
00000000
00000000
00000100
00000000
,
00000010
00000000
00001000
00000000
00000100
00000000
00001000
00000000
00000001
00000000
00000000
00000010
00000000
00000000
00001000
00000000
,
00000000
00000010
00000000
00000000
00000001
00000000
00000100
00000000
00000010
00000000
00000000
00000000
00011000
00000000
00000000
00000000
,
00000000
00000000
00001000
00000000
00100000
00000000
00010000
00000000
01000000
00000000
00000000
00100000
00000000
00000000
10000000
00000000
,
00000000
00010000
00000000
00000000
00100000
00000000
00000000
00000000
00100000
00000000
00000000
00001000
00000000
00000000
00010000
00000000
,
00000000
00000000
00010000
00000000
00000100
00000000
00001000
00000000
00000010
00000000
00000000
00000100
00000000
00000000
00000001
00000000
,
00000000
00001000
00000000
00000000
00001100
00000000
00000000
00000000
00000200
00000000
00000000
00000000
00000310
00000000
00000000
00000000
,
00000020
00000031
00000002
00001003
,
00000200
00010300
00002000
00103000
,
00200000
00310000
02000000
00100000
,
00100000
03100000
02000000
03002000
,
00023000
00030200
00002300
00003020
,
00020030
00032000
02003000
03200000
,
20300000
32000000
03200000
00000000
,
00302000
00000000
00023000
00031000
,
00100000
00010000
01000000
00200000
,
00000000
00000000
00300000
01000000
,
00010000
00100000
00001000
00020000
,
00000000
00000000
00030000
00001000
,
00100000
00001000
00010000
00000200
,
00000000
00000000
00000300
00000100
,
00000100
00000010
00000001
00002200
,
00000000
00000000
00003300
00000000
00000010
00001000
00001200
00000000
,
00010300
00000200
00001300
00000020
,
00000000
00000000
00000030
00000010
,
00010000
00001000
01000000
00200000
,
00000000
00000000
00000000
00000000
01000000
01000000
01300000
00000000
,
00000000
00000000
00000000
00110000
,
00000000
00000000
00000000
00101000
,
00000000
00010100
00000000
00011000
,
00110000
01100000
01010000
02002000
,
03003000
00000000
01000000
00001000
00010000
00000100
00001000
00000010
,
00000100
00000001
00000020
00000000
00000130
00000000
00000200
00000000
,
00000310
00000000
00000010
00001000
00000100
00010000
00001000
00100000
,
00010000
01000000
20000000
00000000
30100000
00000000
00200000
00000000
,
00310000
00100000
10000000
01000000
00100000
01000000
00100000
00001000
,
00010000
00000100
00002000
00000000
00003100
00000000
00000200
00000000
,
00010300
00000000
00010000
00000010
00000100
00000001
00001000
00000100
,
00010000
00001000
00200000
00000000
01000000
00000000
00310000
00000000
,
10010000
00000000
10010000
00000000
10010000
00000000
00000000
10000000
00000000
01000000
00000000
00000000
01100000
00000000
00000000
00100000
,
00000000
00010000
00000000
00000000
00011000
00000000
00000000
00010000
00000000
00001000
00000000
00000000
00010100
00000000
00000000
00000100
,
00000000
00001000
00000000
00000000
00001100
00000000
00000000
00001000
00000000
00000010
00000000
00000000
00000110
00000000
00000000
00000100
,
00000000
00000001
00000000
00000001
00001000
00000000
00000000
00001000
00000000
00000000
00000001
00000000
00000000
00000001
00000000
00000000
,
00001000
00000000
00000100
00000000
00011000
00000000
00000000
01000000
00000000
01000000
00000000
00000000
01100000
00000000
00000000
00100000
,
00000000
01000000
00000000
00000000
01001000
00000000
00000000
00010000
00000000
00001000
00000000
00000000
00010100
00000000
00000000
00000100
,
00000000
00001000
00000000
00000000
00001100
00000000
00000000
00001000
00000000
00000010
00000000
00000000
00000110
00000000
00000000
00000100
,
00000000
00000001
00000000
00000001
00001000
00000000
00000000
00001000
00000000
00000000
00000001
00000000
00000000
00000001
00000000
00000000
,
00000001
00000000
00000100
00000000
00000010
00000000
00000010
00001000
00000000
00000100
00000000
00000100
00010000
00000000
00001000
00010000
,
00000000
00001000
00100000
00010000
02000000
00000000
00000000
00000000
00000000
00000000
00000000
00000000
00000000
00000000
00000000
00000000
,
03000000
00000000
00000000
00000000
00100000
00000000
10000000
00100000
00000000
01000000
00000000
01000000
00010000
00000000
00010000
00100000
,
00000000
00010000
00100000
01000000
20000000
00000000
00000000
00000000
00000000
00000000
00000000
00000000
00000000
00000000
00000000
00000000
,
30000000
00000000
00000000
00000000
10000000
00000000
00010000
00100000
00000000
00001000
00000000
00010000
00000100
00000000
00000100
00010000
,
00000000
00000100
00010000
00001000
00200000
00000000
00000000
00000000
00000000
00000000
00000000
00000000
00000000
00000000
00000000
00000000
,
00300000
00000000
00000000
00000000
00001000
00000000
00010000
00000100
00000000
00001000
00000000
00010000
00001000
00000000
00010000
00000100
,
00000000
00000100
00001000
00000010
00000200
00000000
00000000
00000000
00000000
00000000
00000000
00000000
00000000
00000000
00000000
00000000
,
00000300
00000000
00000000
00000000
00000010
00000000
00000001
00000010
00000000
00000001
00000000
00000010
00000001
00000000
00000100
00000001
,
00000000
00000100
00000000
00000001
00000100
00000000
00000010
00000100
00000000
00000010
00000000
00000100
00000010
00000000
00001000
00000010
,
00000000
00001000
00000000
00000010
00001000
00000000
00000100
00001000
00000000
00000100
00000000
00000100
00001000
00000000
00001000
00000100
,
00000000
00001000
00000000
00000100
00010000
00000000
00000000
00011000
00000000
00000000
00001000
00000000
00000000
00011000
00000000
00000000
,
00001000
00000000
00100000
00000000
00010000
00000000
01000000
00010000
00000000
01000000
00000000
01000000
00100000
00000000
00100000
10000000
,
00000000
00010000
00000000
00010000
00100000
00000000
00100000
01000000
00000000
01000000
00000000
01000000
10000000
00000000
10000000
01000000
,
00000000
00100000
00000000
00100000
00010000
00000000
00010000
01000000
00000000
00100000
00000000
00100000
10000000
00000000
10000000
00010000
,
00000000
00010000
00000000
00010000
01010000
00000000
00000000
00110000
00000000
00000000
00011000
00000000
00000000
00001100
00000000
00000000
,
00000110
00001010
00020020
00000000
00030030
00000000
00000000
00000000
;

//---------------dance-single - ----------------
#NOTES:
     dance-single:
     :
     Easy:
     5:
     0.311,0.426,0.221,0.221,0.000: // measure 1
0000
0000
0000
0000
,  // measure 2
0000
0000
0000
0000
,  // measure 3
0000
0000
0000
0000
,  // measure 4
0000
0000
0000
0000
,  // measure 5
0000
0000
0000
0000
,  // measure 6
0000
0000
0000
0000
,  // measure 7
0000
0000
0000
0000
,  // measure 8
0000
0000
0000
0000
,  // measure 9
0000
0000
0000
0000
,  // measure 10
0000
0000
0000
0000
,  // measure 11
1001
0000
0010
1000
,  // measure 12
0010
0000
0100
0001
,  // measure 13
1000
0001
1000
0000
0100
0000
0100
0000
,  // measure 14
0010
0000
0100
0001
,  // measure 15
0100
0001
0100
0000
0010
0000
1000
0000
,  // measure 16
0100
0000
0100
1000
,  // measure 17
0010
0100
0010
0000
0100
0000
0010
0000
,  // measure 18
1000
0000
0001
0001
,  // measure 19
1001
0000
0001
0100
,  // measure 20
0010
1000
0100
0001
,  // measure 21
0100
1000
0010
0010
,  // measure 22
0010
0100
0001
1000
,  // measure 23
0010
0000
0100
0001
0010
0000
1100
0000
,  // measure 24
0000
1000
0100
1000
,  // measure 25
0010
0100
0001
0001
,  // measure 26
1000
1000
0001
0100
,  // measure 27
0010
1000
0200
0300
,  // measure 28
2000
3000
0200
0300
,  // measure 29
2000
3000
0020
0000
,  // measure 30
0000
0030
0002
0003
,  // measure 31
0020
0030
2000
0000
,  // measure 32
3020
0000
0230
0000
,  // measure 33
0302
0000
0020
0000
,  // measure 34
0000
0003
0001
0000
,  // measure 35
0031
0000
1100
1000
,  // measure 36
0000
1000
0000
2000
,  // measure 37
0000
0000
3000
0001
,  // measure 38
0000
0001
0000
0002
,  // measure 39
0000
0000
0003
0100
,  // measure 40
0000
0100
0000
0200
,  // measure 41
0000
0000
0300
0010
,  // measure 42
0000
0010
0000
0020
,  // measure 43
0000
0000
0030
0110
,  // measure 44
0000
0010
0000
0200
,  // measure 45
0000
0000
0300
0010
,  // measure 46
0000
1000
0000
0002
,  // measure 47
0000
0000
0003
0011
,  // measure 48
0000
0000
0000
1100
,  // measure 49
0000
0000
0000
0110
,  // measure 50
0000
1010
0000
0011
,  // measure 51
1100
0110
1001
1010
,  // measure 52
0000
1000
1000
0001
,  // measure 53
0001
1000
0100
0001
,  // measure 54
0100
1000
1000
0010
,  // measure 55
0010
0100
0001
0010
,  // measure 56
0100
0010
0010
0001
,  // measure 57
0001
0010
0100
0010
,  // measure 58
0001
0100
0100
0010
,  // measure 59
0010
1000
0001
0100
,  // measure 60
0010
1010
0000
0001
,  // measure 61
0000
1100
0000
0010
,  // measure 62
0000
1001
0000
0010
,  // measure 63
0000
0100
0010
1000
,  // measure 64
0001
0101
0000
1100
,  // measure 65
0000
0011
0000
1010
,  // measure 66
0000
0010
0000
0100
,  // measure 67
0000
2002
0000
0000
,  // measure 68
3003
0001
0100
0010
,  // measure 69
1000
1100
0000
0000
,  // measure 70
0000
1000
0100
0010
,  // measure 71
0001
1100
0000
0000
,  // measure 72
0000
0001
0010
0100
,  // measure 73
1000
0011
0000
0000
,  // measure 74
0000
0001
0100
0010
,  // measure 75
1000
2002
0000
0000
,  // measure 76
3003
0001
0001
1000
,  // measure 77
1000
0001
0100
0010
,  // measure 78
1000
0100
0100
1000
,  // measure 79
1000
2000
0000
0000
,  // measure 80
3000
0100
1000
0010
,  // measure 81
0100
0001
0010
0100
,  // measure 82
0010
0001
0100
0010
,  // measure 83
1000
2000
3001
0200
,  // measure 84
0301
0100
0020
0000
0000
0030
0000
0000
;

//---------------dance-single - ----------------
#NOTES:
     dance-single:
     :
     Beginner:
     2:
     0.166,0.283,0.085,0.000,0.000: // measure 1
0000
0000
0000
0000
,  // measure 2
0000
0000
0000
0000
,  // measure 3
0000
0000
0000
0000
,  // measure 4
0000
0000
0000
0000
,  // measure 5
0000
0000
0000
0000
,  // measure 6
0000
0000
0000
0000
,  // measure 7
0000
0000
0000
0000
,  // measure 8
0000
0000
0000
0000
,  // measure 9
0000
0000
0000
0000
,  // measure 10
0000
0000
0000
0000
,  // measure 11
1001
0000
0010
0010
,  // measure 12
0010
0000
0100
0100
,  // measure 13
0100
0000
0010
0010
,  // measure 14
0010
0000
0010
0000
,  // measure 15
0100
0000
0001
0001
,  // measure 16
0001
0000
1000
1000
,  // measure 17
1000
0000
0001
0001
,  // measure 18
0001
0000
0010
0010
,  // measure 19
0010
0000
0100
0000
,  // measure 20
0000
0000
0100
0000
,  // measure 21
0100
0000
1000
0000
,  // measure 22
0000
0000
1000
0000
,  // measure 23
0001
0000
0010
1001
,  // measure 24
0000
0000
0100
0000
,  // measure 25
0100
0000
0010
0000
,  // measure 26
0000
0000
0010
0000
,  // measure 27
0010
0000
1000
0000
,  // measure 28
1000
0000
1000
0000
,  // measure 29
1000
0000
1000
0000
,  // measure 30
0000
0000
0001
0000
,  // measure 31
0010
0010
0010
0000
,  // measure 32
0010
0000
0010
0000
,  // measure 33
0100
0000
1000
0000
,  // measure 34
0000
0000
0001
0000
,  // measure 35
1000
0000
1001
0010
,  // measure 36
0000
0000
0000
0000
,  // measure 37
0000
0000
0000
0100
,  // measure 38
0000
0000
0000
0000
,  // measure 39
0000
0000
0000
0001
,  // measure 40
0000
0000
0000
0000
,  // measure 41
0000
0000
0000
1000
,  // measure 42
0000
0000
0000
0000
,  // measure 43
0000
0000
0010
0010
,  // measure 44
0000
0000
0000
0100
,  // measure 45
0000
0000
0000
0010
,  // measure 46
0000
0000
0000
1000
,  // measure 47
0000
0000
0000
1001
,  // measure 48
0000
0000
0000
0110
,  // measure 49
0000
0000
0000
0010
,  // measure 50
0000
0010
0000
0010
,  // measure 51
0010
0010
0010
0010
,  // measure 52
0000
0001
0000
0001
,  // measure 53
0000
0001
0000
0000
,  // measure 54
0000
1000
0000
1000
,  // measure 55
0000
1000
0000
0000
,  // measure 56
0000
0010
0000
0010
,  // measure 57
0000
0010
0000
0000
,  // measure 58
0000
0100
0000
0100
,  // measure 59
0000
0100
0000
0000
,  // measure 60
0000
0010
0000
0010
,  // measure 61
0000
0010
0000
0010
,  // measure 62
0000
0010
0000
0010
,  // measure 63
0000
0010
0000
0000
,  // measure 64
0000
1000
0000
1000
,  // measure 65
0000
1000
0000
1000
,  // measure 66
0000
1000
0000
1000
,  // measure 67
0000
1000
0000
0000
,  // measure 68
0000
0010
0000
0010
,  // measure 69
0000
0110
0000
0000
,  // measure 70
0000
0100
0000
0100
,  // measure 71
0000
0110
0000
0000
,  // measure 72
0000
0001
0000
0001
,  // measure 73
0000
1001
0000
0000
,  // measure 74
0000
1000
0000
1000
,  // measure 75
0000
1001
0000
0000
,  // measure 76
0000
0010
0000
0010
,  // measure 77
0000
0010
0000
0010
,  // measure 78
0000
0010
0000
0010
,  // measure 79
0000
0010
0000
0000
,  // measure 80
0000
1000
0000
0001
,  // measure 81
0000
1000
0000
0001
,  // measure 82
0000
1000
0000
0001
,  // measure 83
0000
1000
1000
1000
,  // measure 84
1000
1001
0000
0000
;
