#TITLE:Absurd;
#SUBTITLE:;
#ARTIST:Fluke;
#TITLETRANSLIT:;
#SUBTITLETRANSLIT:;
#ARTISTTRANSLIT:;
#CREDIT:;
#BANNER:bn.png;
#BACKGROUND:bg.png;
#LYRICSPATH:;
#CDTITLE:PandemiXium-cdtitle.png;
#MUSIC:Fluke Absurd.mp3;
#OFFSET:-1.196;
#SAMPLESTART:93.320;
#SAMPLELENGTH:12.000;
#SELECTABLE:YES;
#BPMS:0.000=125.020;
#STOPS:60.000=1.440
;
#BGCHANGES:;

//---------------dance-single - ----------------
#NOTES:
     dance-single:
     :
     Hard:
     7:
     0.366,0.381,0.257,0.180,0.060:
0000
0000
0000
0000
,
0000
0000
0000
0000
,
0000
0000
0000
0000
,
0000
0000
0000
0000
,
1001
0000
0000
0000
0000
0000
0001
0000
0000
0000
0100
0000
0000
0010
0000
0000
,
1010
0000
0000
0000
0000
0000
0100
0000
0000
0000
1000
0000
0000
0010
0000
0000
,
0100
0000
0000
0000
0000
0000
0010
0000
0000
0000
1000
0000
0000
0001
0000
0000
,
0022
0000
0000
0033
,
1000
0001
0100
0000
0100
0000
0110
0000
,
0010
1000
0100
0000
1000
0010
0100
0000
,
0101
0000
1100
0000
1100
0100
0001
0000
,
0001
0100
0010
0000
0001
0000
1010
0000
,
0100
0000
1100
0000
1000
0001
0100
0000
,
0100
0010
1000
0001
0010
0001
0100
0000
,
0010
0000
1001
0000
1000
0100
0010
0000
,
0000
0000
1000
0000
0101
0000
0001
0100
,
0001
0000
1000
0000
1100
0000
1000
0100
,
1000
0000
0010
0000
0110
0000
0010
0100
,
0010
0000
0100
0000
1001
0000
0001
1000
,
0100
0000
1000
0000
1100
0000
1000
0001
,
0100
0000
0110
0000
0010
0000
0010
1000
,
0001
0000
0011
0000
0010
0000
0001
1000
,
0100
0000
1000
0001
0010
0100
1000
0001
,
0100
0010
1000
0010
0001
0000
0000
0001
,
0010
1000
0100
0000
1000
0000
1100
0000
,
1000
0001
0100
0000
0110
0000
0010
0010
,
0110
0000
0010
1000
0001
0010
0001
0100
,
0001
0000
1000
0001
0100
0000
0001
0000
,
0010
0000
0100
0010
0001
0000
0001
0010
,
0100
0000
1100
0000
1100
0000
1000
0001
,
0100
0000
0010
1000
0001
0000
0001
0010
,
0100
1000
0002
0000
0010
0000
0100
0000
,
0010
0000
0103
0000
0110
0000
0010
1000
,
0001
2000
0100
0010
,
0100
0000
3010
0000
1010
0000
0010
1000
,
0001
0010
0200
0000
0010
0000
0010
0000
,
0010
0000
0310
0000
0100
0000
0010
0001
,
0100
0020
1000
1000
,
1000
0000
1030
0000
1010
0000
1000
0001
,
0010
0100
1001
0000
0000
0001
0000
0100
,
0000
0100
0000
0000
0100
0000
0000
0000
0000
0000
0010
0000
0000
0000
1000
0000
,
0000
1000
0000
0000
0001
0000
0000
0000
0000
0000
0001
0000
0000
0000
1000
0000
,
0000
1000
0000
0000
0100
0000
0000
0000
0000
0000
1000
0000
0000
0000
0010
0000
,
0000
0010
0000
0000
0100
0000
0000
0000
0000
0000
0100
0000
0000
0000
0001
0000
,
0000
0010
0000
0000
0100
0000
0000
0000
0000
0000
0100
0000
0000
0000
0100
0000
,
0000
1000
0000
0000
0010
0000
0000
0000
0000
0000
0100
0000
0000
0000
0010
0000
,
0000
1000
0000
0000
0001
0000
0000
0000
0000
0000
0010
0000
0000
0000
0001
0000
,
0000
0100
0000
0000
2000
0000
0000
0000
3200
0000
0000
0000
0010
0000
0000
0000
,
0310
0220
0000
0330
,
0000
0000
1000
0001
0010
0001
1000
0100
,
1000
0010
0200
0000
0000
0000
0000
0000
,
0300
0000
0110
0000
0010
0110
0000
0010
,
0000
1000
0000
0000
0002
0000
0000
0000
0000
0000
0000
0000
0000
0000
0000
0000
,
0003
0000
0000
0000
1001
0000
0000
0001
0000
0000
0100
0000
0010
0000
0000
1000
,
0000
0100
0020
0000
0000
0000
0000
0000
,
0030
0020
0032
0203
,
1000
0020
0000
0000
,
0330
0000
0020
0000
1030
0100
0020
0000
,
0032
0200
0000
0000
,
0000
0000
0000
0303
0000
0000
0000
0000
0000
0000
0000
0000
0000
0000
0000
0000
;

//---------------dance-single - ----------------
#NOTES:
     dance-single:
     :
     Medium:
     5:
     0.272,0.355,0.283,0.189,0.000:
0000
0000
0000
0000
,
0000
0000
0000
0000
,
0000
0000
0000
0000
,
0000
0000
0000
0000
,
0101
0000
0000
0011
0000
0001
0000
0000
,
1100
0000
0000
1000
0000
1010
0000
0000
,
0110
0000
0000
0010
0000
1000
0000
0000
,
0202
0000
0000
0000
0000
0303
0000
0000
,
0001
1000
0100
0000
1000
0000
0010
0000
,
0100
0000
0010
0000
1000
0100
1000
0000
,
1010
1010
0101
0101
,
0001
0000
1000
0000
0001
0100
0010
0000
,
0010
1000
0001
0000
0001
1000
0100
0000
,
1000
0000
1000
0000
0001
0100
0010
0000
,
0110
0000
0110
0000
0010
1000
0100
0000
,
0000
0000
0002
0000
0103
0000
0001
0100
,
0010
0000
1000
0000
0100
0000
1000
0010
,
0100
0010
1000
0000
1000
0000
0001
0000
,
0001
0000
0001
0100
1000
0000
1000
0100
,
0001
0000
0001
0100
0010
0100
0001
0010
,
0000
0011
0000
0001
1000
0100
1000
0010
,
0000
1010
0000
1000
0001
0100
0010
0100
,
0000
0110
0000
0010
1000
0100
1000
0010
,
0000
1010
0000
0000
1000
0000
0000
0000
,
0001
0000
0100
0010
,
1000
1001
0000
0110
,
0000
0020
1000
0001
,
1030
0000
1100
0000
0000
0000
0001
0001
,
0100
0000
0001
0000
0100
0000
0010
0100
,
0010
1010
0000
0101
,
0000
1100
0000
0011
,
0000
2002
0000
0000
,
0000
3003
0000
0000
,
0000
2020
0000
0000
,
0000
3030
0000
0000
,
0000
0022
0000
0000
,
0000
0033
0000
0000
,
0000
2020
0000
0000
,
0000
3030
0000
0000
,
0000
2002
0000
0000
,
3000
1000
0000
0000
,
0000
0100
0000
0000
,
0000
0010
0000
0000
,
0003
2001
0000
0000
,
0000
0001
0000
0000
,
0000
0010
0000
0000
,
0000
0100
0100
0100
,
3100
2100
0010
0200
,
0000
3300
0000
0000
,
0000
0100
0010
1000
,
1000
0010
0200
0000
0000
0000
0300
0000
,
0001
1000
0020
0000
0100
0000
0001
0000
,
0100
0001
0000
0000
,
0030
0000
0110
0000
0010
1000
0001
0000
,
1000
0010
0200
0000
0000
0000
0300
0000
,
0000
0000
1010
0000
0001
1000
0100
0000
,
0100
1000
0020
0000
0000
0000
0000
0000
,
0030
0000
0110
0000
0010
1000
0001
0000
,
0010
0001
0200
0000
0000
0000
0000
0000
,
0000
0300
0000
0000
0000
0000
0000
0000
;

//---------------dance-double - ----------------
#NOTES:
     dance-double:
     :
     Challenge:
     7:
     0.364,0.432,0.326,0.163,0.094:
00000000
00000000
00000000
00000000
,
00000000
00000000
00000000
00000000
,
00000000
00000000
00000000
00000000
,
00000000
00000000
00000000
00000000
,
01010000
00000000
00000000
00000000
00000000
00000000
00110000
00000000
00000000
00000000
00010000
00000000
00000000
00100000
00000000
00000000
,
00001000
00000000
00000000
00000000
00000000
00000000
00011000
00000000
00000000
00000000
00010000
00000000
00000000
00000100
00000000
00000000
,
00000011
00000000
00000000
00000000
00000000
00000000
00000101
00000000
00000000
00000000
00000001
00000000
00000000
00001000
00000000
00000000
,
00000200
00000000
00000000
00000300
,
00011000
00001000
00100000
00000000
00100000
00001000
00010000
00000010
,
00000100
00000000
00000110
00000000
00000010
00001000
00000100
00000000
,
00001100
00011000
00110000
01100000
,
10000000
01000000
00010000
00001000
00010000
01000000
00100000
00000000
,
10010000
00000000
00110000
00000000
00100000
00001000
00010000
00000000
,
00000010
00001000
00000010
00000100
00000010
00000001
00000100
00000010
,
00001010
00000000
00001100
00000000
00000100
00010000
00100000
00000000
,
00000000
00000000
01010000
00000000
00000000
01100000
00000000
00100000
,
00000000
10000000
00000000
00000000
10010000
00000000
00000000
00000000
00000000
00000000
00110000
00000000
00000000
00000000
00100000
00000000
,
00000000
00001000
00000000
00000000
00011000
00000000
00000000
00000000
00000000
00000000
00011000
00000000
00000000
00000000
00010000
00000000
,
00000000
00000100
00000000
00000000
00001000
00000000
00000000
00000000
00000000
00000000
00000011
00000000
00000000
00000000
00000001
00000000
,
00000000
00000100
00000000
00000000
00000110
00000000
00000000
00000000
00000000
00000000
00001010
00000000
00000000
00000000
00000010
00000000
,
00000000
00001000
00000000
00000000
00010100
00000000
00000000
00000000
00000000
00000000
00001000
00000000
00000000
00000000
00001000
00000000
,
00000000
00100000
00000000
00000000
00110000
00000000
00000000
00000000
00000000
00000000
00010000
00000000
00000000
00000000
01000000
00000000
,
00000000
00010000
00000000
00000000
00010000
00000000
00100000
00000000
00001000
00000000
00010000
00000000
00000010
00000000
00000100
00000000
,
00000010
00001000
00000100
00100000
00001000
00000000
00001000
01000000
,
00100000
00000000
00100000
10000000
01000000
00100000
00010000
00000000
,
00011000
00000200
00010000
00001300
,
00011000
00000000
00001000
00100000
00001000
00010000
00000100
00001000
,
00000010
00000000
00000010
00000100
00000001
00000000
00000010
00000100
,
00000001
00000000
00000001
00001000
00000100
00001000
00000010
00001000
,
00000100
00000000
00000100
00010000
00001000
00000000
00100000
00010000
,
01000000
00000000
00100000
10000000
01000000
00100000
01000000
00100000
,
00001000
00010000
00000200
00000000
00001000
00000000
00010000
00000000
,
00001000
00010300
00000000
00000000
,
00000000
00200000
00010000
00001000
,
00010000
00301000
00000000
00000000
,
00000000
02000000
00001000
00010000
,
00001000
03010000
00000000
00000000
,
00000000
00000020
00001000
00010000
,
00001000
00020030
00000000
00030000
,
00000000
00000000
00011000
00000000
00000000
00010000
00000000
00010000
,
00000000
00010000
00000000
00000000
00011000
00000000
00000000
00000000
00000000
00000000
00001000
00000000
00000000
00000000
00001000
00000000
,
00000000
00001000
00000000
00000000
00011000
00000000
00000000
00000000
00000000
00000000
00010000
00000000
00000000
00000000
00010000
00000000
,
00000000
00010000
00000000
00000000
00011000
00000000
00000000
00000000
00000000
00000000
00001000
00000000
00000000
00000000
00001000
00000000
,
00000000
00001000
00000000
00000000
00011000
00000000
00000000
00000000
00000000
00000000
00110000
00000000
00000000
00000000
00010000
00000000
,
00000000
01000000
00000000
00000000
10000000
00000000
00000000
00000000
00000000
00000000
01010000
00000000
00000000
00000000
01000000
00000000
,
00000000
00010000
00000000
00000000
00100000
00000000
00000000
00000000
00000000
00000000
00001010
00000000
00000000
00000000
00001000
00000000
,
00000000
00000010
00000000
00000000
00000100
00000000
00000010
00000000
00001000
00000000
00000100
00000000
00000001
00000000
00000100
00000000
,
00001000
00000010
00010000
00000100
00010000
00001000
00200000
00000000
,
00000000
02000000
00000000
03300000
,
00000000
00000000
10000000
01000000
00010000
01000000
00010000
00100000
,
00001000
00010000
00000020
00000000
00000000
00000000
00000000
00000000
,
00000030
00010020
00020030
00032000
,
00003200
00000020
00000000
00000330
,
00000000
00000000
00000010
00000100
00000010
00001000
00000100
00010000
,
00001000
00100000
02000000
00000000
00000000
00000000
00000000
00000000
,
03000000
00000000
00000000
00000000
10000000
00000000
00000000
00100000
00000000
00000000
01000000
00000000
00010000
00000000
00000000
00100000
,
00000000
00001000
00022000
00000000
00033000
00000000
00000000
00000000
,
00000000
00000000
00000000
00000000
00100000
00000000
00000000
00001000
00000000
00000000
00010000
00001000
00100000
00000000
00000000
00010000
,
00000000
00100000
02000000
00000000
00000000
00000000
00000000
00000000
,
00000000
03000000
00000000
00000000
;

//---------------dance-single - ----------------
#NOTES:
     dance-single:
     :
     Easy:
     2:
     0.180,0.253,0.163,0.214,0.000:
0000
0000
0000
0000
,
0000
0000
0000
0000
,
0000
0000
0000
0000
,
0000
0000
0000
0000
,
1010
0000
0010
0000
,
0100
0000
0001
0000
,
1000
0000
0001
0000
,
0220
0000
0000
0330
,
0010
0000
0001
0000
,
0100
0100
0010
1000
,
1001
0000
0110
0000
,
0010
1000
0100
0010
,
0011
0000
1100
0000
,
1000
0010
0100
0001
,
1001
0000
0110
0000
,
0000
0020
0000
1030
,
0000
0200
0000
0310
,
0000
0020
0000
0130
,
0000
2000
0000
3010
,
0000
0200
0000
0301
,
0000
0002
0000
0013
,
0000
0200
0000
0310
,
0000
0020
0000
0031
,
0000
1001
0000
0010
,
0000
0100
0100
0010
,
1000
1001
0000
1100
,
0000
0010
0001
0100
,
0000
0110
0000
0001
,
0000
1000
1000
0001
,
0100
0010
0000
1000
,
0000
0001
0000
0010
,
0000
0120
0000
0000
,
0000
0030
0000
0000
,
0000
0202
0000
0000
,
0000
0303
0000
0000
,
0000
1020
0000
0000
,
0000
0030
0000
0000
,
0000
2200
0000
0000
,
0000
3300
0000
0000
,
0000
0010
0000
0000
,
0000
0100
0000
0000
,
0000
0001
0000
0000
,
0000
1000
0000
0000
,
0000
0100
0000
0010
,
0000
0100
0000
1000
,
0000
0100
0000
0010
,
0000
0022
0000
0033
,
0000
0001
0100
2000
,
0000
3000
0000
0000
,
0000
1000
0100
0001
,
0010
0200
0000
0000
,
0300
0100
0010
0002
,
0000
0003
0000
0000
,
0000
0001
0010
1000
,
0010
0002
0000
0000
,
0003
0011
0001
0200
,
0000
0300
0000
0000
,
0000
1010
1000
0010
,
0200
0002
0000
0000
,
0000
0303
0000
0000
0000
0000
0000
0000
;

//---------------dance-single - ----------------
#NOTES:
     dance-single:
     :
     Beginner:
     1:
     0.108,0.125,0.077,0.000,0.000: // measure 1
0000
0000
0000
0000
,  // measure 2
0000
0000
0000
0000
,  // measure 3
0000
0000
0000
0000
,  // measure 4
0000
0000
0000
0000
,  // measure 5
0010
0000
0000
0000
,  // measure 6
0010
0000
0000
0000
,  // measure 7
0010
0000
0010
0000
,  // measure 8
1001
0000
0000
0000
,  // measure 9
0100
0000
0000
0000
,  // measure 10
0100
0000
0000
0000
,  // measure 11
0010
0000
1000
0000
,  // measure 12
0100
0000
0000
0000
,  // measure 13
1000
0000
0000
0000
,  // measure 14
0001
0000
0000
0000
,  // measure 15
0010
0000
0010
0000
,  // measure 16
0000
0100
0000
0100
,  // measure 17
0000
0100
0000
0100
,  // measure 18
0000
0010
0000
0010
,  // measure 19
0000
0010
0000
0010
,  // measure 20
0000
1001
0000
1000
,  // measure 21
0000
1000
0000
1000
,  // measure 22
0000
0001
0000
0001
,  // measure 23
0000
0001
0000
0001
,  // measure 24
0000
0010
0000
0000
,  // measure 25
0010
0010
0000
0100
,  // measure 26
0000
1000
0000
1000
,  // measure 27
0000
0000
0001
0001
,  // measure 28
0001
0000
0100
0000
,  // measure 29
0100
0000
0010
0010
,  // measure 30
0010
1000
0000
0000
,  // measure 31
0000
0001
0000
0000
,  // measure 32
0000
0110
0000
0000
,  // measure 33
0000
0000
0000
0000
,  // measure 34
0000
0010
0000
0100
,  // measure 35
0000
0001
0000
0000
,  // measure 36
0000
1001
0000
0000
,  // measure 37
0000
0000
0000
0000
,  // measure 38
0000
1000
0000
0010
,  // measure 39
0000
0100
0000
0000
,  // measure 40
0000
1001
0000
0000
,  // measure 41
0000
0001
0000
0000
,  // measure 42
0000
1000
0000
0000
,  // measure 43
0000
1000
0000
0000
,  // measure 44
0000
0110
0000
0000
,  // measure 45
0000
0010
0000
0000
,  // measure 46
0000
0010
0000
0000
,  // measure 47
0000
0010
0000
0000
,  // measure 48
0000
0100
0100
0100
,  // measure 49
0000
0000
0000
0000
,  // measure 50
0000
0001
0000
1000
,  // measure 51
0000
1001
0000
0000
,  // measure 52
0000
0100
0100
0100
,  // measure 53
0000
0000
0000
0000
,  // measure 54
0000
0010
0000
0100
,  // measure 55
0000
0110
0000
0000
,  // measure 56
0000
0001
0000
1000
,  // measure 57
0000
0000
0000
0000
,  // measure 58
0000
0010
0000
0100
,  // measure 59
0000
1001
0000
0000
;
