#TITLE:7;
#SUBTITLE:;
#ARTIST:DM Ashura;
#TITLETRANSLIT:;
#SUBTITLETRANSLIT:;
#ARTISTTRANSLIT:;
#CREDIT: ;
#BANNER:bn.png;
#BACKGROUND:bg.png;
#LYRICSPATH:;
#CDTITLE:PandemiXium-cdtitle.png;
#MUSIC:Seven.ogg;
#OFFSET:-0.885;
#SAMPLESTART:90.020;
#SAMPLELENGTH:12.000;
#SELECTABLE:YES;
#BPMS:0.000=140.000,96.000=70.000,124.000=140.000,208.000=70.000,222.000=140.000;
#STOPS:;
#BGCHANGES:;

//---------------dance-single - ----------------
#NOTES:
     dance-single:
     :
     Hard:
     7:
     0.291,0.348,0.109,0.067,0.059:
0000
0000
0000
0000
,
0000
0000
0000
0000
,
0000
0000
0000
0000
,
0001
0000
0001
0000
0001
0000
0001
0100
,
0000
0100
0000
0100
0000
0100
0010
0000
,
0010
0000
0010
0000
0010
1000
0000
1000
,
0000
1000
0000
1000
0001
0000
0100
0000
,
0010
0000
0010
1000
0000
0001
0000
0010
,
0000
0001
0100
0000
1000
0000
0100
0000
,
0001
0010
0000
0001
0000
0010
0000
0001
,
0100
0000
0110
0000
0110
0000
0010
1000
,
0000
1001
0000
0101
0000
0001
0100
0000
,
0110
0000
0010
0000
0100
0001
0000
1001
,
0000
0101
0000
0001
0100
0000
0010
0000
,
1000
0000
0100
1000
0000
0010
0000
0010
,
0000
0100
0001
0000
0010
0000
0001
0000
,
0001
0100
0000
0010
0000
1000
0000
0010
,
0100
0000
0001
1000
0010
0000
1000
1000
,
0000
0001
0100
0010
0000
1000
1000
0000
,
1000
0100
1000
0000
0100
1000
0000
0100
,
0000
1000
0000
0010
0100
0000
0110
0000
,
1001
0000
0001
0100
0000
0001
0000
0001
,
0000
0100
0010
0000
0100
0000
0010
0000
,
1000
0001
0000
0100
0000
1000
0000
0100
,
0001
0000
0000
0000
0000
0000
0000
0000
0000
0000
0000
0000
0000
0100
0010
0000
,
0000
0000
0000
0100
,
0000
0000
0000
0000
0000
0000
0000
0000
0000
0010
1000
0000
0000
0000
0000
0000
,
0000
0000
1001
0000
,
0000
0000
0000
0000
0000
0001
0100
0000
0000
0000
0000
0000
0000
0000
0000
0000
,
0000
1010
0000
0000
,
0000
1000
0001
0000
0000
0000
0000
0000
0000
0000
0000
0000
0000
0000
0000
0000
,
0010
0000
0001
0000
0100
0000
0010
0100
,
0000
0100
0000
0100
0000
0100
0010
0000
,
1000
0000
0001
0000
0001
1000
0000
1000
,
0000
1000
0000
1000
0010
0000
0010
0000
,
0010
0000
0100
0010
0000
1000
0000
0001
,
0000
0010
0001
0000
0010
0000
0010
0000
,
0010
0100
0000
0100
0000
0100
0000
0100
,
2000
0000
3100
0000
0200
0000
0310
0100
,
0000
0010
0000
1000
0000
0100
2000
0000
,
3100
0000
0200
0000
0310
0010
0000
0001
,
0000
1000
0000
0010
2000
0000
3100
0000
,
2000
0000
3010
1000
0000
0010
0000
0100
,
0000
0010
2000
0000
3001
0000
0020
0000
,
0031
0100
0000
0100
0000
0100
0000
0100
,
0110
0000
0000
0000
0000
0000
0010
1000
,
0000
0001
0000
0010
0000
0001
0001
0000
,
0100
0000
0010
0000
1000
0010
0000
0000
,
0000
0000
0000
1000
0100
0000
0000
1000
,
0000
0000
0100
0000
0000
0010
0000
0000
,
0000
0001
0100
0010
1000
0000
0001
0000
,
0100
0100
0000
0000
0000
0000
0000
0000
,
0110
0000
0000
0000
0000
0000
0010
1000
0000
0001
0000
0010
0000
0001
0010
0000
,
0001
0000
0100
0000
0010
0100
0000
0000
0000
0000
0000
0000
0010
0000
0000
1000
,
0000
0000
0001
0000
0000
0010
0000
0000
0001
0100
0010
1000
0100
0000
1000
0000
,
0010
0100
0000
0000
0000
0000
0000
0000
0000
0000
0000
0000
0000
0000
0000
0000
;

//---------------dance-single - ----------------
#NOTES:
     dance-single:
     :
     Medium:
     5:
     0.271,0.324,0.034,0.093,0.004:
0000
0000
0000
0000
,
0000
0000
0000
0000
,
0000
0000
0000
0000
,
0001
0000
0100
0000
0010
0000
0100
0010
,
0000
0010
0000
0010
0000
0010
1000
0000
,
1000
0000
1000
0000
1000
0001
0000
0100
,
0000
0001
0000
0010
0001
0000
0100
0000
,
0010
0000
0010
1000
0000
0100
0000
1000
,
0000
0100
1000
0000
0010
0000
0100
0000
,
0010
1000
0000
0001
0000
0010
0000
0001
,
0200
0000
0001
0000
0301
0000
0001
0100
,
0000
0010
0000
0010
0000
0100
0010
0000
,
1000
0000
1000
0000
1000
0100
0000
0001
,
0000
0100
0000
0100
1000
0000
1000
0000
,
1000
0000
1000
0010
0000
0100
0000
0010
,
0000
0010
1000
0000
0001
0000
1000
0000
,
0001
0100
0000
0010
0000
0100
0000
0010
,
1000
0000
1000
0000
1000
0000
0001
0100
,
0000
0100
0000
0100
0000
0100
0010
0000
,
1000
0000
0001
0000
0010
0001
0000
0100
,
0000
0010
0000
1000
0010
0000
0010
0000
,
0010
0000
0010
1000
0000
0001
0000
0100
,
0000
0010
1000
0000
1000
0000
1000
0000
,
1000
0100
0000
0010
0000
0001
0000
0001
,
0100
0000
0000
0000
0000
0000
0000
0110
,
0000
0000
0000
1001
,
0000
0000
0000
0000
0000
1000
0000
0000
,
0000
0000
0001
0000
,
0001
0000
0001
0000
0100
0010
1000
0000
,
0000
1000
1000
1000
,
1000
0010
0100
0010
2000
0200
0000
3300
,
1100
0000
1000
0000
0100
0000
0010
0001
,
0000
0001
0000
0001
0000
0001
0010
0000
,
0100
0000
1000
0000
1000
0010
0000
0100
,
0000
0010
0000
0100
0010
0000
1000
0000
,
0001
0000
1000
0001
0000
0100
0000
0001
,
0000
0001
0010
0000
0001
0000
0100
0000
,
0010
0100
0000
0010
0000
1000
0000
0010
,
2000
0000
3100
0000
2000
0000
3100
1000
,
0000
0100
0000
0010
0000
0001
0020
0000
,
0031
0000
0002
0000
0013
0001
0000
0010
,
0000
0001
0000
0001
0200
0000
0301
0000
,
0200
0000
0301
0100
0000
0010
0000
0100
,
0000
0010
0200
0000
0310
0000
0020
0000
,
0130
0010
0000
1000
0000
0001
0000
1000
,
0001
0000
0000
0000
0000
0000
0100
0001
,
0000
0100
0000
0010
0000
1000
0100
0000
,
1000
0000
0001
0000
0100
0001
0000
0000
,
0000
0000
0000
0000
0001
0000
0000
1000
,
0000
0010
0000
0000
,
0000
0000
0100
0010
0100
0000
0010
0000
,
0000
1000
0000
0000
0000
0000
0000
0000
,
1001
0000
0001
0000
,
1000
0000
0000
0010
,
0100
0000
0010
0000
1000
0001
0100
0010
,
1000
0100
0000
0000
0000
0000
0000
0000
0000
0000
0000
0000
0000
0000
0000
0000
;

//---------------dance-double - ----------------
#NOTES:
     dance-double:
     :
     Challenge:
     7:
     0.409,0.397,0.379,0.177,0.114:
00000000
00000000
00000000
00000000
,
00000000
00000000
00000000
00000000
,
00000000
00000000
00000000
00000000
,
01000000
00100000
10000000
01000000
00100000
00001000
00010000
00010000
,
00000000
00011000
00000000
00001100
00000000
00001000
00000010
00000100
,
00000001
00001000
00000100
00010000
00001000
00100000
00000000
00110000
,
00000000
11000000
00000000
10000000
00010000
01000000
00100000
10000000
,
01000000
00100000
00010000
00100000
00000000
00110000
00000000
00101000
,
00000000
00100000
00001000
00010000
00000010
00000100
00000001
00000010
,
00001000
00000020
00000000
00000001
00000000
00000130
00000000
00000010
,
00000100
00001000
00000100
00010000
00001000
00100000
00010000
02000000
,
00000000
00100000
00000000
03100000
00000000
00100000
00100000
01000000
,
00010000
00100000
00100000
00001000
00100000
00010000
00000000
01100000
,
00000000
11000000
00000000
10000000
00010000
00100000
00001000
00010000
,
00000100
00010000
00001000
00100000
00000000
00101000
00000000
00010100
,
00000000
00010000
00000100
00001000
00000010
00000100
00000001
00000010
,
00000100
00002000
00000000
00000100
00000000
00003100
00000000
00000100
,
00001000
00000000
00000110
00000000
00000101
00000000
00000001
00000010
,
00000000
00001100
00000000
00001100
00000000
00000100
00010000
00000000
,
00011000
00000000
00011000
00000000
00001000
00100000
00000000
00110000
,
00000000
11000000
00000000
10000000
00010000
00100000
01000000
00100000
,
00020000
00000000
00130000
00001000
00010000
00000100
00001000
00000020
,
00000000
00000130
00000010
00001000
00000100
00010000
00002000
00100000
,
00203000
00320000
02030000
03200000
,
10300000
00000000
00000000
00000000
00000000
00000000
00000000
00000000
00000000
00000000
00000000
00000000
00000000
00011000
00011000
00000000
,
00000000
00000000
00000000
00010100
,
00000000
00000000
00000000
00000000
00000000
00000000
00000000
00000000
00000000
00001100
01010000
00000000
00000000
00000000
00000000
00000000
,
00000000
00000000
00000000
00000000
00000000
00000000
00000000
00000000
10010000
00000000
00000000
00000000
00000000
00000000
00100000
01000000
,
00000000
00100000
00000000
10000000
00000000
00010000
00100000
00000000
00101000
00000000
00001000
00000000
00010000
00000100
00000000
00000000
,
00000000
00000000
00000000
00000000
00000000
00000000
00001000
00000010
00001000
00000000
00000000
00000000
00000000
00000000
00000001
00000000
00000000
00000000
00000000
00000000
00000100
00000000
00000000
00000000
00000000
00000000
00010000
00000000
00000000
00000000
00000000
00000000
,
00001000
00100000
01000000
00010000
10000000
00000000
01100000
00000000
00010000
10000000
00000000
00000000
00000000
00000000
00000000
00000000
,
10000000
00000000
00010000
00000000
00100000
00000000
00100000
00001000
,
00000000
00101000
00000000
00011000
00000000
00010000
00000100
00000000
,
00001000
00000000
00000010
00000000
00000100
00000010
00000000
00001010
,
00000000
00001000
00000100
00000010
00000001
00000000
00000011
00000000
,
00000110
00000000
00000100
00001100
00000000
00011000
00000000
00110000
,
00010000
00100000
01000000
00000000
00100000
00000000
00010000
10000000
,
00010000
10000000
00000000
10010000
00000000
10000000
01000000
10000000
,
00200000
00000000
01300000
00000000
20000000
00000000
30010000
00100000
,
00000000
00101000
00000000
00010000
00000000
00010000
00000200
00000000
,
00001300
00000000
00000010
00000000
00000100
00000001
00000000
00000101
,
00000000
00001100
00001000
00000100
00002000
00000000
00003010
00000000
,
00000020
00000000
00001030
00000100
00000000
00010100
00000000
00011000
,
00000000
00001000
00200000
00000000
00010000
00000000
00301000
00000000
,
00010000
00000200
00000000
00001000
00000000
00020000
00000000
00030300
,
00011000
00000000
00000000
00000000
00000000
00000000
00001000
00100000
,
00000000
01000000
00000000
00100000
00000000
00001000
00010000
00000000
,
00010000
00000000
00000100
00000000
00001000
00010000
00000000
00000000
,
00000000
00000000
00000000
00000000
00000000
00000000
00001000
00000100
00000010
00000000
00000000
00000000
00000000
00000000
00000011
00000000
,
00000000
00000000
00001100
00000000
00000000
00011000
00000000
00000000
,
00000000
00001000
00100000
00010000
02000000
00000000
03100000
00000000
,
00010000
00200000
00000000
00000000
00000000
00000000
00300000
00000000
,
01100000
00000000
00000000
00000000
00000000
00000000
00100000
00001000
00000000
00010000
00000000
00000010
00000000
00000100
00000100
00000000
,
00000001
00000000
00000000
00000000
00001000
00000000
00000000
00000000
00000100
00000000
00010000
00000000
00000000
00000000
00000000
00000000
00000000
00000000
00000000
00000000
00000000
00000000
00000100
00001000
00010000
00000000
00000000
00000000
00000000
00000000
00001000
00000000
,
00000000
00000000
00100000
00000000
00000000
00010000
00000000
00000000
00001000
00100000
00010000
00100000
01000000
00000000
10000000
00000000
,
00100000
20000000
00000000
00000000
00000000
00000000
00000000
00000000
30000000
00000000
00000000
00000000
00000000
00000000
00000000
00000000
;

//---------------dance-single - ----------------
#NOTES:
     dance-single:
     :
     Easy:
     3:
     0.174,0.209,0.042,0.008,0.004:
0000
0000
0000
0000
,
0000
0000
0000
0000
,
0000
0000
0000
0000
,
0001
0001
0001
0000
,
0000
0000
0000
1000
,
1000
1000
0000
0000
,
0000
0000
0010
0010
,
0010
0000
0000
0000
,
0000
0100
0100
0100
,
0000
0000
0000
0000
,
1001
0000
0001
0000
1000
0000
0000
0100
,
0000
1000
0000
0100
0000
0000
1000
0000
,
0010
0000
1000
0000
0000
0100
0000
0010
,
0000
0100
0000
0000
0001
0000
0100
0000
,
0001
0000
0000
0010
0000
0001
0000
0010
,
0000
0001
0001
1000
,
0000
1000
0000
1000
0000
0010
0000
0000
,
0010
0000
1000
0000
0010
0000
0000
0100
,
0000
0100
0000
0100
0000
0000
0010
0000
,
1000
0000
0001
0000
0000
0010
0000
0010
,
0000
0010
0000
0000
0100
0000
1000
0000
,
0010
0000
0000
0100
0000
0100
0000
0100
,
0000
0100
0001
0010
,
0000
0100
0000
0100
0000
0100
0000
0000
,
0011
0000
0000
0000
0000
0000
0000
1010
,
0000
0000
0000
0100
,
0000
0000
0000
0000
0000
0110
0000
0000
,
0000
0000
0001
0000
,
0000
0000
1000
0000
,
0000
0010
0100
0001
,
1000
0100
0010
0000
,
0001
0000
1000
0000
0001
0000
0000
0100
,
0000
0100
0000
0100
0000
0000
0001
0000
,
1000
0000
0001
0000
0000
0010
0000
0010
,
0000
0010
0000
0000
0001
0000
0100
0000
,
0010
0000
0000
0100
0000
0100
0000
0100
,
0000
0010
1000
0100
,
0000
1000
0000
1000
0000
1000
0000
0000
,
0100
1000
0010
0100
,
0100
0001
0010
0001
,
0010
0100
0010
0001
,
0100
0010
1000
0001
,
1000
0100
1000
0010
,
0100
0001
0010
0100
,
2000
0000
0000
0000
,
3100
0000
0000
0000
,
1000
0000
0000
0001
,
0010
0000
0100
0000
0000
1000
0000
0000
,
0000
0000
0000
0000
0010
0000
0000
0010
,
0000
0100
0000
0000
,
0000
0010
1000
0001
,
0000
0100
0000
0000
0000
0000
0000
0000
,
1010
0000
0000
0000
,
0100
0000
0000
0010
,
0000
1000
0000
0000
,
0000
0010
0000
0000
0000
0000
0000
0000
0000
0000
0000
0000
0000
0000
0000
0000
;

//---------------dance-single - ----------------
#NOTES:
     dance-single:
     :
     Beginner:
     1:
     0.083,0.116,0.042,0.000,0.000: // measure 1
0000
0000
0000
0000
,  // measure 2
0000
0000
0000
0000
,  // measure 3
0000
0000
0000
0000
,  // measure 4
1000
0000
0000
0000
,  // measure 5
0000
0000
0000
0001
,  // measure 6
0000
0000
0000
0000
,  // measure 7
0000
0000
0100
0000
,  // measure 8
0000
0000
0000
0000
,  // measure 9
0000
0010
0000
0000
,  // measure 10
0000
0000
0000
0000
,  // measure 11
1000
0000
0000
0000
,  // measure 12
0000
0000
0000
0001
,  // measure 13
0000
0000
0000
0000
,  // measure 14
0000
0000
0010
0000
,  // measure 15
0000
0000
0000
0000
,  // measure 16
0000
0100
0000
0000
,  // measure 17
0000
0000
0000
0000
,  // measure 18
0010
0000
0010
0000
,  // measure 19
0000
0000
0000
1000
,  // measure 20
0000
0001
0000
0000
,  // measure 21
0000
0000
0100
0000
,  // measure 22
0100
0000
0000
0000
,  // measure 23
0000
0010
0000
1000
,  // measure 24
0000
0000
0000
0000
,  // measure 25
1001
0000
0000
0000
0000
0000
0000
0010
,  // measure 26
0000
0000
0000
0110
,  // measure 27
0000
0000
0000
0000
0000
0001
0000
0000
,  // measure 28
0000
0000
1001
0000
,  // measure 29
0000
0000
0010
0000
,  // measure 30
0000
0110
0000
0100
,  // measure 31
0000
0010
0000
1000
0000
0001
0000
0000
,  // measure 32
1000
0000
1000
0000
,  // measure 33
0000
0000
0000
0001
,  // measure 34
0000
0001
0000
0000
,  // measure 35
0000
0000
0010
0000
,  // measure 36
0100
0000
0000
0000
,  // measure 37
0000
0100
0000
0010
,  // measure 38
0000
0000
0000
0000
,  // measure 39
0001
0000
0000
0000
0001
0000
0000
1000
,  // measure 40
0000
0000
0000
1000
0000
0000
0010
0000
,  // measure 41
0000
0000
0010
0000
0000
0100
0000
0000
,  // measure 42
0000
0100
0000
0000
0010
0000
0000
0000
,  // measure 43
0010
0000
0000
1000
0000
0000
0000
1000
,  // measure 44
0000
0001
0000
0001
,  // measure 45
0000
1000
0000
0000
0000
1000
0000
0000
,  // measure 46
1001
0000
0000
0000
0000
0000
0000
0010
,  // measure 47
0000
0000
0000
0000
,  // measure 48
0100
0000
0000
0000
,  // measure 49
0000
0000
0001
0000
,  // measure 50
0000
0000
0000
0000
,  // measure 51
0000
1000
0000
0001
,  // measure 52
0000
0100
0000
0000
,  // measure 53
0010
0000
0000
0000
,  // measure 54
0001
0000
0000
1000
,  // measure 55
0000
0000
0000
0000
0000
0001
0000
1000
,  // measure 56
0000
0100
0000
0000
0000
0000
0000
0000
;
