#VERSION:0.83;
#TITLE:break through the clouds;
#SUBTITLE:;
#ARTIST:Tomoyuki Uchida;
#TITLETRANSLIT:;
#SUBTITLETRANSLIT:;
#ARTISTTRANSLIT:;
#GENRE:;
#ORIGIN:;
#CREDIT:;
#BANNER:break through the clouds-banner.png;
#BACKGROUND:break through the clouds-background.png;
#PREVIEWVID:;
#JACKET:;
#CDIMAGE:;
#DISCIMAGE:;
#LYRICSPATH:;
#CDTITLE:;
#MUSIC:break through the clouds.ogg;
#OFFSET:-1.000000;
#SAMPLESTART:72.399994;
#SAMPLELENGTH:10.200005;
#SELECTABLE:YES;
#BPMS:0.000=150.000;
#STOPS:176.000=0.800;
#DELAYS:;
#WARPS:;
#TIMESIGNATURES:0.000=4=4;
#TICKCOUNTS:0.000=4;
#COMBOS:0.000=1;
#SPEEDS:0.000=1.000=0.000=0;
#SCROLLS:0.000=1.000;
#FAKES:;
#LABELS:0.000=Song Start;
#BGCHANGES:;
#KEYSOUNDS:;
#ATTACKS:
;

//---------------dance-single - ----------------
#NOTEDATA:;
#CHARTNAME:;
#STEPSTYPE:dance-single;
#DESCRIPTION:;
#CHARTSTYLE:;
#DIFFICULTY:Hard;
#METER:9;
#RADARVALUES:0.537840,0.566103,0.266540,0.000000,0.416469,452.000000,420.000000,32.000000,0.000000,0.000000,0.000000,0.000000,0.000000,0.000000,0.537840,0.566103,0.266540,0.000000,0.416469,452.000000,420.000000,32.000000,0.000000,0.000000,0.000000,0.000000,0.000000,0.000000;
#CREDIT:;
#NOTES:
0000
0000
0000
0000
,
0000
0000
0000
0000
,
0000
0000
0000
0000
,
0000
0000
0000
0000
,
0000
0000
0000
0000
,
0000
0000
0000
0000
,
0000
0000
0000
0000
,
0000
0000
0000
0000
0000
1000
0100
0010
,
0100
0000
1000
0001
0000
0001
0100
0000
0000
0000
0010
0000
0100
0000
0001
0000
,
1000
0000
0001
0010
0000
0010
0100
0000
0000
0000
0010
0000
0001
0000
1000
0000
,
0000
0000
0010
0100
0000
0100
0001
0000
0000
0000
1000
0000
0100
0000
0010
0000
,
0100
1000
0010
0100
,
0001
0000
1000
0001
0000
0001
1000
0000
0000
0000
0100
0000
1000
0000
0010
0000
,
0100
0000
0001
0100
0000
0100
0001
0000
0000
0000
0010
0000
0100
0000
1000
0000
,
0000
0000
0100
0010
0000
0010
0001
0000
0000
0000
1000
0000
0001
0000
0100
0000
,
0110
1001
0110
1001
,
0110
0000
0000
0000
0100
0000
0000
0000
0010
0000
0000
0000
1000
0000
0001
1000
,
0100
0010
0100
1000
,
0000
0000
0001
0000
0010
0000
0010
0000
0001
0000
1000
0001
0000
1000
0001
0000
,
0100
0000
0010
1000
0000
1000
0100
0000
0000
0000
0010
0000
0100
0000
0100
0000
,
0000
0000
0010
0000
0001
0000
0001
0000
0001
0000
1000
0001
0000
1000
0100
0010
,
0001
0000
0010
0001
0000
0001
0100
0000
0000
0000
0010
0000
0100
0000
0100
0000
,
0000
0000
0010
0000
1000
0000
1000
0000
1000
0000
0001
1000
0000
0001
0010
0000
,
0100
0000
0010
0001
0000
0010
0001
0000
0000
0010
0001
0000
0100
0000
0010
0000
,
0000
0100
0010
1000
0000
0001
1000
0100
,
0010
0000
0000
0100
0000
0000
1000
0100
0010
0000
0000
0000
0000
0000
0000
0000
,
0000
0000
0001
0000
0010
0000
0010
0000
0001
0000
1000
0010
0000
0010
0100
0000
,
0010
0000
0100
0001
0000
0001
0010
0000
0000
0000
0100
0000
0010
0000
0010
0000
,
0000
0000
0100
0000
1000
0000
1000
0000
0001
0000
0100
0010
0000
0100
0001
0000
,
0010
0000
0000
0000
0000
0000
0100
1000
0100
0000
0000
1000
0000
0000
0001
0000
,
0100
0000
0000
0010
0000
0000
1000
0000
0001
0000
0000
0010
0000
0000
0100
0000
,
0010
0000
0001
1000
0000
0001
1000
0000
0100
0000
0000
0000
0000
0000
0010
0100
,
1000
0000
0100
0010
0000
0100
0010
0000
0001
0000
0100
0010
0000
0100
0010
0000
,
1000
0000
0000
0000
0000
0000
0100
0010
0001
0000
0000
0000
0000
0000
0000
0000
,
1001
0000
0110
1001
,
0100
0000
0010
1000
0000
0010
1000
0000
0000
0000
0100
0000
0010
0000
0001
0000
,
1000
0000
0001
0100
0000
0001
0100
0000
0000
0000
0010
0000
0100
0000
0001
0000
,
1000
0000
0100
0010
0000
0100
0010
0000
0000
0000
0100
0000
1000
0000
0010
0000
,
0100
0000
0001
0100
0000
0100
0001
0000
0000
0000
0000
0000
1000
0000
0100
0000
,
0010
0000
0100
1000
0000
1000
0100
0000
0010
0000
0001
0010
0000
0010
0001
0000
,
1000
0000
0001
0100
0000
0010
0000
0000
1001
0000
0000
0000
1000
0000
0100
0000
,
0010
0000
0100
1000
0010
0000
0100
0001
,
1000
0000
0000
1000
0000
0000
1000
0100
0010
0000
0000
0000
0000
0000
0100
0000
,
0010
0000
0000
0010
0000
0000
0010
0001
1000
0000
0000
0000
0000
0000
0000
0000
,
0000
0000
0100
0000
0010
0000
0010
0000
1001
0000
0001
0010
0000
0010
0100
0000
,
0000
0000
0010
0000
0100
0000
0100
0000
1000
0000
0100
0010
0000
0010
0100
0000
,
0000
0000
0010
0000
0001
0000
0100
0000
0000
0000
0010
1000
0000
1000
0100
0000
,
0000
0010
0100
1000
0000
0000
1100
0000
,
0110
0000
0000
0000
0011
0000
0000
0000
1001
0000
0001
0010
0000
0010
0100
0000
,
0000
0000
0010
0000
0001
0000
0100
0000
0010
0000
1000
0010
0000
0010
0100
0000
,
0000
0000
0010
0000
0100
0000
0001
0000
0000
0000
0010
0100
0000
1000
0001
0000
,
0000
0000
0000
0100
0000
0000
0010
0000
0000
0010
0000
0000
0000
0000
0000
0100
0000
0000
0001
1000
0001
1000
0000
0000
,
0000
0000
0100
0000
0010
0000
0001
0000
1001
0000
0001
0010
0000
0010
0100
0000
,
0000
0000
0010
0000
0001
0000
0100
0000
0010
0000
1000
0010
0000
0010
0100
0000
,
0000
0000
0010
0000
1000
0000
0100
0000
0000
0000
0010
0001
0000
0010
0100
0000
,
0000
0010
0001
0000
1000
0000
0001
0000
0000
0000
0000
0000
0101
0000
0000
0000
,
0110
0000
0000
0000
1010
0000
0000
0000
1001
0000
1000
0100
0000
0010
0001
0000
,
0000
0000
0010
0000
0100
0000
1000
0000
0010
0000
0100
0010
0000
0010
1000
0000
,
0000
0000
0100
0000
0010
0000
0001
0000
0000
0000
0010
0100
0000
0100
0010
0000
,
0000
0000
0010
0000
0100
0000
1000
0010
0110
0000
0000
0000
1001
0000
0000
0000
,
0110
1001
0110
0000
,
0000
0000
0000
0000
0000
0000
0100
0010
1000
0000
0000
0000
0000
0000
0000
0000
,
0000
0000
1001
0000
,
0000
0000
0110
0000
,
0000
0000
0000
0000
0000
0000
0000
0000
0100
0000
0000
0000
0000
0000
0010
0100
,
1000
0000
0000
0000
0100
0000
0000
0000
1000
0000
0000
0000
0000
0000
0001
0010
,
0100
0000
0000
0000
0010
0000
0000
0000
0001
0000
0000
0000
0000
0000
1000
0001
,
0010
0000
0000
0000
0000
0000
0100
0010
0110
0000
0000
0000
1100
0000
0000
0000
,
0101
0000
1010
0000
1001
1000
0100
0010
,
0100
1000
0010
0100
0101
0000
0001
0010
,
0100
0000
0010
0000
0001
0000
1000
0001
1000
0000
0000
0000
0100
0000
0010
0000
,
0001
0000
0000
0100
0000
0000
0010
0000
0000
1000
0000
0000
0001
0010
0000
0000
0000
0000
0000
0000
0000
0000
0000
0000
;

//---------------dance-single - ----------------
#NOTEDATA:;
#CHARTNAME:;
#STEPSTYPE:dance-single;
#DESCRIPTION:;
#CHARTSTYLE:;
#DIFFICULTY:Medium;
#METER:7;
#RADARVALUES:0.396240,0.446663,0.191576,0.041647,0.187411,333.000000,310.000000,23.000000,5.000000,0.000000,0.000000,0.000000,0.000000,0.000000,0.396240,0.446663,0.191576,0.041647,0.187411,333.000000,310.000000,23.000000,5.000000,0.000000,0.000000,0.000000,0.000000,0.000000;
#CREDIT:;
#NOTES:
0000
0000
0000
0000
,
0000
0000
0000
0000
,
0000
0000
0000
0000
,
0000
0000
0000
0000
,
0000
0000
0000
0000
,
0000
0000
0000
0000
,
0000
0000
0000
0000
,
0000
0000
0000
0000
0000
1000
0100
0010
,
0001
0000
0000
0001
0000
0000
0001
0000
0000
0000
0100
0000
0010
0000
1000
0000
,
0100
0000
0000
0100
0000
0000
0100
0000
0000
0000
0010
0000
0100
0000
0010
0000
,
0000
0000
0000
0100
0000
0000
0100
0000
0000
0000
0100
0000
0010
0000
0001
0000
,
1000
0010
0100
0001
,
0010
0000
0000
0001
0000
0000
0100
0000
0000
0000
0010
0000
0100
0000
0001
0000
,
1000
0000
0000
0100
0000
0000
1000
0000
0000
0000
0010
0000
0100
0000
0001
0000
,
0000
0000
1000
0000
0000
0010
0000
0000
0000
0000
0100
0000
0010
0000
1000
0000
,
1001
0110
1001
0110
,
1002
0000
0010
0000
0010
0000
0013
0100
,
2000
0100
3100
0000
,
1000
0000
0001
0000
0100
0000
0001
0000
0010
0000
0000
0100
0000
0000
1000
0000
,
0100
0000
0000
1000
0000
0000
0010
0000
0000
0000
0100
0000
0001
0000
0100
0000
,
0000
0000
0001
0000
0100
0000
0010
0000
1000
0000
0000
0001
0000
0000
0010
0000
,
0100
0000
0000
0010
0000
0000
0001
0000
0000
0000
1000
0000
0100
0000
0100
0000
,
0000
0000
0010
0000
0100
0000
0100
0000
0010
0000
0000
0001
0000
0000
1000
0000
,
0010
0000
0000
1000
0000
0000
0100
0000
0000
0000
0010
0000
0100
0000
1000
0000
,
0000
1000
0100
0010
0000
0010
0100
1000
,
0001
0000
0000
1000
0000
0000
0010
0000
0100
0000
0000
0000
0000
0000
0000
0000
,
0000
0000
0001
0000
0010
0000
0010
0000
0001
0000
0000
1000
0000
0000
0100
0000
,
0010
0000
0000
0100
0000
0000
1000
0000
0000
0000
0001
0000
1000
0000
0001
0000
,
0000
0000
0100
0000
0001
0000
0010
0000
0100
0000
0000
0010
0000
0000
0001
0000
,
1000
0000
0000
0000
0000
0000
0001
0000
0100
0000
0000
0001
0000
0000
0010
0000
,
0100
0000
0000
0010
0000
0000
0001
0000
0100
0000
0000
0010
0000
0000
1000
0000
,
0001
0000
0000
0100
0000
0000
0100
0000
0010
0000
0000
0000
0000
0000
0100
0000
,
0001
0000
0000
0010
0000
0000
0100
0000
0010
0000
0000
0001
0000
0000
1000
0000
,
0001
0000
0000
0010
0100
0000
0000
0000
,
1001
0000
0110
1001
,
0001
0000
0000
1000
0000
0000
0010
0000
0000
0000
1000
0000
0010
0000
0100
0000
,
0001
0000
0000
0010
0000
0000
0100
0000
0000
0000
0010
0000
0001
0000
0100
0000
,
0010
0000
0000
1000
0000
0000
0010
0000
0000
0000
0100
0000
0010
0000
1000
0000
,
0001
0000
0000
1000
0000
0000
0100
0000
0000
0000
0000
0000
1000
0000
0100
0000
,
0010
0000
0000
0100
0000
0000
1000
0000
0010
0000
0000
0100
0000
0000
0001
0000
,
1000
0000
0000
0001
0000
0001
0000
0000
1000
0000
0000
0000
0100
0000
0010
0000
,
0001
0000
0000
0000
0000
0000
0100
0000
0010
0000
0000
1000
0000
0000
0100
0000
,
0010
0000
0000
0001
0000
0000
0100
0000
0010
0000
0000
0000
0000
0000
0100
0000
,
0010
0000
0000
1000
0000
0000
0100
0000
0010
0000
0000
0000
0000
0000
0000
0000
,
0000
0000
0001
0000
1000
0000
0001
0000
0010
0000
0000
0100
0000
0000
1000
0000
,
0000
0000
0100
0000
0010
0000
0100
0000
0010
0000
0000
0001
0000
0000
0010
0000
,
0000
0000
0100
0000
0010
0000
0001
0000
0000
0000
0000
0010
0000
0000
0100
0000
,
0000
0010
0001
1000
0000
0000
0001
0000
,
0100
0000
0000
0000
1000
0000
0000
0000
0100
0000
0000
0010
0000
0000
1000
0000
,
0000
0000
0010
0000
1000
0000
0010
0000
0100
0000
0000
0010
0000
0000
1000
0000
,
0000
0000
0001
0000
0010
0000
0100
0000
0000
0000
0000
0010
0000
0000
0100
0000
,
0000
0010
0001
0010
0000
0100
1000
0010
,
0000
0000
0100
0000
0010
0000
1000
0000
0001
0000
0000
1000
0000
0000
0100
0000
,
0000
0000
1000
0000
0010
0000
0100
0000
0001
0000
0000
0010
0000
0000
0100
0000
,
0000
0000
0010
0000
0001
0000
0100
0000
0000
0000
0000
0010
0000
0000
0100
0000
,
0000
0010
1000
0001
0000
0000
1000
0000
,
0100
0000
0000
0000
0001
0000
0000
0000
0100
0000
0000
0010
0000
0000
0001
0000
,
0000
0000
0010
0000
0100
0000
1000
0000
0100
0000
0000
1000
0000
0000
0010
0000
,
0000
0000
0100
0000
0010
0000
1000
0000
0000
0000
0000
0001
0000
0000
1000
0000
,
0000
0010
0100
0001
1001
0000
0110
0000
,
1001
0110
1001
0000
,
0000
0000
0000
0001
0100
0000
0000
0000
,
0000
0000
1100
0000
,
0000
0000
0110
0000
,
0000
0000
1000
0000
,
0100
0000
0010
0000
,
0001
0000
1000
0000
,
0001
0000
1001
0110
,
1001
0110
1002
0103
,
0001
0010
2100
3010
,
0100
0001
2001
3100
,
0010
0001
1001
0000
;

//---------------dance-single - ----------------
#NOTEDATA:;
#CHARTNAME:;
#STEPSTYPE:dance-single;
#DESCRIPTION:;
#CHARTSTYLE:;
#DIFFICULTY:Easy;
#METER:3;
#RADARVALUES:0.195145,0.416885,0.199905,0.000000,0.000000,164.000000,140.000000,24.000000,0.000000,0.000000,0.000000,0.000000,0.000000,0.000000,0.195145,0.416885,0.199905,0.000000,0.000000,164.000000,140.000000,24.000000,0.000000,0.000000,0.000000,0.000000,0.000000,0.000000;
#CREDIT:;
#NOTES:
0000
0000
0000
0000
,
0000
0000
0000
0000
,
0000
0000
0000
0000
,
0000
0000
0000
0000
,
0000
0000
0000
0000
,
0000
0000
0000
0000
,
0000
0000
0000
0000
,
0000
0000
0000
0000
,
1000
0000
0000
0000
,
0010
0000
0000
0000
,
0100
0000
0000
0000
,
0001
0000
1000
0000
,
0010
0000
0000
0000
,
1000
0000
0000
0000
,
0100
0000
0000
0000
,
0110
1001
0110
1001
,
0110
0000
0000
0000
,
0100
0000
0000
0000
,
0010
0000
0001
0000
,
1000
0001
1000
0000
,
0010
0000
1000
0000
,
0100
0000
1000
0000
,
0010
0000
0100
0000
,
0001
1000
0010
0000
,
1000
0000
0001
0000
,
0010
0100
1000
0000
,
0100
0000
1000
0000
,
0010
0100
0010
0000
,
0100
0000
0001
0000
,
0010
0000
0100
0010
,
0001
0000
1000
0000
,
0010
0000
0100
0000
,
0010
0000
1000
0000
,
0001
0000
1000
0000
,
1001
0000
0110
1001
,
0001
1000
0010
0000
,
1000
0100
0010
0000
,
0100
1000
0001
0100
,
0001
0010
0100
0000
,
0010
0000
0001
0000
,
1000
0000
0100
0000
,
1000
0000
0010
0000
,
0100
0001
0100
0000
,
0010
1000
0010
0000
,
0000
0000
1100
0001
,
1000
0000
0001
0100
,
0001
0000
0100
0000
,
0010
0000
1000
0010
,
0100
0001
1000
0100
,
0010
0000
0100
1000
,
0010
0000
0100
0000
,
0010
0000
1000
0000
,
0001
0000
1001
0001
,
1000
0000
0001
0010
,
0001
0000
0010
0000
,
0100
0000
1000
0100
,
0010
0001
0010
0100
,
1000
0000
0100
1000
,
0010
0000
0100
0010
,
1000
0001
1001
0110
,
1001
0110
1001
0000
,
0000
0000
0100
0000
,
0000
0000
1001
0000
,
0000
0000
0010
0000
,
0000
0000
1000
0000
,
0000
0000
0000
0000
,
0000
0000
0000
0000
,
0000
0000
1001
0110
,
1001
0110
1001
0000
,
0000
0000
1010
0000
,
0000
0000
0011
0000
,
0000
0000
1001
0000
;

//---------------dance-single - ----------------
#NOTEDATA:;
#CHARTNAME:;
#STEPSTYPE:dance-single;
#DESCRIPTION:;
#CHARTSTYLE:;
#DIFFICULTY:Beginner;
#METER:2;
#RADARVALUES:0.098763,0.208443,0.066635,0.000000,0.000000,83.000000,75.000000,8.000000,0.000000,0.000000,0.000000,0.000000,0.000000,0.000000,0.098763,0.208443,0.066635,0.000000,0.000000,83.000000,75.000000,8.000000,0.000000,0.000000,0.000000,0.000000,0.000000,0.000000;
#CREDIT:;
#NOTES:
0000
0000
0000
0000
,
0000
0000
0000
0000
,
0000
0000
0000
0000
,
0000
0000
0000
0000
,
0000
0000
0000
0000
,
0000
0000
0000
0000
,
0000
0000
0000
0000
,
0000
0000
0000
0000
,
1000
0000
0000
0000
,
0001
0000
0000
0000
,
1000
0000
0000
0000
,
0010
0000
0100
0000
,
0010
0000
0000
0000
,
1000
0000
0000
0000
,
0100
0000
0000
0000
,
0010
0000
0001
0000
,
1001
0000
0000
0000
,
0100
0000
0000
0000
,
0010
0000
0000
0000
,
1000
0000
0000
0000
,
0100
0000
0000
0000
,
1000
0000
0000
0000
,
0001
0000
0000
0000
,
0100
0000
0000
0000
,
0010
0000
0000
0000
,
0100
0000
0000
0000
,
0001
0000
0000
0000
,
1000
0000
0000
0000
,
0100
0000
0000
0000
,
1000
0000
0000
0000
,
0010
0000
0100
0000
,
0010
0000
1000
0000
,
0001
0000
1000
0000
,
0100
0000
0010
0000
,
1001
0000
0000
0000
,
0010
0000
0000
0000
,
1000
0000
0000
0000
,
0100
0000
0000
0000
,
1000
0000
0000
0000
,
0001
0000
1000
0000
,
0010
0000
0100
0000
,
0001
0000
0000
0000
,
1000
0000
0000
0000
,
0010
0000
0000
0000
,
0000
0000
0100
0000
,
0000
0000
0010
0000
,
0000
0000
1000
0000
,
0000
0000
0001
0000
,
1000
0000
0010
0000
,
0000
0000
0100
0000
,
0000
0000
0001
0000
,
0000
0000
1000
0000
,
0001
0000
0110
0000
,
0000
0000
0100
0000
,
0000
0000
0010
0000
,
0000
0000
1000
0000
,
0001
0000
0100
0000
,
0000
0000
0010
0000
,
0000
0000
1000
0000
,
0000
0000
0001
0000
,
1000
0000
0110
0000
,
0000
0000
1000
0000
,
0000
0000
0001
0000
,
0000
0000
0010
0000
,
0000
0000
0100
0000
,
0000
0000
0000
0000
,
0000
0000
0000
0000
,
0000
0000
1001
0000
,
0110
0000
1001
0000
,
0000
0000
1000
0000
,
0000
0000
0001
0000
,
0000
0000
0110
0000
;

//---------------dance-double - ----------------
#NOTEDATA:;
#CHARTNAME:;
#STEPSTYPE:dance-double;
#DESCRIPTION:;
#CHARTSTYLE:;
#DIFFICULTY:Challenge;
#METER:9;
#RADARVALUES:0.585436,0.595550,0.333175,0.000000,0.478939,492.000000,452.000000,40.000000,0.000000,0.000000,0.000000,0.000000,0.000000,0.000000,0.585436,0.595550,0.333175,0.000000,0.478939,492.000000,452.000000,40.000000,0.000000,0.000000,0.000000,0.000000,0.000000,0.000000;
#CREDIT:;
#NOTES:
// measure 0
00000000
00000000
00000000
00000000
,  // measure 1
00000000
00000000
00000000
00000000
,  // measure 2
00000000
00000000
00000000
00000000
,  // measure 3
00000000
00000000
00000000
00000000
,  // measure 4
00000000
00000000
00000000
00000000
,  // measure 5
00000000
00000000
00000000
00000000
,  // measure 6
00000000
00000000
00000000
00000000
,  // measure 7
00000000
00000000
00000000
00000000
00000000
01000000
00100000
00010000
,  // measure 8
01000000
00000000
00001000
00010000
00000000
00010000
00000100
00000000
00000000
00000000
00001000
00000000
00000010
00000000
00001000
00000000
,  // measure 9
00000100
00000000
00010000
00000100
00000000
00000100
00010000
00000000
00000000
00000000
00001000
00000000
00100000
00000000
01000000
00000000
,  // measure 10
00000000
00000000
01000000
10000000
00000000
10000000
00100000
00000000
00000000
00000000
01000000
00000000
00010000
00000000
00100000
00000000
,  // measure 11
00000000
00110000
00011000
00001010
,  // measure 12
00000110
00000000
00000100
00000001
00000000
00000001
00001000
00000000
00000000
00000000
00000100
00000000
00000010
00000000
00000001
00000000
,  // measure 13
00001000
00000000
00000010
00001000
00000000
00001000
00000100
00000000
00000000
00000000
00000100
00000000
00010000
00000000
00001000
00000000
,  // measure 14
00000000
00000000
00100000
00001000
00000000
00001000
01000000
00000000
00000000
00000000
00100000
00000000
10000000
00000000
00010000
10000000
,  // measure 15
10010000
01100000
10010000
01100000
,  // measure 16
10100000
00000000
00000000
00000000
10000000
00000000
00000000
00000000
00100000
00000000
00000000
00000000
01000000
00000000
00010000
00100000
,  // measure 17
01000000
01000000
01000000
00000000
,  // measure 18
00000000
00000000
00100000
00000000
00010000
00000000
00100000
00000000
00001000
00000000
00010000
00000100
00000000
00000100
00001000
00000000
,  // measure 19
00000010
00000000
00000100
00000001
00000000
00000001
00000010
00000000
00000000
00000000
00000100
00000000
00000010
00000000
00000010
00000000
,  // measure 20
00000000
00000000
00000100
00000000
00000010
00000000
00000001
00000000
00001000
00000000
00000010
00001000
00000000
00001000
00000100
00010000
,  // measure 21
00001000
00000000
00010000
00100000
00000000
01000000
10000000
00000000
00000000
00000000
01000000
00000000
10000000
00000000
10000000
00000000
,  // measure 22
00000000
00000000
01000000
00000000
00100000
00000000
00100000
00000000
01000000
00000000
10000000
00100000
00000000
00100000
01000000
00000000
,  // measure 23
00010000
00000000
00100000
00001000
00000000
00010000
00000100
00000000
00000000
00001000
00000100
00000000
00000010
00000000
00000001
00000000
,  // measure 24
00000000
00000001
00000010
00000000
00000100
00000000
00001000
00000000
00000000
00000100
00001000
00000000
00000100
00000000
00001000
00000100
,  // measure 25
00010000
00000000
00000000
00001000
00000000
00000000
01000000
00100000
10000000
00000000
00000000
00000000
00000000
00000000
00000000
00000000
,  // measure 26
00000000
00000000
01000000
00000000
10000000
00000000
10000000
00000000
00010000
00000000
00100000
00010000
00000000
00100000
01000000
00000000
,  // measure 27
00100000
00000000
00010000
00100000
00000000
00100000
00001000
00000000
00000000
00000000
00010000
00000000
00000100
00000000
00000100
00000000
,  // measure 28
00000000
00000000
00001000
00000000
00000010
00000000
00000010
00000000
00000100
00000000
00000001
00001000
00000000
00000010
00001000
00000000
,  // measure 29
00000001
00000000
00000000
00000000
00000000
00000000
00000010
00000100
00000010
00000000
00000000
00000100
00000000
00000000
00000010
00000000
,  // measure 30
00000001
00000000
00000100
00000010
00000000
00000010
00001000
00000000
00000100
00000000
00000100
00010000
00000000
00010000
00001000
00000000
,  // measure 31
00001000
00000000
00001000
01000000
00000000
01000000
00100000
00000000
10000000
00000000
00000000
00000000
00000000
00000000
01000000
10000000
,  // measure 32
00100000
00000000
01000000
00010000
00000000
00010000
00100000
00000000
00100000
00000000
00001000
00100000
00000000
00100000
00001000
00000000
,  // measure 33
00010000
00000000
00000000
00000000
00000000
00000000
00001000
00010000
01000000
00000000
00000000
00000000
00000000
00000000
00000000
00000000
,  // measure 34
01100000
00000000
00110000
11000000
,  // measure 35
10010000
00000000
00010000
01000000
00000000
01000000
00010000
00000000
00000000
00000000
00100000
00000000
00001000
00000000
00010000
00000000
,  // measure 36
00000100
00000000
00001000
00000100
00000000
00000100
00001000
00000000
00000000
00000000
00000100
00000000
00000010
00000000
00000001
00000000
,  // measure 37
00000100
00000000
00000010
00001000
00000000
00001000
00000001
00000000
00000000
00000000
00000010
00000000
00000100
00000000
00001000
00000000
,  // measure 38
00000100
00000000
00000100
00010000
00000000
00010000
00001000
00000000
00000000
00000000
00000000
00000000
00010000
00000000
00100000
00000000
,  // measure 39
00001000
00000000
00010000
00001000
00000000
00010000
00000100
00000000
00001000
00000000
00000010
00000100
00000000
00000001
00000010
00000000
,  // measure 40
00000100
00000000
00010000
00001000
00000000
01000000
00000000
00000000
01010000
00000000
00000000
00000000
00100000
00000000
10000000
00000000
,  // measure 41
01000000
00000000
00000000
00000000
00000000
00100000
01000000
10000000
00010000
00000000
01000000
00010000
00000000
00100000
01000000
00000000
,  // measure 42
00100000
00000000
00000000
00001000
00000000
00000000
00010000
00000100
00001000
00000000
00000000
00000000
00000000
00000000
00001000
00000010
,  // measure 43
00001000
00000000
00000000
00000010
00000000
00000000
00000100
00000001
00001000
00000000
00000000
00000000
00000000
00000000
00000000
00000000
,  // measure 44
00000000
00000000
00000010
00000000
00000100
00000000
00000100
00000000
00001001
00000000
00000001
00000100
00000000
00000010
00001000
00000000
,  // measure 45
00000000
00000000
00000100
00000000
00010000
00000000
00001000
00000000
01000000
00000000
00100000
10000000
00000000
00010000
01000000
00000000
,  // measure 46
00000000
00010000
00100000
00000000
01000000
00000000
00100000
00000000
00000000
00000000
01000000
10000000
00000000
10000000
00010000
00000000
,  // measure 47
00000000
01000000
00010000
00100000
00000000
00000000
00110000
00000000
,  // measure 48
00101000
00000000
00000000
00000000
00011000
00000000
00000000
00000000
00010100
00000000
00000100
00001000
00000000
00000100
00000010
00000000
,  // measure 49
00000000
00000000
00000100
00000000
00000010
00000000
00000001
00000000
00001000
00000000
00000010
00001000
00000000
00000010
00000100
00000000
,  // measure 50
00000000
00000010
00000100
00000000
00000001
00000000
00000010
00000000
00000000
00000000
00000100
00001000
00000000
00001000
00000100
00000000
,  // measure 51
00000000
00000000
00000000
00000100
00000000
00000000
00001000
00000000
00000000
00001000
00000000
00000000
00000000
00000000
00000000
00000100
00000000
00000000
00010000
00001000
00010000
00001000
00000000
00000000
,  // measure 52
00000000
00000000
00010000
00000000
00001000
00000000
01000000
00000000
01100000
00000000
01000000
00010000
00000000
01000000
00100000
00000000
,  // measure 53
00000000
00000000
01000000
00000000
00010000
00000000
00100000
00000000
01000000
00000000
10000000
01000000
00000000
00100000
00010000
00000000
,  // measure 54
00000000
10000000
00010000
00000000
00100000
00000000
01000000
00000000
00000000
00000000
00100000
01000000
00000000
00100000
00010000
00000000
,  // measure 55
00000000
00100000
00001000
00000000
00010000
00000000
00001000
00000000
00000000
00000000
00000000
00000000
00011000
00000000
00000000
00000000
,  // measure 56
00010100
00000000
00000000
00000000
00001100
00000000
00000000
00000000
00000011
00000000
00000001
00000010
00000000
00000100
00001000
00000000
,  // measure 57
00000000
00000000
00000100
00000000
00010000
00000000
00001000
00000000
01000000
00000000
00100000
01000000
00000000
00010000
10000000
00000000
,  // measure 58
00000000
01000000
00100000
00000000
01000000
00000000
10000000
00000000
00000000
00000000
10000000
01000000
00000000
00100000
00010000
00000000
,  // measure 59
00000000
00000000
00100000
00000000
00001000
00000000
00010000
00001000
00011000
00000000
00000000
00000000
00010100
00000000
00000000
00000000
,  // measure 60
00001100
00000000
00000011
00000000
00000101
00000001
00000010
00000100
,  // measure 61
00000010
00000000
00000001
00000000
00001000
00000000
00000010
00001000
00000100
00000000
00000010
00000000
00000001
00000000
00000000
00000000
,  // measure 62
00000000
00000000
00000000
00000000
00001010
00000010
00001000
00000100
,  // measure 63
00010000
00001000
00100000
01000000
11000000
01000000
00100000
00010000
,  // measure 64
00000000
00000000
00000000
00000000
00000000
00000000
00000000
00000000
10100000
00000000
00000000
00000000
00000000
00000000
10000000
00100000
,  // measure 65
01000000
00000000
00000000
00000000
00010000
00000000
00000000
00000000
00110000
00000000
00000000
00000000
00000000
00000000
00100000
00001000
,  // measure 66
00010000
00000000
00000000
00000000
00000100
00000000
00000000
00000000
00001100
00000000
00000000
00000000
00000000
00000000
00001000
00000001
,  // measure 67
00000010
00000000
00000000
00000000
00000000
00000000
00000100
00000010
00000110
00000000
00000000
00000000
00000011
00000000
00000000
00000000
,  // measure 68
00001100
00000000
00010100
00000000
00011000
00000000
00001000
00010000
,  // measure 69
00100000
00001000
00010000
00000100
00001100
00000000
00000100
00010000
,  // measure 70
00001000
00000000
00100000
00000000
01000000
00000000
10000000
01000000
10000000
00000000
01000000
00000000
00100000
00000000
00010000
00000000
,  // measure 71
00001000
00000000
00000100
00000000
00000010
00000000
00000001
00001000
00000010
00000000
00000000
00000000
00000000
00000000
00000000
00000000
;
