#VERSION:0.83;
#TITLE:Xetta;
#SUBTITLE:;
#ARTIST:TangJuan Vs. Black Box;
#TITLETRANSLIT:;
#SUBTITLETRANSLIT:;
#ARTISTTRANSLIT:;
#GENRE:;
#ORIGIN:;
#CREDIT:;
#BANNER:banner.png;
#BACKGROUND:background.png;
#PREVIEWVID:;
#JACKET:jacket.png;
#CDIMAGE:;
#DISCIMAGE:;
#LYRICSPATH:;
#CDTITLE:;
#MUSIC:Xetta.ogg;
#OFFSET:-4.092999;
#SAMPLESTART:17.287001;
#SAMPLELENGTH:9.600000;
#SELECTABLE:YES;
#BPMS:0.000=200.000;
#STOPS:40.500=0.150,
42.000=0.150;
#DELAYS:;
#WARPS:;
#TIMESIGNATURES:0.000=4=4;
#TICKCOUNTS:0.000=4;
#COMBOS:0.000=1;
#SPEEDS:0.000=1.000=0.000=0;
#SCROLLS:0.000=1.000;
#FAKES:;
#LABELS:0.000=Song Start;
#BGCHANGES:;
#KEYSOUNDS:;
#ATTACKS:
;

//---------------dance-single - ----------------
#NOTEDATA:;
#CHARTNAME:;
#STEPSTYPE:dance-single;
#DESCRIPTION:;
#CHARTSTYLE:;
#DIFFICULTY:Hard;
#METER:12;
#RADARVALUES:0.874265,1.295562,0.161657,0.246334,0.739002,795.000000,774.000000,21.000000,32.000000,1.000000,0.000000,0.000000,0.000000,0.000000,0.874265,1.295562,0.161657,0.246334,0.739002,795.000000,774.000000,21.000000,32.000000,1.000000,0.000000,0.000000,0.000000,0.000000;
#CREDIT:;
#NOTES:
0000
0000
0000
0000
,
0000
0000
0000
0000
,
0000
0000
0000
0000
,
0000
0000
0000
0000
,
0000
0000
0000
0000
,
0000
0000
0000
0000
,
1000
0010
0001
0010
1000
0100
0010
0100
,
1000
0001
0100
0010
1000
0001
0010
0100
0010
0001
1000
0010
,
0100
0101
0001
1001
1000
1100
0001
1001
,
0001
0010
0100
0010
0001
1000
0010
0100
0001
0010
0100
1000
,
0001
1001
0000
1000
1001
0100
0010
0001
,
0100
0010
1000
0100
1000
0001
0010
0100
,
1000
0000
0001
0100
0001
0000
0100
0000
0010
0000
1000
0000
0010
0000
0100
0000
,
0001
0000
0010
0000
0100
0000
0010
0000
0001
0000
1000
0000
0001
0000
1000
0010
,
1000
0000
0001
0100
0001
0000
0010
0001
0010
0000
0100
0000
1000
0000
0100
0000
,
0001
0100
0001
1000
0010
1000
0001
0010
,
0001
0000
0000
1000
0000
0000
0100
0000
0000
0010
0000
0000
0100
0000
0000
1000
0000
0000
0001
0000
1000
0000
0100
0000
,
1000
0000
0001
0000
0010
0000
0001
0000
1000
0000
0100
0000
1000
0000
0010
0000
0100
0000
0000
0000
0000
0010
0000
0000
,
1000
0000
0001
0000
0010
0001
0010
0001
0010
0001
0010
0001
0010
0000
0100
0000
,
0010
0001
1000
0010
1000
0001
0010
0100
,
1000
0000
0001
1000
0010
0000
0100
0000
0001
0000
0010
0000
0100
0000
0010
0000
,
0001
0000
1000
0000
0010
0000
0100
0000
0001
0000
1000
0000
0001
0000
0100
0010
,
1000
0000
0001
0010
0100
0000
0010
0000
0001
0000
1000
0000
0100
0000
1000
0000
,
0001
0100
0010
0100
0001
1000
0100
0010
,
0100
0000
0000
1000
0000
0000
0001
0000
0000
0100
0000
0000
0001
0000
0000
1000
0000
0000
0010
0000
1000
0000
0100
0000
,
1000
0000
0001
0000
0100
0000
0001
0000
0010
0000
0100
0000
0010
0000
0001
0000
1000
0000
0000
0000
0000
0001
0000
0000
,
0010
0000
0000
1000
0000
0000
0010
0000
0000
0001
0000
0000
1000
0000
0000
0010
0000
0000
0100
0000
0000
0000
0001
0000
,
0000
0010
0000
0100
0000
0010
0000
0001
0000
1000
0000
0010
,
0000
0001
0000
0010
0000
0100
0000
0001
0000
0010
0000
1000
,
0000
0010
0000
0100
0000
0010
0000
0001
0000
0100
0000
0010
,
0000
1000
0000
0002
0000
0000
0000
0000
0003
1000
0000
0010
,
0000
0100
0001
0010
0000
0100
0000
0010
0001
1000
0000
0001
,
0000
1000
0000
0010
0000
0001
0000
0010
0000
0100
0000
0010
,
0000
0000
0000
0000
1000
0000
0000
0000
0001
0000
0000
0000
0010
0000
0000
0000
0000
0000
0000
0000
0100
0000
0000
0000
0000
0000
0000
0000
0010
0000
0000
0000
0001
0000
0000
0000
1000
0000
0000
0000
0000
0000
0000
0000
0000
0100
0000
0000
,
0000
1000
0000
0001
0000
0000
0000
0000
0000
1000
0000
0000
,
0001
0000
0010
0010
0001
0100
0010
0010
,
0100
0001
1000
1000
0100
1000
0020
0000
,
0030
0000
0100
0001
0100
0000
0001
0000
0010
0000
0100
0000
0010
0000
0100
0000
,
1000
0001
1000
0100
0110
0010
0002
0000
,
0000
1003
0110
0100
1000
0100
0001
0010
,
0100
0010
0001
1000
0010
1000
0002
0000
,
0000
0000
0103
0010
0100
0000
0001
0000
1000
0000
0010
0000
0100
0000
0001
0000
,
1000
0000
0100
0000
0010
0001
0010
0001
0010
0001
0010
0001
1000
0100
1000
0100
,
1000
0100
1000
0100
0010
0000
00M0
0000
1001
0000
0000
0000
0201
0000
0310
1000
,
0010
0100
0100
0010
1000
0001
0000
0010
,
0000
0100
0010
0010
0100
0100
1001
0000
,
0001
0100
0001
0000
0010
0000
0010
0000
0001
0000
1000
0000
0000
0000
0100
0000
,
0000
0000
0000
0000
0000
0000
0010
0000
0000
0000
0000
0000
0100
0000
0000
0000
0010
0000
0000
0000
0100
0000
0000
0000
0010
0000
0000
0000
0100
0000
0000
0000
0010
0000
0000
0000
0100
0000
0000
0000
0000
0000
0010
0000
0000
0001
0000
0000
,
0010
0001
0100
0001
1000
0100
0000
1000
,
0000
0001
0100
0100
0010
0010
1000
0000
,
0100
1000
0100
0000
1000
0000
1000
0000
0001
0000
0010
0000
0000
0000
0001
0000
,
0000
0100
0020
0000
2030
0000
3001
0000
,
1000
0010
1000
0010
1000
0000
0100
0000
0001
0000
0200
0000
0000
0000
0320
0000
,
0000
0000
0031
1000
0100
0000
1000
0000
0010
0000
1000
0001
1000
0000
0100
0000
,
0010
0000
0010
0000
0100
0000
1000
0000
0001
0000
0100
0010
1000
0000
0010
0001
,
0000
0000
0000
1000
0000
0000
0001
0000
0000
0000
0000
0000
0100
0000
0000
0000
0001
0000
0000
0000
0100
0000
0000
0000
0001
0000
0000
0000
0100
0000
0000
0000
0001
0000
0000
0000
0100
0000
0000
0000
0000
0000
0000
0000
0000
0010
0000
0000
,
1000
0000
0000
0001
0010
0001
0010
0000
0100
0000
0100
0000
0000
0000
0020
0000
,
0002
0033
1100
1000
0101
0000
1001
0000
,
0010
1000
0001
0010
0100
0010
0100
1000
,
0100
0010
0001
0000
2000
0000
0000
0000
3002
0000
0000
0000
0103
0000
0000
0000
,
0010
1000
0100
0001
,
0100
0010
0001
2001
,
0000
3002
0203
0320
,
2030
3200
0302
0203
,
0000
0320
0000
0230
,
2300
3002
0203
0320
,
0000
0000
0000
0000
0000
0000
0130
0100
,
0100
0000
0100
0000
1001
0000
0000
0000
1000
0100
0010
0001
1000
0000
0000
1000
,
0000
0001
0010
0000
0100
0010
0001
1000
,
0010
0000
0001
0000
0010
0000
0000
0000
0100
0000
0010
0000
1000
0000
0000
1000
,
0000
0000
0001
0000
0010
0000
0000
0000
0010
0000
0100
0000
0010
0000
0000
0001
,
0000
1000
0001
0000
0100
0000
0010
1000
,
0001
0000
0010
0100
1000
0000
0100
0000
1000
0000
0010
0100
0001
0000
1000
0000
,
0001
0000
1000
0001
0010
0000
0000
0100
0000
0000
0010
0000
0001
0000
0000
0000
,
1000
0010
1000
0100
,
0010
0000
0000
0000
0100
0000
0000
0000
1000
0100
0010
0001
1000
0000
0000
0001
,
0000
0010
0110
0000
0010
0001
1000
0010
,
1000
0000
0001
0000
1000
0000
0000
0000
0001
0000
0010
0000
0100
0000
0000
1000
,
0000
0000
0100
0000
0010
0000
0000
0001
0000
0000
1000
0000
0010
0000
0000
0001
,
0000
0000
0010
0000
0100
0000
0000
0000
0001
0000
0000
0000
0100
0010
0100
0010
,
1000
0001
1000
0001
0010
0001
0010
0001
1000
0100
1000
0100
1000
0001
0100
0001
,
0100
0010
0100
0010
0100
0000
0000
0100
0000
0000
0010
0000
1000
0000
0100
0010
,
0000
0100
1000
0000
0001
0000
0100
0010
0000
1000
0001
0000
0020
0000
0000
0000
,
0032
0000
2003
0000
3020
0000
0130
0001
,
0100
0001
1000
0010
1000
0010
0100
0010
,
1000
0001
0010
0100
0010
0100
0001
1000
,
0001
1000
0010
0100
0001
0010
0001
1000
,
0100
0010
0100
1000
0001
0001
1001
0000
,
1000
1001
0000
0001
0011
0000
0100
0110
,
0100
0000
0100
0010
0001
0000
1000
0000
0001
0000
0001
0000
0100
0000
0010
0100
,
0010
0000
1000
0001
0000
1000
0001
0000
0010
0000
0100
0000
0010
0000
0001
0000
,
0010
0100
1000
0001
1000
0000
0001
0100
,
1000
0100
0010
1000
0001
0010
1000
0010
,
0100
0010
0001
0100
1000
0100
0010
1000
,
0001
0010
1000
0010
0001
0010
0100
1000
,
0001
0000
0100
0000
0010
0000
1000
0000
0001
0000
1000
0000
0001
0100
0001
0100
,
0010
1000
0010
1000
0100
1000
0100
1000
0100
0010
0100
0010
0001
0010
0001
0010
,
0001
1000
0001
1000
0010
1000
0010
1000
0001
0100
0001
0100
0001
0010
0001
0010
,
0100
1000
0100
1000
0001
1000
0001
0010
0001
1000
0001
0100
0001
1000
0001
0010
,
0001
0100
0010
1000
0001
0010
0100
0010
0001
0100
0010
1000
0001
0010
0100
0010
,
0001
1000
0100
0010
0100
1000
0010
0100
0001
0010
0100
1000
0001
1000
0100
0010
,
0001
0010
0100
1000
0010
0100
0001
1000
0100
0010
0100
1000
0020
0000
0000
0000
,
0030
0000
0000
0000
;

//---------------dance-single - ----------------
#NOTEDATA:;
#CHARTNAME:;
#STEPSTYPE:dance-single;
#DESCRIPTION:;
#CHARTSTYLE:;
#DIFFICULTY:Easy;
#METER:8;
#RADARVALUES:0.483870,0.667411,0.084677,0.107771,0.000000,440.000000,429.000000,11.000000,14.000000,0.000000,0.000000,0.000000,0.000000,0.000000,0.483870,0.667411,0.084677,0.107771,0.000000,440.000000,429.000000,11.000000,14.000000,0.000000,0.000000,0.000000,0.000000,0.000000;
#CREDIT:;
#NOTES:
0000
0000
0000
0000
,
0000
0000
0000
0000
,
0000
0000
0000
0000
,
0000
0000
0000
0000
,
0000
0000
0000
0000
,
0000
0000
0000
0000
,
0010
0100
0001
1000
,
0001
0010
0100
1000
,
0100
1000
0100
1000
0100
1000
0100
1000
,
0100
1000
0010
0100
,
0001
1000
0000
1000
0001
0000
1000
0000
,
0001
0010
0001
0100
,
0010
1000
0010
0100
,
0001
0000
1000
0000
0100
0000
0010
0100
,
1000
0001
1000
0010
0100
0001
0010
0000
,
0100
1000
0010
0100
,
0001
1000
0001
0010
,
0010
0000
0010
0000
0010
0000
0000
0100
,
0010
0001
1000
0001
1000
0001
1000
0000
,
0001
0100
0010
1000
,
0010
0100
0001
0010
,
0100
0000
0010
0000
0001
0000
1000
0001
,
0100
0001
1000
0001
1000
0100
0010
0000
,
0010
0100
0100
0010
,
0001
0010
0100
1000
,
1000
0000
1000
0000
1000
0000
0000
0100
,
1000
0010
0100
0001
1000
0001
0100
0000
,
0000
0001
0000
0010
,
0001
0010
0000
0100
,
0000
1000
0000
0100
,
1000
0020
0000
1030
,
0001
0010
0001
1000
,
0100
1000
0010
0100
,
0001
0010
1000
0010
,
0001
2000
0000
3001
,
1000
0010
0010
1000
,
0100
1000
0010
0200
,
0000
0301
0010
0100
,
0010
0001
1000
1001
,
0000
0001
1000
0010
,
1000
0100
0010
0002
,
0000
0013
0000
0001
,
0000
1000
0001
0100
,
0010
0110
1001
0001
,
1000
0010
1000
0010
1000
0010
0000
1000
,
0000
0100
0010
0000
0100
0000
1000
0000
,
0001
0100
0001
0100
0001
0100
0000
0001
,
0000
0020
0000
0130
,
0010
0001
1000
0010
1000
0010
0000
0100
,
0000
0010
1000
0000
0001
0000
0010
0000
,
0100
0010
0100
0010
0100
1000
0000
0001
,
0000
1000
0020
0000
2030
0000
3100
0000
,
1000
0100
0010
0001
1000
0001
0000
0100
,
0000
0001
0010
0000
0100
0000
0010
0000
,
0001
0010
0100
1000
0001
1000
0000
0001
,
0000
0100
0010
0000
1000
0000
0010
0000
,
0100
0010
1000
0000
0001
1000
0100
0000
,
0010
0100
1000
0000
0001
0000
1000
0000
,
0001
0100
0001
0010
0100
1000
0001
0000
,
1000
0110
1001
0001
,
0100
1000
0100
0001
,
0100
1000
0010
0100
,
0000
0010
1000
0010
,
0100
0001
0010
0100
,
0000
0010
0000
0001
,
0010
0100
1000
0002
,
0000
0000
0000
0000
0003
0000
1000
1000
,
0001
0001
1000
0000
0020
0000
0130
0000
,
0001
0000
0011
0000
0001
0100
0010
0000
,
0100
0010
1000
0000
0001
0000
1000
0000
,
0100
0000
1100
0000
0100
1000
0010
0000
,
0100
0001
1000
0000
0001
0000
1000
0010
,
1000
0000
0001
0100
0001
0000
1000
0010
,
1000
0001
1000
0100
,
1000
0010
0100
0001
,
0010
0000
0100
0000
0010
0001
1000
0000
,
0000
1001
0000
0001
,
0001
1001
0000
0100
,
0000
0110
0000
0010
,
0010
0000
0110
0000
0000
0000
0001
0100
,
0010
1000
0001
0100
0010
1000
0001
0100
,
0010
1000
0001
0000
1000
0000
0100
0000
,
1000
0010
0100
0002
,
0203
0320
2030
3001
,
0000
0000
0000
0000
,
0000
0000
0000
0000
,
0000
0000
0000
0000
,
0000
0000
0000
0001
,
0010
0100
0010
0001
,
0100
0010
1000
0010
,
0100
0010
1000
0001
,
0010
0000
0100
0000
0010
0000
0001
0100
,
0001
0000
0100
0010
0100
0000
0010
1000
,
0010
0000
1000
0100
1000
0000
0100
0010
,
0100
0000
0010
0001
0010
0000
0001
1000
,
0001
0000
1000
0010
1000
0010
0100
0010
,
1000
0000
0010
0100
0001
0000
0010
0100
,
1000
0000
0100
1000
0010
0000
0100
0010
,
1000
0000
0001
0010
0100
0000
0010
0001
,
0100
0010
1000
0010
0100
0001
0010
0100
,
0010
0001
1000
0010
0100
1000
0100
0010
,
0001
0010
0100
1000
0001
0100
0020
0000
,
0030
0000
0000
0000
;

//---------------dance-single - ----------------
#NOTEDATA:;
#CHARTNAME:;
#STEPSTYPE:dance-single;
#DESCRIPTION:;
#CHARTSTYLE:;
#DIFFICULTY:Medium;
#METER:9;
#RADARVALUES:0.654324,0.745930,0.069281,0.130865,0.246334,595.000000,586.000000,9.000000,17.000000,2.000000,0.000000,0.000000,0.000000,0.000000,0.654324,0.745930,0.069281,0.130865,0.246334,595.000000,586.000000,9.000000,17.000000,2.000000,0.000000,0.000000,0.000000,0.000000;
#CREDIT:;
#NOTES:
0000
0000
0000
0000
,
0000
0000
0000
0000
,
0000
0000
0000
0000
,
0000
0000
0000
0000
,
0000
0000
0000
0000
,
0000
0000
0000
0000
,
1000
0100
0010
0001
,
1000
0001
0100
0010
1000
0001
0010
0100
,
0010
0001
0010
0001
1000
0100
1000
0100
,
1000
0100
0010
0001
0010
0100
1000
0010
,
0100
0001
0000
0100
1000
0000
0100
1000
,
0010
0100
0001
0010
0100
0010
0001
0000
,
1000
0000
0010
0000
0100
0000
0001
0100
,
0010
1000
0001
0010
0100
0010
0001
1000
,
0100
0001
0100
1000
0100
0001
0100
0010
,
0001
0100
0010
1000
0001
0010
0100
0000
,
0010
0000
0000
0001
0000
0000
1000
0000
0000
0001
0000
1000
,
0100
0000
0000
0000
0100
0000
0010
0000
0000
0000
0010
0000
0001
0000
1000
0000
0001
0000
0000
0000
0000
1000
0000
0000
,
0100
0010
0001
0010
0100
1000
0001
0100
,
0010
1000
0100
0010
0100
1000
0100
0000
,
1000
0000
0010
0000
0100
0000
0001
0010
,
0001
1000
0010
0100
0001
1000
0100
0001
,
0100
1000
0100
0001
0100
0010
0001
1000
,
0010
0100
0001
0010
0100
0010
0001
0000
,
1000
0000
0000
0010
0000
0000
0100
0000
0000
0001
0000
0001
,
0010
0000
0000
0000
0010
0000
0100
0000
0000
0000
0100
0000
1000
0000
0010
0000
0100
0000
0000
0000
0000
0010
0000
0000
,
0100
0000
0000
0010
0000
0000
1000
0000
0000
0001
0000
0000
0010
0000
0000
0100
0000
0000
1000
0000
0000
0000
0001
0000
,
0000
1000
0000
0001
0000
1000
0000
0001
0000
1000
0000
0001
,
0000
1000
0000
0001
0000
1000
0000
0001
0000
1000
0000
0001
,
0000
1000
0000
0001
0000
1000
0000
0001
0000
1000
0000
0001
,
0000
1000
0000
0020
0000
0000
0000
0000
0000
0130
0000
0001
,
0000
0100
0000
0010
0000
1000
0000
0010
0000
0100
0000
0010
,
0000
1000
0000
0001
0000
0010
0000
0100
0000
0010
0000
0001
,
0000
0010
0000
0100
0000
1000
0000
0100
0000
0010
0000
0001
,
0000
0100
0000
0010
0000
0000
0000
0000
0000
0100
0000
0000
,
0010
1000
0001
0010
,
0001
0100
0010
2000
,
0000
3001
0010
0100
,
0010
0001
0011
0101
,
0000
0100
0001
0011
,
0100
1000
0100
1100
,
0000
0100
1000
0010
,
0100
0000
0010
0100
0010
1000
0100
0010
,
0001
1000
1001
0000
M11M
0000
1001
0000
,
0100
0100
0010
1000
0010
0100
0000
0010
,
0000
1000
0100
0000
0010
0000
0100
0000
,
0010
0010
0001
0100
0001
1000
0000
0001
,
0000
0000
0000
1000
0010
1000
0010
1000
0010
1000
0000
0000
,
0001
0001
0010
0001
0100
0010
0000
0100
,
0000
0010
1000
0000
0100
0000
0010
0000
,
0100
0100
1000
0100
0010
0100
0000
1000
,
0000
0010
0200
0000
0302
0000
0013
0000
,
0100
0010
0001
1000
0010
0100
0000
0010
,
0000
0100
0010
1000
0001
0010
0100
0000
,
0100
0010
0001
1000
0010
0100
0010
1000
,
0001
0000
0000
1000
0000
0000
0001
0000
0100
0000
0001
0000
0100
0000
0001
0000
0100
0000
0001
0000
0000
0000
0000
0000
,
2000
3100
0010
0100
1000
0001
0000
0100
,
0100
0000
0000
0010
1000
0010
0100
0001
,
0010
0100
0010
0001
1000
0010
0100
0001
,
0010
0001
2000
0000
3002
0000
0103
0000
,
1000
0100
0001
0100
,
0010
1000
0001
2001
,
0000
3001
0010
0100
,
1000
0100
0010
0002
,
0000
2003
0000
3001
,
1000
0010
1000
0200
,
0000
0000
0000
0000
0000
0000
0010
0010
,
0010
0000
0010
0000
0310
0000
0000
0000
0001
1000
0001
1000
0001
0000
0000
1000
,
0000
0010
0100
0000
0010
1000
0010
0100
,
0001
0000
0010
0000
0100
0000
0000
0000
0010
0000
0001
0000
1000
0000
0000
1000
,
0000
0000
0001
0000
1000
0000
0000
0000
0100
0000
1000
0000
0010
0000
0000
0100
,
0000
0010
1000
0000
0001
0000
1000
0100
,
0010
0000
0001
0010
0001
0000
0010
0000
0100
0000
1000
0100
1000
0000
0100
0000
,
1000
0000
0010
1000
0010
0000
0000
0100
0000
0000
0001
0000
1000
0000
0000
0000
,
0100
0001
0100
0010
,
0001
0000
0000
0000
1000
0000
0000
0000
0001
0000
0100
0000
0010
0000
0000
0010
,
0000
0010
1000
0000
0100
1000
0010
0100
,
0001
0000
0010
0000
0100
0000
0000
0000
0010
0000
0001
0000
1000
0000
0000
1000
,
0000
0000
1000
0000
0001
0000
0000
0000
0100
0000
0010
0000
1000
0000
0000
0010
,
0000
0100
0001
0000
0010
0000
0100
0010
,
0001
0000
0100
0010
1000
0000
0001
0000
0100
0000
0001
1000
0100
0000
0010
0000
,
0100
0000
0010
0001
1000
0000
0000
0001
0000
0000
0010
0000
0100
0000
0000
0100
,
0000
0000
0010
0000
0001
0000
0000
0001
0000
0000
1000
0000
0002
0000
0000
0000
,
0203
0320
2030
3100
,
1000
0010
0100
0001
,
0010
0100
0010
0001
,
1000
0010
0100
0010
,
1000
0001
0010
0001
,
1000
0001
0000
0100
0001
0000
0100
0001
,
0010
1000
0010
0100
0010
0001
1000
0100
,
0001
0100
0010
0001
1000
0010
0100
0001
,
0010
0100
0010
0000
0001
0000
1000
0100
,
1000
0100
0010
0001
0010
0001
0100
0001
,
0100
0001
1000
0010
1000
0010
0100
0010
,
0100
0010
1000
0001
1000
0001
1000
0100
,
0010
0001
0010
0100
1000
0001
1000
0100
,
0010
0001
0010
0100
1000
0010
0100
0001
,
0010
0100
0010
0001
0100
0010
1000
0001
,
0010
0100
0010
0001
1000
0010
0100
0100
,
0010
0010
1000
1000
0001
0001
0010
0010
,
1000
1000
0010
0010
0001
0001
0100
0100
,
1000
0100
0100
0010
0010
1000
2002
0000
,
3003
0000
0000
0000
;

//---------------dance-single - ----------------
#NOTEDATA:;
#CHARTNAME:;
#STEPSTYPE:dance-single;
#DESCRIPTION:;
#CHARTSTYLE:;
#DIFFICULTY:Beginner;
#METER:3;
#RADARVALUES:0.136363,0.313306,0.061583,0.000000,0.000000,124.000000,116.000000,8.000000,0.000000,0.000000,0.000000,0.000000,0.000000,0.000000,0.136363,0.313306,0.061583,0.000000,0.000000,124.000000,116.000000,8.000000,0.000000,0.000000,0.000000,0.000000,0.000000,0.000000;
#CREDIT:;
#NOTES:
0000
0000
0000
0000
,
0000
0000
0000
0000
,
0000
0000
0000
0000
,
0000
0000
0000
0000
,
0000
0000
0000
0000
,
0000
0000
0000
0000
,
0010
0000
0000
0000
,
1000
0000
0000
0000
,
0100
0000
1000
0000
,
0001
0000
0000
0000
,
1000
0000
0000
0001
0000
0000
1000
0000
,
0000
0000
0000
0010
,
0000
0000
0000
0100
,
0000
0000
0000
0001
,
0000
1000
0000
0001
,
0000
0000
0000
0010
,
0000
0000
0000
0100
,
0000
0000
0000
0010
,
0000
0001
0000
1000
,
0000
0000
0000
0010
,
0000
0000
0000
0100
,
0000
0000
0000
0010
,
0000
0000
0000
1000
,
0000
0000
0000
0001
,
0000
0000
0000
0010
,
0000
0001
0000
0000
,
1000
0000
0000
0001
,
0000
0000
0000
1000
,
0000
0000
0000
0010
,
0000
0000
0000
0100
,
0000
0010
0000
1000
,
0000
0000
0000
0001
,
0000
0000
0000
0010
,
0000
0000
0000
0100
,
0000
0000
0000
1000
,
0000
0000
0000
0000
,
0000
0000
0000
0001
,
0000
0000
0000
0000
,
0000
1000
0000
0010
,
0000
0100
0000
0000
,
0000
0010
0000
0000
,
0000
0100
0000
0000
,
0000
0001
0000
0000
,
0000
1000
1000
0001
,
0000
0000
0000
0000
,
0000
1000
0000
0001
,
0000
0000
0000
0000
,
0000
0110
0000
0010
,
0000
0000
0000
0000
,
0000
0100
0000
0100
,
0000
0000
0000
0000
,
0000
1001
0001
1000
,
0000
0001
0000
0000
,
0000
1000
0000
0000
,
0000
0010
0000
0000
,
0000
0100
0000
0010
,
0000
0000
0000
1000
,
0000
0000
0000
0001
,
0000
0000
0000
1000
,
0000
0000
0000
0010
,
0000
0000
0000
0000
,
0000
0000
0000
1001
,
0000
0000
0000
0000
,
0000
0000
0000
0000
,
0000
0000
0000
0000
,
0000
0000
0000
0000
,
0000
0000
0000
1000
,
0000
0000
0000
0001
,
0000
0000
0000
1000
,
0000
0001
0000
0100
,
0000
0000
0000
0010
,
0000
0000
0000
1000
,
0000
1000
0000
1000
,
0000
1000
0000
0001
,
0000
1000
0000
0010
,
0010
0010
0000
0100
,
0000
0000
0000
0010
,
0000
0000
0000
1000
,
0000
0000
0000
0001
,
0000
0000
0000
1001
,
0000
0110
0000
1001
,
0000
0010
0000
0100
,
0000
0010
0000
1000
,
1000
0001
0001
1001
,
0000
0000
0000
0000
,
0000
0000
0000
0000
,
0000
0000
0000
0000
,
0000
0000
0000
1000
,
0000
0000
0000
0001
,
0000
0000
0000
0100
,
0000
0000
0000
0010
,
0000
0000
0000
1000
,
0000
0000
0000
0001
,
0000
0000
0000
0010
,
0000
0000
0000
0100
,
0000
0000
0000
0010
,
0000
0001
0000
0100
,
0000
0010
0000
1000
,
0000
0001
0000
1000
,
0000
0100
0000
0010
,
0000
0001
0000
1000
,
0000
0100
0000
0110
;

//---------------dance-single - ----------------
#NOTEDATA:;
#CHARTNAME:;
#STEPSTYPE:dance-single;
#DESCRIPTION:;
#CHARTSTYLE:;
#DIFFICULTY:Challenge;
#METER:13;
#RADARVALUES:0.961142,1.301119,0.277126,0.731304,1.043070,874.000000,838.000000,36.000000,95.000000,8.000000,0.000000,0.000000,0.000000,0.000000,0.961142,1.301119,0.277126,0.731304,1.043070,874.000000,838.000000,36.000000,95.000000,8.000000,0.000000,0.000000,0.000000,0.000000;
#CREDIT:;
#NOTES:
0000
0000
0000
0000
,
0000
0000
0000
0000
,
0000
0000
0000
0000
,
0000
0000
0000
0000
,
0000
0000
0000
0000
,
0000
0000
0000
0000
,
1000
0100
0001
0100
0010
0001
0100
0010
,
1000
0010
0100
0001
0010
1000
0010
0100
0010
0001
0100
0010
,
0100
0110
0010
0110
0001
1001
1000
1001
,
0001
0010
1000
0010
0100
0010
0001
0100
0010
1000
0001
0010
,
1001
1001
MMMM
0110
0110
0001
0010
0100
,
0010
0001
0100
0010
1000
0100
0010
0100
,
1000
0000
0001
1000
0100
0000
0010
0000
0100
0000
1000
0000
0010
0000
0100
0000
,
0001
0000
0010
0000
0100
0000
0010
0000
0001
0000
1000
0000
0001
0000
0001
0100
,
0010
0000
0010
1000
0001
0010
0100
0010
0001
0100
0010
1000
0001
0000
0010
0000
,
1000
0010
0100
0010
0001
0100
0010
1000
,
0100
0000
0000
0001
0000
0000
0100
0000
0000
0010
0000
0000
0001
0000
0000
1000
0000
0000
0010
0000
0001
0000
0010
0000
,
1000
0000
0010
0000
0100
0000
0010
0000
1000
0000
0001
0000
0010
0000
0100
0000
1000
0000
0000
0000
0000
0100
0000
0000
,
0010
0000
0001
0000
1000
0010
0100
0001
0010
0100
0010
0001
1000
0000
0001
0010
,
0001
0000
1000
0000
0010
0000
0100
0010
0100
0000
0010
0000
1000
0000
0001
0010
,
0001
0000
0010
0100
1000
0000
0100
0010
0001
0000
0010
0000
0001
0000
0100
0010
,
1000
0000
0001
0000
0010
0000
0100
0010
0001
0000
1000
0000
0001
0000
0100
0010
,
1000
0000
0010
1000
0001
0010
0100
1000
0100
0010
0100
1000
0001
0000
0001
0100
,
0010
0000
0100
0010
1000
0000
0001
0000
0010
0000
0100
0000
0010
0000
0001
1000
,
0010
0000
0000
0000
0000
0000
0100
0000
0000
0010
0000
0000
1000
0000
0000
0000
0000
0000
0010
0000
0000
0100
0000
0000
0001
0000
0000
0000
0000
0000
1000
0000
0000
0000
0000
0000
0001
0000
0000
0000
0010
0000
0000
0000
1000
0000
0000
0000
,
0010
0000
0100
0000
0010
0000
0001
0000
0100
0000
1000
0000
0100
0000
0010
0000
1000
0000
0000
0000
0000
0001
0000
0000
,
0100
0000
0000
0000
0000
0000
0010
0000
0000
0000
0000
0000
1000
0000
0000
0001
0000
0000
1000
0000
0000
0001
0000
0000
1000
0000
0000
0001
0000
0000
1000
0000
0000
0001
0000
0000
2000
0000
0000
0000
0000
0000
0000
0000
3200
0000
0000
0000
,
0000
0320
0000
0230
0000
2300
0000
3020
0000
0230
0000
0302
,
0000
0023
0000
2030
0000
3020
0000
0230
0000
0320
0000
0032
,
0000
0203
0000
2300
0000
3200
0000
0320
0000
2030
0000
3002
,
0000
0023
0000
0200
0000
0000
0000
0000
0030
0320
0000
0032
,
0000
0103
0010
2000
0000
3002
0000
1003
0001
0020
0000
0230
,
0000
0310
0001
0200
0000
0320
0000
1030
0010
0200
0000
0320
,
0000
1030
0100
0020
0000
0230
0000
2300
0000
3002
0203
0000
,
0320
0000
0000
2000
0000
0000
0000
3030
0000
0101
0000
0000
,
0010
0000
1000
1000
0100
1000
0001
0010
,
0100
0010
0001
0001
1000
0010
0200
0000
,
0000
0000
0310
0100
0010
0000
0100
0000
0001
0000
1000
0000
0100
0000
1000
0000
,
0001
0010
1000
0010
0011
1000
0020
0000
,
0000
0130
0001
0010
1000
0010
0001
0100
,
1000
0100
0010
1000
0001
0010
0200
0000
,
0300
0000
0010
0100
2000
0000
0000
0000
3010
0000
0100
0001
0020
0000
0000
0000
,
0130
0000
0010
0001
1000
0001
1000
0001
1000
0001
1000
0001
1000
0001
1000
0001
,
1000
0001
1000
0001
0010
0000
MMMM
0000
1001
0000
0000
0000
1020
0000
0000
0000
,
0130
0001
0010
0000
1000
0000
0010
0000
0001
0000
1000
0000
0000
0000
0100
0000
,
0000
1000
0010
0010
0100
0100
0102
0000
,
0013
0100
1000
0000
0100
0000
1000
0000
0001
0000
0100
0000
0000
0000
0001
0000
,
0000
0000
0000
0010
0000
0000
0100
0000
0100
0000
1000
0000
0100
0000
0100
0000
1000
0000
0002
0000
0000
0000
0000
0000
,
0103
0001
0010
0000
1000
0000
0010
0000
0100
0000
1000
0000
0000
0000
0100
0000
,
0000
1000
0010
0010
0100
0001
1000
0000
,
0100
0010
0100
0000
0010
0000
0001
0000
0100
0000
0001
0000
0000
0000
1000
0000
,
0000
0001
0200
0000
0320
0000
1030
0000
,
0010
0100
0001
1000
0100
0000
0010
0000
0100
0000
1000
0000
0000
0000
0001
0000
,
0000
0000
1000
0010
0100
0000
0010
0000
1000
0000
0001
1000
0100
0000
0010
0000
,
0010
0000
0010
0000
0100
0000
1000
0000
1000
0000
1000
0001
0100
0000
0010
0000
,
1000
0000
0000
0001
0000
0000
1000
0000
1000
0000
0001
0000
0100
0000
0100
0000
0001
0000
0010
0000
0000
0000
0000
0000
,
0110
0000
0000
0100
1000
0000
0100
0010
0001
0000
1000
0000
0000
0000
0002
0000
,
0203
0000
0000
0000
0310
0000
1000
0000
1001
0000
1000
0001
0200
0000
0000
0000
,
0310
1000
0100
0010
0010
0001
1000
0001
,
0100
0001
0000
0010
0200
0000
0000
0000
2300
0000
0000
0000
3010
0000
0000
0000
,
1000
0000
0000
0000
0000
0000
0000
0000
0000
0010
0000
0000
0000
0000
0000
0000
0100
0000
0000
0000
0000
0000
0000
0000
0000
0001
0000
0000
0000
0000
0000
0000
,
0000
0010
0000
0000
0000
0000
0000
0000
1000
0000
0000
0000
0000
0000
0000
0010
0000
0000
0000
0000
0000
0000
0000
0000
0002
0000
0000
0000
0000
0000
0000
0000
,
0000
0000
0000
0000
0000
2003
0000
0000
0000
3002
0000
0000
0000
0203
0000
0000
,
0000
2300
0000
0000
0000
3200
0000
0000
0000
0320
0000
0000
0000
2030
0000
0000
,
0000
0000
0000
0000
0000
3020
0000
0000
0000
0000
0000
0000
0000
0230
0000
0000
,
0000
0320
0000
0000
0000
2030
0000
0000
0000
3002
0000
0000
0000
2000
0000
0000
,
0000
0000
0000
0000
0000
0000
0000
0000
0000
3003
0000
0000
0010
0000
0010
0000
,
0010
0000
0010
0000
1001
0000
0000
0000
0002
0023
0230
2300
3001
0000
0000
0100
,
0000
0001
1001
0000
1000
0100
0001
0100
,
0010
0000
0001
0000
1001
0000
0000
0000
0001
0100
0010
1000
0100
0000
0000
0010
,
0000
0000
0100
0000
1100
0000
0000
0000
1000
0100
0010
0100
1000
0000
0000
0100
,
0000
0010
0011
0000
1010
0000
0001
0100
,
1010
0000
1000
0010
0100
0000
0001
0000
0101
0000
0001
0010
0100
0000
1000
0000
,
1100
0000
0100
0010
0001
0000
0000
1000
0000
0000
0010
0000
1020
0000
0000
0000
,
0130
0021
0130
2000
,
3200
0000
0000
0000
0320
0000
0000
0000
0130
0010
0001
1000
0020
0000
0000
2030
,
0000
3100
1100
0000
0100
0010
0001
0100
,
0001
0000
1000
0000
1001
0000
0000
0000
0001
0000
0010
0000
0200
0000
0000
0320
,
0000
0000
0031
0000
1001
0000
0000
0000
0001
0000
0100
0000
0020
0000
0000
2030
,
0000
0000
3100
0000
1100
0000
0000
0000
0101
0000
0000
0000
0001
0100
0010
1000
,
0001
0010
0100
0010
0001
0100
0010
1000
0100
0010
0100
1000
0010
0100
0001
0010
,
0100
0010
0001
1000
0020
0000
0000
0230
0000
0000
0302
0000
1003
0000
0000
0100
,
1000
0000
0010
0000
0100
0000
0000
0010
0100
0000
0001
0000
0020
0000
0000
0000
,
0230
0000
2300
0000
3002
0000
1003
0100
,
1000
0010
0100
0010
1000
0001
0010
0100
,
0010
0100
0010
0001
0010
0100
0010
0100
,
0010
0001
0100
0010
1000
0010
0100
0010
,
1000
0100
0010
0001
0010
0010
1001
0000
,
0100
1100
0000
0101
0001
0000
0101
0100
,
0100
0000
0010
1000
0100
0000
0010
0100
1000
0000
0001
0000
1000
0000
0001
0100
,
0001
0000
0100
0010
0000
0100
0010
0000
1000
0000
0100
0000
0010
0000
0100
0010
,
0001
0000
0010
0100
1000
0000
0001
0000
1001
0000
0000
0000
0001
0100
0001
0100
,
0001
0100
0001
0100
0010
1000
0010
1000
0010
1000
0010
1000
0100
1000
0100
1000
,
0100
1000
0100
1000
0001
0010
0001
0010
0001
0010
0001
0010
0001
1000
0001
1000
,
0001
1000
0001
1000
0100
0010
0100
0010
0100
0010
0100
0010
0001
0100
0001
0100
,
0001
0100
0001
0100
0010
1000
0010
1000
0010
1000
0010
1000
0001
1000
0001
1000
,
0010
0100
0010
0100
0001
0100
0001
0100
0010
1000
0010
1000
0100
1000
0100
1000
,
0001
0010
0001
0010
0001
1000
0001
1000
0010
1000
0010
1000
0010
0100
0010
0100
,
0001
0100
0001
0100
0001
0010
0001
0010
0100
1000
0100
1000
0100
0010
0001
0010
,
0100
1000
0100
0010
0001
0010
0100
1000
0100
0010
0001
0010
0100
1000
0100
0010
,
0001
0010
0100
1000
0100
0010
0001
0010
0100
1000
0100
0010
0001
0010
0100
1000
,
0100
0010
0001
0010
0100
1000
0100
0010
0001
0010
0100
1000
0200
0000
0300
0010
,
0001
2000
3000
0002
0203
0000
0020
0330
0000
0000
0000
0000
0000
0000
0000
0000
;

//---------------dance-double - ----------------
#NOTEDATA:;
#CHARTNAME:;
#STEPSTYPE:dance-double;
#DESCRIPTION:;
#CHARTSTYLE:;
#DIFFICULTY:Challenge;
#METER:13;
#RADARVALUES:0.846773,1.295562,0.169355,0.384897,0.773642,770.000000,748.000000,22.000000,50.000000,0.000000,0.000000,0.000000,0.000000,0.000000,0.846773,1.295562,0.169355,0.384897,0.773642,770.000000,748.000000,22.000000,50.000000,0.000000,0.000000,0.000000,0.000000,0.000000;
#CREDIT:;
#NOTES:
// measure 0
00000000
00000000
00000000
00000000
,  // measure 1
00000000
00000000
00000000
00000000
,  // measure 2
00000000
00000000
00000000
00000000
,  // measure 3
00000000
00000000
00000000
00000000
,  // measure 4
00000000
00000000
00000000
00000000
,  // measure 5
00000000
00000000
00000000
00000000
,  // measure 6
10000000
01000000
00010000
01000000
00100000
00001000
00010000
00000100
,  // measure 7
00001000
00000100
00000010
00000001
00000010
00000100
00000010
00000001
00000100
00000010
00001000
00000100
,  // measure 8
00010000
00010000
00001000
00001000
01000000
01000000
00100000
00100000
,  // measure 9
10000000
00100000
01000000
00010000
00100000
00001000
00010000
00000100
00001000
00000100
00000010
00000001
,  // measure 10
00000100
00001001
00000000
00000010
00001001
00000000
00000001
00000100
,  // measure 11
00000010
00001000
00000100
00010000
00001000
00010000
00000100
00001000
,  // measure 12
00000010
00000000
00000100
00000001
00000010
00000000
00000100
00000000
00001000
00000000
00000100
00000000
00010000
00000000
00001000
00000000
,  // measure 13
00010000
00000000
00001000
00000000
00100000
00000000
00001000
00000000
00100000
00000000
00001000
00000000
00100000
00000000
00010000
01000000
,  // measure 14
00100000
00000000
00100000
10000000
01000000
00000000
01000000
00100000
00010000
00000000
10000000
00000000
00010000
00000000
01000000
00000000
,  // measure 15
00010000
00100000
00001000
00010000
00000100
00001000
00000010
00000100
,  // measure 16
00000001
00000000
00000000
00000010
00000000
00000000
00000100
00000000
00000000
00000010
00000000
00000000
00000001
00000000
00000000
00001000
00000000
00000000
00000010
00000000
00001000
00000000
00000100
00000000
,  // measure 17
00010000
00000000
00001000
00000000
01000000
00000000
00100000
00000000
10000000
00000000
01000000
00000000
00100000
00000000
01000000
00000000
10000000
00000000
00000000
00000000
00000000
00010000
00000000
00000000
,  // measure 18
01000000
00000000
00100000
00000000
10000000
00010000
10000000
00010000
10000000
00010000
10000000
00010000
10000000
00000000
01000000
00000000
,  // measure 19
00010000
01000000
00100000
00001000
00010000
00000100
00001000
00000010
,  // measure 20
00000001
00000000
00000010
00000100
00000001
00000000
00001000
00000000
00000100
00000000
00000001
00000000
00000100
00000000
00000010
00000000
,  // measure 21
00000001
00000000
00000100
00000000
00000010
00000000
00001000
00000000
00000100
00000000
00010000
00000000
00000000
00000000
00001000
00100000
,  // measure 22
00010000
00000000
00100000
00001000
00010000
00000000
00010000
00000100
00001000
00000000
00000010
00000000
00000100
00000000
00000001
00000000
,  // measure 23
00000010
00000100
00000010
00000001
00001000
00000010
00001000
00000100
,  // measure 24
00010000
00000000
00000000
00001000
00000000
00000000
01000000
00000000
00000000
00100000
00000000
00000000
10000000
00000000
00000000
00010000
00000000
00000000
00100000
00000000
01000000
00000000
00100000
00000000
,  // measure 25
00001000
00000000
00010000
00000000
00000100
00000000
00001000
00000000
00000010
00000000
00000100
00000000
00000001
00000000
00000010
00000000
00000001
00000000
00000000
00000000
00000000
00001000
00000000
00000000
,  // measure 26
00000100
00000000
00000000
00000000
00000000
00000000
00000010
00000000
00000000
00000000
00000000
00000000
00000001
00000000
00000000
00001000
00000000
00000000
00000001
00000000
00000000
00001000
00000000
00000000
00000001
00000000
00000000
00001000
00000000
00000000
00000001
00000000
00000000
00001000
00000000
00000000
00000001
00000000
00000000
00000000
00000000
00000000
00000000
00000000
00000100
00000000
00000000
00000000
,  // measure 27
00000000
00000010
00000000
00001000
00000000
00000100
00000000
00010000
00000000
00001000
00000000
00100000
,  // measure 28
00000000
01000000
00000000
10000000
00000000
01000000
00000000
00100000
00000000
00010000
00000000
00100000
,  // measure 29
00000000
00001000
00000000
00010000
00000000
00000010
00000000
00000100
00000000
00000001
00000000
00000010
,  // measure 30
00000000
00000100
00000000
00000020
00000000
00000000
00000000
00000000
00000000
00000031
00000000
00000100
,  // measure 31
00000000
00000010
00001000
00000100
00000000
00001000
00000000
00000100
00010000
00001000
00000000
00100000
,  // measure 32
00000000
00010000
01000000
00100000
00000000
10000000
00000000
01000000
10000000
00100000
00000000
01000000
,  // measure 33
00000000
00000000
00000000
00000000
00010000
00000000
00000000
00000000
00100000
00000000
00000000
00000000
00001000
00000000
00000000
00000000
00000000
00000000
00000000
00000000
00010000
00000000
00000000
00000000
00000000
00000000
00000000
00000000
00001000
00000000
00000000
00000000
00000000
00000000
00000000
00000000
00100000
00000000
00000000
00000000
00000000
00000000
00000000
00000000
00000000
01000000
00000000
00000000
,  // measure 34
00000000
10000000
00000000
00000000
00020000
00000000
00000000
00000000
00000000
00000000
00000000
00000000
01030000
00000000
00000000
00000000
,  // measure 35
00100000
00000000
10000000
10000000
01000000
10000000
00010000
00010000
,  // measure 36
00100000
00001000
00010000
00010000
00000100
00001000
00000020
00000000
,  // measure 37
00000000
00000000
00000130
00000001
00001000
00000000
00000100
00000000
00000010
00000000
00000100
00000000
00001000
00000000
00000100
00000000
,  // measure 38
00010000
00001000
00100000
01000000
11000000
10000000
00200000
00000000
,  // measure 39
00000000
00000000
01300000
00010000
00100000
00001000
00010000
00000100
,  // measure 40
00001000
00000010
00000100
00000001
00000010
00000100
00000020
00000000
,  // measure 41
00000000
00000000
00000130
00000010
00000002
00000000
00000000
00000000
00001003
00000000
00001000
00000001
00000200
00000000
00000000
00000000
,  // measure 42
00000310
00000000
00000010
00000000
00001000
00000100
00010000
00001000
00100000
01000000
10000000
01000000
00100000
00010000
00100000
00001000
,  // measure 43
00010000
00001000
00010000
00000100
00001000
00000000
00000000
00000000
00110000
00000000
00000000
00000000
12000000
00000000
00000000
00000000
,  // measure 44
03100000
01000000
00100000
00000000
01000000
00000000
10000000
00000000
00010000
00000000
02000000
00000000
00000000
00000000
03020000
00000000
,  // measure 45
00000000
00230000
00301000
00001000
00010000
00010000
00010200
00000000
,  // measure 46
00001300
00000100
00001000
00000000
00000100
00000000
00000010
00000000
00000001
00000000
00000020
00000000
00000000
00000000
00000032
00000000
,  // measure 47
00000000
00000000
00000000
00000103
00000000
00000000
00000010
00000000
00000010
00000000
00000100
00000000
00000010
00000000
00000010
00000000
00000100
00000000
00000020
00000000
00000000
00000000
00000000
00000000
,  // measure 48
00001030
00000001
00001000
00000000
00000100
00000000
00000010
00000000
00000001
00000000
00000200
00000000
00000000
00000000
00000320
00000000
,  // measure 49
00000000
00001030
00000100
00010000
00001000
01000000
00200000
00000000
,  // measure 50
10300000
00010000
00100000
00000000
01000000
00000000
00100000
00000000
00001000
00000000
00020000
00000000
00000000
00000000
00032000
00000000
,  // measure 51
00000000
01003000
01100000
00000000
10100000
00000000
11000000
00000000
,  // measure 52
10000000
01000000
00100000
00000000
01000000
00000000
00100000
00000000
00001000
00000000
00010000
00000000
00000000
00000000
00000100
00000000
,  // measure 53
00000000
00000000
00001000
00000010
00000100
00000000
00000100
00000000
00000010
00000000
00000100
00000001
00000010
00000000
00000100
00000000
,  // measure 54
00000100
00000000
00000100
00000000
00001000
00000000
00000100
00000000
00000100
00000000
00010000
00001000
01000000
00000000
01000000
00100000
,  // measure 55
10000000
00000000
00000000
01000000
00000000
00000000
00100000
00000000
00000000
00000000
00000000
00000000
00010000
00000000
00000000
00000000
00100000
00000000
00000000
00000000
10000000
00000000
00000000
00000000
00100000
00000000
00000000
00000000
00010000
00000000
00000000
00000000
00100000
00000000
00000000
00000000
01000000
00000000
00000000
00000000
00000000
00000000
00000000
00000000
00000000
00100000
00000000
00000000
,  // measure 56
00020000
00000000
00000000
01030000
00010000
00000000
00100000
00000000
00001000
00000000
00001000
00000000
00000000
00000000
00020000
00000000
,  // measure 57
00030200
00000000
00001300
00000010
00000101
00000000
00000101
00000000
,  // measure 58
00000001
00000100
00000010
00000000
00001000
00000000
00000100
00000000
00010000
00000000
00001000
00000000
00100000
00010000
00000000
00010000
,  // measure 59
10000000
00100000
02000000
00000000
03020000
00000000
00130000
00000000
,  // measure 60
00001000
00010000
00000100
00001000
,  // measure 61
00000010
00000001
00000010
00000200
,  // measure 62
00000000
00000320
00002030
00003200
,  // measure 63
00020300
00230000
20300000
30200000
,  // measure 64
00000000
00320000
00000000
02030000
,  // measure 65
03200000
20300000
30020000
20000000
,  // measure 66
00000000
00000000
00000000
00000000
30030000
00000000
00100000
00100000
,  // measure 67
00100000
00000000
00100000
00000000
10010000
00000000
00000000
00000000
10000000
01000000
00100000
00010000
00100000
00000000
00000000
00001000
,  // measure 68
00000000
00010000
00011000
00000000
00010000
00000100
00001000
00000010
,  // measure 69
00000001
00000000
00000010
00000000
00001010
00000000
00000000
00000000
00000010
00000000
00001000
00000000
00000100
00000000
00000000
00010000
,  // measure 70
00000000
00000000
00001000
00000000
00011000
00000000
00000000
00000000
00001000
00000000
00100000
00000000
01000000
00000000
00000000
10000000
,  // measure 71
00000000
01000000
01100000
00000000
10010000
00000000
10000000
00100000
,  // measure 72
01000000
00000000
00010000
00100000
00001000
00000000
00010000
00000000
00000100
00000000
00001000
00000010
00000100
00000000
00000001
00000000
,  // measure 73
00000010
00000000
00000100
00000010
00000001
00000000
00000000
00000100
00000000
00000000
00000010
00000000
00002000
00000000
00000000
00000000
,  // measure 74
00003200
00020300
00032000
00023000
,  // measure 75
00030200
00000000
00000000
00000000
00002300
00000000
00000000
00000000
00003010
00000100
00000001
00001000
00000100
00000000
00000000
00001000
,  // measure 76
00000000
00000100
00010000
00000000
00001000
00010000
00100000
10000000
,  // measure 77
00100000
00000000
00010000
00000000
01000000
00000000
00000000
00000000
00010000
00000000
01000000
00000000
00010000
00000000
00000000
00100000
,  // measure 78
00000000
00000000
00001000
00000000
00010000
00000000
00000000
00000000
00001000
00000000
00010000
00000000
00000100
00000000
00000000
00001000
,  // measure 79
00000000
00000000
00000010
00000000
00000100
00000000
00000000
00000000
00000001
00000000
00000000
00000000
00001000
00000001
00001000
00000010
,  // measure 80
00001000
00000010
00000100
00000010
00000100
00000001
00000100
00000001
00001000
00000010
00001000
00000100
00001000
00000100
00010000
00001000
,  // measure 81
00010000
00001000
00010000
00001000
00100000
00000000
00000000
01000000
00000000
00000000
10000000
00000000
01000000
00000000
00000000
00010000
,  // measure 82
00000000
00000000
01000000
00000000
10000000
00000000
00000000
00010000
00000000
00000000
00010000
00000000
20000000
00000000
00000000
00000000
,  // measure 83
32000000
03200000
00310000
00011000
,  // measure 84
00000000
00000000
00000000
00000000
,  // measure 85
00000000
00000000
00000000
00000000
,  // measure 86
00000000
00000000
00000000
00000000
,  // measure 87
00000000
00000000
00000000
00000000
00000100
00000100
00001100
00000000
,  // measure 88
00000001
00000011
00000000
00000001
00000101
00000000
00000010
00000010
,  // measure 89
00000110
00000000
00000010
00001000
00000100
00000000
00000100
00010000
00001000
00000000
01000000
00000000
00100000
00000000
01000000
00100000
,  // measure 90
10000000
00000000
01000000
00100000
00010000
00000000
10000000
00010000
00100000
00000000
01000000
00000000
00100000
00000000
00010000
00000000
,  // measure 91
01000000
00000000
00100000
00000000
10000000
00010000
10000000
00010000
10000000
00010000
10000000
00010000
10000000
00000000
01000000
00000000
,  // measure 92
00010000
01000000
00100000
00001000
00010000
00000100
00001000
00000010
,  // measure 93
00000001
00000010
00001000
00000100
00010000
00001000
00100000
10000000
,  // measure 94
00100000
00010000
01000000
00100000
10000000
01000000
00010000
01000000
,  // measure 95
00100000
00000000
00001000
00000000
00010000
00000000
00000100
00000000
00001000
00000000
00000010
00000000
00000100
00000010
00000100
00000010
,  // measure 96
00000100
00000001
00000100
00000001
00001000
00000001
00001000
00000001
00001000
00000100
00001000
00000100
00010000
00000100
00010000
00000100
,  // measure 97
00010000
00001000
00010000
00001000
01000000
00001000
01000000
00001000
01000000
00100000
01000000
00100000
10000000
00100000
10000000
00100000
,  // measure 98
10000000
00010000
10000000
00010000
00100000
01000000
00100000
01000000
10000000
01000000
10000000
01000000
00100000
00010000
00100000
00001000
,  // measure 99
00010000
00000100
00001000
00000010
00000100
00000001
00000010
00000100
00001000
00000100
00010000
00001000
00100000
01000000
10000000
01000000
,  // measure 100
10000000
00100000
01000000
00010000
00100000
00001000
00010000
00000100
00001000
00000010
00000100
00000001
00000010
00000100
00001000
00000100
,  // measure 101
00010000
00001000
01000000
00010000
00100000
01000000
10000000
00010000
01000000
00100000
10000000
01000000
00200000
00000000
00000000
00000000
,  // measure 102
00300000
00000000
00000000
00000000
;
