#VERSION:0.83;
#TITLE:X-DEN;
#SUBTITLE:;
#ARTIST:T.Σ.Generation;
#TITLETRANSLIT:;
#SUBTITLETRANSLIT:;
#ARTISTTRANSLIT:;
#GENRE:;
#ORIGIN:;
#CREDIT:;
#BANNER:X-DEN-banner.png;
#BACKGROUND:X-DEN-background.png;
#PREVIEWVID:;
#JACKET:X-DEN-jacket.png;
#CDIMAGE:;
#DISCIMAGE:;
#LYRICSPATH:;
#CDTITLE:;
#MUSIC:X-DEN.ogg;
#OFFSET:1.400000;
#SAMPLESTART:0.960000;
#SAMPLELENGTH:14.700001;
#SELECTABLE:YES;
#BPMS:0.000=100.000,
22.000=200.000,
26.000=400.000,
34.000=200.000,
67.000=400.000,
359.000=100.000,
375.000=200.000,
407.000=400.000,
599.000=100.000,
601.000=200.000,
605.000=400.000;
#STOPS:34.000=0.900;
#DELAYS:;
#WARPS:;
#TIMESIGNATURES:0.000=4=4;
#TICKCOUNTS:0.000=4;
#COMBOS:0.000=1;
#SPEEDS:0.000=1.000=0.000=0;
#SCROLLS:0.000=1.000;
#FAKES:;
#LABELS:0.000=Song Start;
#BGCHANGES:;
#KEYSOUNDS:;
#ATTACKS:
;

//---------------dance-single - ----------------
#NOTEDATA:;
#CHARTNAME:;
#STEPSTYPE:dance-single;
#DESCRIPTION:;
#CHARTSTYLE:;
#DIFFICULTY:Hard;
#METER:13;
#RADARVALUES:1.060020,2.092133,0.184700,0.273035,0.405538,924.000000,901.000000,23.000000,34.000000,0.000000,0.000000,2.000000,0.000000,0.000000,1.060020,2.092133,0.184700,0.273035,0.405538,924.000000,901.000000,23.000000,34.000000,0.000000,0.000000,2.000000,0.000000,0.000000;
#CREDIT:;
#NOTES:
0000
0000
0000
0000
,
0000
0000
0000
0000
,
0000
0000
0000
0000
,
0000
0000
1001
0000
0000
0001
0000
0000
0010
0000
0000
0001
0000
0000
0100
0110
,
0000
0000
0000
0000
0000
0000
0000
0000
0000
1010
0000
0000
0000
0000
0000
0000
0000
0000
0000
0000
0000
1100
0000
0000
0000
0000
0000
0000
1000
0000
0000
0000
0100
0000
0000
0000
0010
0000
0000
0000
0001
0000
0000
0000
0100
0000
0000
0000
,
0010
0000
0000
0000
0000
0000
0000
0000
1000
0001
1000
0001
1000
0001
1000
0001
,
1000
0001
1000
0001
1000
0001
1000
0001
0100
0000
0010
0000
0100
0000
0010
0000
,
0100
0010
0100
0010
0100
0010
0100
0010
,
0100
0010
1000
0001
0010
0000
1200
0000
,
0310
0000
0000
0000
0001
0010
0001
0000
1000
0000
0001
0000
0100
0001
0100
0000
,
0010
0000
1000
0000
0100
0010
0100
0000
0010
0000
0001
0000
2010
0000
0000
0000
,
3200
0000
0000
0000
0320
0000
0000
0000
0130
1000
0100
1000
0001
0000
1000
0001
,
0000
0001
0000
0001
0010
0100
1000
0000
0100
0000
0100
0000
0021
0000
0000
0000
,
0230
0000
0000
0000
0000
0000
0000
0000
0000
0000
0000
0000
1300
0000
0000
0001
0000
0000
1000
0000
0000
0000
0000
0000
0001
0000
0000
0000
0000
0000
0001
0000
0000
0000
0000
0000
0100
0000
0000
0000
0000
0000
0010
0000
0000
0000
1000
0000
,
0000
0001
0000
0010
0000
0000
0100
0000
0000
0010
0000
0000
0001
0000
0000
1000
0000
0000
0021
0000
0000
0000
0000
0000
,
0230
0000
0000
0000
0310
0000
0001
0000
0100
0000
0100
0000
0010
0000
1000
0010
,
0000
0100
0001
0000
0010
0100
0000
0010
0001
0000
0001
0000
1000
0000
0010
0000
,
1000
0010
1000
0000
0001
0100
0001
0100
,
0001
0000
0010
0001
0010
0001
0010
0000
,
0100
1000
0100
1000
0100
0000
1000
0001
,
0010
0001
1000
0000
0100
0000
0010
0100
,
0010
0100
0010
0000
0001
0010
0001
0010
,
0001
0000
0100
0001
0100
0001
0100
0000
,
0010
1000
0010
1000
0010
0000
0100
0010
,
1000
0001
0010
0000
0010
0000
0100
0010
,
0100
0010
0001
0000
1000
0001
1000
0001
,
0100
0000
0010
1000
0010
1000
0100
0000
,
0010
0001
0010
0001
1000
0000
0001
1000
,
0001
1000
0100
0000
0010
0000
0100
0010
,
0100
0010
0001
0000
0010
0100
0010
0100
,
1000
0000
0001
0100
0001
0100
0010
0000
,
0100
0010
0100
0010
1000
0100
0010
0001
,
0010
0100
0010
0001
1000
0100
0010
0000
,
0000
0100
0000
1000
,
0010
0100
0000
0001
0010
0001
0010
0000
,
0001
0010
0000
0100
1000
0001
0100
0000
,
0010
1000
0000
0010
0100
0000
0000
0000
,
0010
1000
0001
0010
,
0000
0100
0000
0011
,
0000
1100
0000
0021
,
0130
1001
0000
0000
,
0000
0001
0000
1000
,
1000
0100
0000
0010
0001
0010
0001
0000
,
0100
0010
0100
0000
0010
1000
0001
0010
,
0100
0010
0000
0100
1000
0000
0100
0000
,
0001
0100
1000
0010
,
0001
0010
1000
0001
,
0002
1000
2003
0010
,
3020
0230
0302
0013
,
0000
2000
0000
3001
,
0100
0001
0000
0010
0001
0010
0100
0000
,
0010
0001
0000
0010
0001
0100
0010
0000
,
1000
0001
0000
0010
0100
0000
0000
0000
,
0000
0020
0000
0130
,
0010
0001
0000
0010
0100
1000
0001
0000
,
1000
0010
0000
0100
0010
1000
0100
0000
,
0010
0100
0000
0010
0001
0000
1000
0000
,
0000
0002
0000
0103
,
0010
1000
0000
0010
0100
0001
0010
0000
,
0100
0010
0000
0100
0010
0001
1000
0000
,
0001
0100
0000
0010
1000
0000
0100
0000
,
0010
0001
0010
1000
,
0010
0000
0100
0000
0010
0000
0004
4000
,
0000
0000
0000
0000
,
0000
0000
0000
0000
3003
0000
1000
0100
,
0010
0001
0010
0100
1000
0100
0010
0001
,
0010
0100
1000
0100
0010
0001
0010
0100
,
1000
0100
0010
0001
0010
0100
1000
0100
,
0010
0001
0010
0100
1000
0100
0010
0001
,
0010
0100
1000
0100
0010
0001
0010
0100
,
1000
0100
0020
0000
0000
0000
0031
0100
,
0001
0000
0100
0000
0010
1000
0010
1000
,
0001
0000
1000
0000
0001
0010
0001
0000
,
0010
0000
0100
0000
0010
0001
1000
0010
,
1000
0100
0010
0100
,
1000
0001
1000
0000
0001
0000
0100
0010
,
0100
0010
1000
0001
,
0010
0100
0010
0000
0100
0000
0010
0001
,
1000
1001
0000
1000
,
0001
0100
0000
0010
1000
0000
0100
1000
,
0100
0000
1000
0000
0100
1000
0100
0000
,
0010
0100
0000
0001
1000
0000
0100
0000
,
1000
0001
0000
1000
0001
0100
0000
0010
,
1000
0000
0001
0010
0001
0000
1000
0000
,
0001
0100
0000
0010
1000
0000
0001
0010
,
1000
0000
0010
0000
0100
0001
0000
0100
,
1000
0000
0010
0000
0100
0010
1000
0001
,
0010
0000
0000
0100
0000
0000
0010
0000
0000
0001
0000
0000
1000
0000
0000
0100
0000
0000
0010
0000
0000
0000
0100
0000
,
0000
1000
0000
0010
0000
0100
0000
0001
0000
0010
0000
0100
,
0000
0000
1000
0000
0000
0000
0001
0000
0000
0000
0010
0000
0000
0000
0100
0000
0000
0000
1000
0000
0000
0200
0000
0000
,
1300
0000
0000
0010
0000
0000
0100
0000
0001
0000
0000
0010
0000
0000
0100
0000
0010
0000
0001
0010
0000
0100
1000
0000
0000
0000
0000
0000
0200
0000
0000
0000
,
1300
0000
0000
0010
0000
0000
0100
0000
0001
0000
0000
0010
0000
0000
0100
0000
0010
0000
0001
0010
0000
0010
0100
0000
0000
0000
0000
0000
0020
0000
0000
0000
,
0031
0000
0000
0100
0000
0000
0010
0000
1000
0000
0000
0100
0000
0000
1000
0000
0010
0000
0100
0010
0000
1000
0001
0000
1000
0000
0100
0010
0000
0100
1000
0000
,
0010
0000
0100
0001
0000
0010
0100
0000
0010
0000
0001
0100
0000
0010
1000
0000
0010
0000
1000
0001
0000
0010
0100
0000
1001
0000
0000
0000
0000
0000
0000
0000
,
0010
1000
0010
0110
,
0001
1000
0001
1100
,
1000
0010
0100
0101
,
0001
0000
0011
0000
0010
0000
0010
0100
,
0000
0010
0001
0100
0000
0010
1000
0001
,
0000
1000
0100
0001
0000
0001
0100
0010
,
0001
0000
0100
0000
0010
0000
1000
0000
0001
0000
0010
0000
0001
0100
0010
1000
,
0001
0010
0100
0010
0001
0100
0010
1000
0001
0010
0100
1000
0002
0000
0000
0000
,
0000
1003
0000
0001
,
0100
0010
0000
0100
0010
1000
0001
0000
,
0010
0100
0000
0010
0001
1000
0010
0000
,
0100
0001
0000
0010
0100
0000
0000
0000
,
0000
0020
0000
0130
,
0100
0010
0000
0010
0001
1000
0010
0000
,
0100
0010
0000
0100
0010
1000
0001
0000
,
1000
0100
0000
0100
0010
0000
0000
0000
,
0000
0200
0000
1300
,
0100
0010
0000
0100
1000
0001
1000
0000
,
0010
0100
0000
0010
0100
0001
1000
0000
,
0100
0010
0000
0100
1000
0000
0002
0000
,
0000
0000
0103
0010
0100
0000
0010
0000
,
1000
0001
0010
0000
0100
0000
0010
0001
,
0100
0010
1000
0001
0010
0100
0010
0001
,
1000
0010
0100
0010
1000
0001
0010
0000
,
0000
0210
0000
1300
,
0100
0010
0000
0100
1000
0010
0100
0000
,
0010
1000
0000
0010
0001
0010
0100
0000
,
0010
1000
0000
0001
0010
0000
0000
0000
,
0000
2002
3003
0101
,
0001
0100
0010
0000
1000
0001
0010
0000
,
0100
0010
0000
0100
0010
0001
1000
0000
,
0001
0100
0000
0100
1000
0000
0000
0000
,
0000
0202
0303
1001
,
0001
1000
0001
0000
0010
0000
0100
0000
,
0010
0001
0000
0010
0001
0100
0010
0000
,
1000
0001
0000
0010
0100
0000
0020
0000
,
0000
0000
0031
0010
0001
0000
0100
0000
,
0010
1000
0000
0010
0001
0000
0100
0000
,
0020
0000
2030
0000
3002
0000
0013
0001
,
0100
0010
1000
0001
0010
0001
1000
0001
,
1000
0001
1000
0000
1000
0010
1000
0010
,
1000
0000
1000
0100
1000
0100
1000
0000
,
1000
0001
1000
0001
1000
0000
1000
0001
,
0100
0010
1000
0001
0010
0100
0010
0001
,
0010
0001
0010
0000
0010
0100
0010
0100
,
0010
0000
0010
0001
0010
0001
0010
0000
,
0010
0100
0010
0100
0010
0000
0100
0010
,
0001
1000
0010
0100
0001
0010
0100
0010
,
0100
0010
0100
0000
0100
1000
0100
1000
,
0100
0000
0100
0010
0100
0010
0100
0000
,
0100
1000
0100
1000
0100
0000
1000
0001
,
0100
0010
1000
0100
0010
0001
1000
0010
,
1000
0010
1000
0000
0001
0100
0001
0100
,
0001
0000
1000
0001
1000
0001
1000
0000
,
0000
0100
0000
0000
0000
0010
0000
0000
0000
0001
0000
0000
,
0000
0100
0000
0000
0000
0010
0000
0000
0000
1000
0000
0000
,
0000
0000
0000
0000
0001
1000
0001
1000
0001
1000
0001
1000
0001
1000
0001
1000
,
0001
1000
0001
1000
0010
0000
0100
0000
0010
0000
0100
0000
0010
0000
0100
0000
,
0010
0100
0010
0100
0010
0100
0010
0100
,
0010
1000
0001
0000
0000
0000
0000
0000
;

//---------------dance-single - ----------------
#NOTEDATA:;
#CHARTNAME:;
#STEPSTYPE:dance-single;
#DESCRIPTION:;
#CHARTSTYLE:;
#DIFFICULTY:Challenge;
#METER:14;
#RADARVALUES:1.155238,2.650250,0.393492,0.883350,0.586223,1007.000000,958.000000,49.000000,110.000000,89.000000,0.000000,2.000000,0.000000,0.000000,1.155238,2.650250,0.393492,0.883350,0.586223,1007.000000,958.000000,49.000000,110.000000,89.000000,0.000000,2.000000,0.000000,0.000000;
#CREDIT:;
#NOTES:
0000
0000
0000
0000
,
0000
0000
0000
0000
,
0000
0000
0000
0000
0000
M00M
0MM0
0MM0
,
M00M
0000
1001
0000
0000
1100
0000
0000
0110
0000
0000
1001
0000
0000
1010
0110
,
0000
0000
0000
0000
0000
0000
0000
0000
0000
0101
0000
0000
0000
0000
0000
0000
0000
0000
0000
0000
0000
0011
0000
0000
0000
0000
0000
0000
0011
0000
0000
0000
0110
0000
0000
0000
1100
0000
0000
0000
1010
0000
0000
0000
0110
0000
0000
0000
,
2002
0000
0000
0000
0000
0000
0000
3003
0001
0100
0001
0100
0010
1000
0010
1000
,
0001
1000
0001
1000
0001
0010
0001
0010
0001
0000
0100
0000
0010
0000
1000
0000
,
0001
0010
0100
0010
0001
0100
0010
1000
,
0001
0000
0000
0010
0000
0000
0100
0000
1000
0000
0100
0000
1000
0000
MM00
0000
0000
0000
0021
0000
0000
0000
0000
0000
,
0130
0000
0000
0000
1000
0100
0010
0000
0001
0000
1000
0000
0010
0100
0001
0000
,
0100
0000
0001
0000
0010
0100
1000
0000
0100
0000
1000
0000
0102
0000
0000
0000
,
0023
0000
0000
0000
0230
0000
0000
0000
0310
0001
0100
0010
1000
0000
0001
1000
,
0000
0001
0000
1000
0100
0010
0100
0000
0010
0000
0100
0000
2001
0000
0000
0000
,
3020
0000
0000
0000
0000
0000
0000
0000
0000
0000
0000
0000
0130
0000
0000
0001
0000
0000
1000
0000
0000
0000
0000
0000
0010
0000
0000
0000
0000
0000
1000
0000
0000
0000
0000
0000
0010
0000
0000
0000
0000
0000
0100
0000
0000
0000
0001
0000
,
0000
1000
0000
0100
0000
0000
0100
0000
0000
0010
0000
0000
1000
0000
0000
0001
0000
0000
1200
0000
0000
0000
0000
0000
,
0320
0000
0000
0000
0130
0000
1000
0000
0010
0000
0010
0000
0100
0000
0001
0100
,
0000
0010
1000
0000
0100
0010
0000
0100
1000
0000
0001
0000
1000
0000
0010
0000
,
0100
0001
0020
0000
0130
0010
0001
1000
,
0020
0000
0130
0010
1000
0001
2000
0000
,
3001
1000
0100
0010
0200
0000
0310
0001
,
1000
0010
0100
0001
0010
0100
0010
0001
,
1000
0010
2000
0000
3001
1000
0100
0010
,
0200
0000
0310
0001
0100
0010
2000
0000
,
3001
1000
0100
0010
0200
0000
0310
0001
,
0100
0010
1000
0001
0100
0010
1000
0100
,
0010
0001
0020
0000
0031
1000
0010
1000
,
0200
0000
0310
0001
0100
0001
2000
0000
,
3001
1000
0010
0100
0002
0000
1003
0100
,
0010
0100
1000
0100
0010
0001
1000
0001
,
0100
0001
0020
0000
0130
0010
0001
1000
,
0020
0000
0130
0010
1000
0010
0200
0000
,
0301
0010
0100
0010
0001
1000
0010
0100
,
0001
0010
0100
1000
0100
0010
0100
0000
,
0000
0020
0000
0032
,
0103
0010
0000
1000
0100
1000
0100
0000
,
1000
0100
0000
0010
0001
1000
0010
0000
,
0100
0001
0000
0100
0010
0000
1000
0000
,
1000
0001
0001
0010
,
1000
0010
0001
0201
,
0000
2300
0000
3200
,
0310
00M0
1001
0000
0000
0000
0000
0000
,
0000
2000
0000
3002
,
0013
0100
0000
1000
0010
0100
0010
0000
,
0100
0010
1000
0000
0100
0010
0100
0000
,
0010
0100
0000
0100
0010
0000
0001
0000
,
1000
0010
0001
0100
,
1000
0100
0001
1000
,
2000
0000
0001
0000
3002
M000
0100
0000
,
0203
000M
0320
0M00
2030
00M0
3100
0000
,
0000
0002
0000
1003
,
0010
1000
0000
0100
1000
0100
0010
0000
,
0100
1000
0000
0100
1000
0010
0100
0000
,
0001
1000
0000
0100
0010
0000
0000
0000
,
0000
0200
0000
0310
,
0100
1000
0000
0100
0010
0001
1000
0000
,
0001
0100
0000
0010
0100
0001
0010
0000
,
0100
0010
0000
0100
1000
0000
0001
0000
,
0000
2000
0000
3010
,
0100
0001
0000
0100
0010
1000
0100
0000
,
0010
0100
0000
0010
0100
1000
0001
0000
,
1000
0010
0000
0100
0001
0000
0010
0000
,
0100
1000
0100
0001
,
0100
0000
0010
0000
0100
0000
0010
0001
,
0100
0010
1000
0001
0010
0100
0010
0001
,
1000
0010
1000
0001
0010
0100
1000
0100
,
0010
0001
1000
0100
001M
0100
1000
0100
,
0010
0001
0010
M100
0010
0001
1000
0100
,
0010
0001
1000
0100
001M
0100
1000
0100
,
0010
0001
0010
M100
0010
0001
1000
0100
,
0010
0M01
1000
0100
001M
0100
1000
0001
,
0010
M100
0010
0001
1000
00M1
1000
0010
,
2000
0000
3020
0000
0230
0302
0203
0302
,
2003
0000
0002
3003
2000
3200
2300
0000
,
3200
0000
0320
0000
0230
2300
3002
0203
,
0002
0003
0320
0000
0230
0000
0320
0000
,
0230
0320
2030
0000
3002
0000
0023
0230
,
0320
0230
2300
3002
,
0203
0320
0230
0000
0320
0000
0230
0320
,
2030
3001
0MM0
1001
,
1000
0010
0000
0100
0001
0000
0010
0001
,
0010
0000
0011
0000
0110
0000
0001
0100
,
0000
1010
0000
1000
0001
0000
0011
0000
,
0001
1000
0001
0000
1000
0010
0000
0100
,
0001
0000
1000
0100
1000
0000
1001
0000
,
1000
0010
0000
0100
0001
0000
1000
0100
,
0001
0000
0101
0000
0010
1000
0000
0010
,
0001
0000
0110
0000
1000
0100
0000
1000
,
0100
0000
0000
0010
0000
0000
0100
0000
0000
1000
0000
0000
0001
0000
0000
0010
0000
0000
0001
0000
0000
0000
0001
0000
,
0000
0100
0000
0100
0000
0010
0000
0010
0000
1000
0000
1000
,
0000
0000
0001
0000
0000
0000
0001
0000
0000
0000
1000
0000
0000
0000
1000
0000
0000
0000
0000
0000
0000
1000
0000
0000
,
0100
1000
0001
0000
1000
0100
0010
0100
1000
0000
0001
0100
0000
0010
1000
0001
0010
0000
0100
0010
0000
0010
0001
0000
0000
0000
0000
0000
0001
0000
0000
0000
,
0010
0000
0001
1000
0001
0010
0100
0010
0001
0000
1000
0010
0000
0100
0001
1000
0100
0000
0010
0100
0000
0100
1000
0000
0000
0000
0000
0000
0100
0000
0000
0000
,
1000
0000
0001
0100
0010
1000
0100
0010
0100
0000
0100
1000
0000
0100
1000
0010
0100
0000
0001
1000
0000
0010
1000
0000
0100
0000
0010
0100
0000
0100
1000
0000
,
0010
0000
0100
0001
0000
0010
0100
0000
0010
0000
0001
0100
0010
0000
1000
0000
0001
0000
0010
0100
1000
0000
0001
0000
1001
0000
0000
0000
0000
0000
0000
0000
,
0001
0000
0100
0000
0010
1000
1100
0000
,
0100
0000
0010
0000
0100
1000
1001
0000
,
0001
0000
1000
0000
0010
1000
1100
0000
,
1000
0001
0101
0000
0001
0010
4004
0000
,
0000
0000
0000
0000
,
0000
0000
0000
0000
0000
0000
0000
0000
0000
0000
3003
0000
0001
0100
0010
1000
,
0001
0000
0000
0010
0000
0000
0100
0000
0000
0010
0000
0000
0001
0000
0000
1000
0000
0000
0010
0000
0000
0100
0000
0000
0001
0000
0000
0010
0000
0000
0100
0000
0000
1000
0000
0000
0001
0000
1000
0000
0001
0000
1000
0000
0001
0000
1000
0000
,
0001
1000
0001
1000
0001
1000
0001
1000
0001
1000
0001
1000
0001
1000
0001
1000
0001
1000
0200
0000
0000
0000
0000
0000
,
0000
0320
0000
0031
,
0010
0100
0000
0010
0100
1000
0100
0000
,
1000
0100
0000
0010
0100
1000
0010
0000
,
0100
0001
0000
0100
0010
0000
0000
0000
,
0000
0201
0000
0310
,
0100
1000
0000
1000
0100
0001
0100
0000
,
0010
1000
0000
0100
0010
0001
1000
0000
,
0001
0010
0000
0010
0100
0000
0000
0000
,
0000
1020
0000
0130
,
0010
0100
0000
0010
0001
1000
0010
0000
,
0100
0010
0000
0100
1000
0100
0001
0000
,
0010
0100
0000
0010
0001
0000
2010
0000
,
0000
0000
3010
0100
0010
0000
0100
0000
,
0001
1000
0100
0000
0010
0000
0100
1000
,
0010
0100
0001
0010
0100
0010
0001
1000
,
0010
0000
0000
0100
0000
0000
0001
0000
1000
0000
0001
0000
1000
0000
0001
0000
1000
0000
0100
0000
0000
0000
0000
0000
,
0000
0120
0000
MM31
,
0010
0100
0000
0010
0001
0100
M01M
0000
,
0100
0001
0000
0100
1000
0100
M01M
0000
,
0100
0001
0000
1000
0100
0000
000M
00M0
,
0000
2002
3003
1010
,
1000
0M10
010M
0000
0001
10M0
010M
0000
,
0010
0100
M000
0M10
0100
10M0
0M01
0000
,
100M
M010
0000
001M
0M01
0000
0000
0000
,
0000
2020
3030
1MM1
,
1000
0001
1000
0000
0100
0000
M01M
0000
,
0100
1000
0000
0100
1000
0010
M10M
0000
,
0001
1000
0000
0100
0010
0000
02M0
000M
,
0000
0000
1300
0100
1000
0000
0010
0000
,
0100
0001
MM00
0100
1000
0000
0M1M
0000
,
M20M
0000
M3M2
0000
2MM3
0000
31MM
1000
,
0010
0100
0001
1000
0100
1000
0010
0100
,
0001
1000
0200
0000
0310
0001
1000
0010
,
2000
0000
3001
0010
0100
0010
0002
0000
,
1003
0001
0100
0010
0200
0000
0310
1000
,
0010
0100
0001
0010
0100
0010
0001
1000
,
0010
1000
0200
0000
0310
0100
1000
0001
,
0200
0000
0310
1000
0001
0010
0002
0000
,
0013
0001
0100
0010
2000
0000
3100
1000
,
0010
0100
0001
0010
0100
0010
0001
1000
,
0010
0100
0002
0000
0013
0100
0010
0001
,
2000
0000
3001
1000
0010
1000
0200
0000
,
0310
0100
1000
0001
2000
0000
3001
0010
,
0100
0010
0001
0100
0010
1000
0001
0010
,
0100
0010
0002
0000
1003
0100
1000
0010
,
0200
0000
0000
0000
0000
0000
0310
0000
0000
1000
0000
0000
0001
0000
0000
1000
0000
0000
1001
0000
0000
0000
MMMM
0000
,
0000
0011
0000
MMMM
0000
0110
0000
MMMM
0000
1100
0000
MMMM
,
0000
1010
0000
MMMM
0000
0110
0000
MMMM
0000
2002
0000
0000
,
0000
0000
0000
0000
0000
0000
0000
0000
3003
0000
0000
0000
1000
0000
0000
0010
0000
0000
1000
0000
0000
0010
0000
0000
0100
0000
0000
0001
0000
0000
0100
0000
0000
0001
0000
0000
0010
0000
0000
0001
0000
0000
0010
0000
0000
0001
0000
0000
,
1000
0100
1000
0100
1000
0000
0100
0000
1000
0000
0010
0000
0100
0000
0001
0000
,
0010
0100
1000
0001
0100
0010
1000
0001
,
0010
0100
2000
0002
0000
0000
3003
0000
0000
0000
0000
0000
;

//---------------dance-single - ----------------
#NOTEDATA:;
#CHARTNAME:;
#STEPSTYPE:dance-single;
#DESCRIPTION:;
#CHARTSTYLE:;
#DIFFICULTY:Easy;
#METER:9;
#RADARVALUES:0.634406,0.984533,0.273035,0.160609,0.024091,553.000000,519.000000,34.000000,20.000000,0.000000,0.000000,4.000000,0.000000,0.000000,0.634406,0.984533,0.273035,0.160609,0.024091,553.000000,519.000000,34.000000,20.000000,0.000000,0.000000,4.000000,0.000000,0.000000;
#CREDIT:;
#NOTES:
0000
0000
0000
0000
,
0000
0000
0000
0000
,
0000
0000
0000
0000
,
0000
0000
0000
0000
,
0000
0000
0000
0000
,
0110
0000
0000
0000
1000
0010
0100
0001
,
0010
0100
0010
0001
1000
0000
0100
0000
,
0010
0001
1000
0100
,
0010
0001
1000
1200
,
0310
0000
0100
1000
0010
0100
0001
0000
,
1000
0100
0010
0012
,
0103
0000
0010
1000
0001
0000
0010
0001
,
0100
1000
0100
0010
1000
0001
2001
0000
,
3100
0000
1000
0010
0100
0000
0010
1000
,
0010
0100
0001
0010
0100
0000
2100
0000
,
3010
0000
0100
0001
0010
0000
0100
0010
,
0001
1000
0001
0000
0100
0100
0001
0000
,
1000
0100
0000
1000
,
0100
0000
0010
1000
,
0000
0001
0100
0000
,
0010
1000
0001
0010
,
0100
0010
0000
0100
,
1000
0000
0100
0010
,
0000
0100
1000
0000
,
0100
1000
0010
0100
,
0001
0010
0000
0100
,
0010
0000
0001
0100
,
0000
0010
1000
0000
,
0010
0100
0001
0010
,
0100
1000
0000
0100
,
1000
0000
0100
0010
,
0000
0100
0010
0001
,
0100
1000
0100
0010
,
0000
2000
0000
3001
,
0010
0100
0010
0001
,
0100
0010
1000
0001
,
0010
0100
1000
0000
,
0001
0100
0001
0010
,
0000
0100
0000
1100
,
0000
0011
0000
0101
,
0000
1001
0000
0000
,
0000
0020
0000
0130
,
0010
1000
0001
1000
,
0100
1000
0001
0010
,
1000
0010
0001
0000
,
1000
0100
0010
0000
,
0100
0000
0010
0001
,
0001
1000
0010
0100
,
0100
0010
1000
1001
,
0000
0200
0000
0310
,
1000
0010
0100
0001
,
0010
0100
0010
0001
,
1000
0010
1000
0000
,
0000
0020
0000
0130
,
0010
0001
0100
0010
,
1000
0001
0010
1000
,
0010
0001
1000
0000
,
0000
0002
0000
0103
,
0001
0010
0001
1000
,
0010
0100
0001
1000
,
0100
0010
0100
1000
,
0010
0100
0001
0010
,
0100
1000
0100
2002
,
0000
0000
0000
0000
,
3003
0000
0000
0001
,
0100
0000
0010
0100
,
0000
0000
0000
0010
,
1000
0100
0000
0010
,
0001
0100
0000
0010
,
1000
0100
0000
0010
,
0001
0100
0000
0010
,
1000
0010
0100
0001
,
0010
0100
0000
0010
,
0001
0010
0001
0100
,
0010
1000
0000
0001
,
0010
0100
0010
0001
,
1000
0010
0000
0100
,
0001
0100
0001
0100
,
0010
1000
0000
0001
,
1000
0100
1000
0001
,
0100
0010
1000
0001
,
0010
0100
0010
0001
,
0100
0010
1000
0001
,
0010
0100
0010
0001
,
0100
0010
1000
0001
,
0010
0100
0010
0001
,
1000
0010
0100
0001
,
0010
0000
0000
0100
0000
0000
1000
0000
0000
0004
0000
4000
,
0000
0000
0000
0000
,
0000
0000
0000
3003
,
0000
0000
0000
0200
,
0000
0000
0320
2030
,
0000
0000
3002
0023
,
0000
0200
0330
1001
,
0001
1000
0010
1001
,
0010
1000
0001
1001
,
0001
0100
0010
1001
,
1000
1001
0001
0101
,
0001
0100
0000
1000
0010
0100
0000
0010
,
1000
0100
0000
0001
0100
1000
0000
0100
,
0010
0000
0001
0000
0100
0000
0010
0000
1000
0000
0001
0000
0400
0040
0000
0000
,
0000
0000
0000
0000
0000
0330
1000
0000
,
0000
0021
0000
0130
,
0010
0010
0001
0100
,
0010
1000
0001
0010
,
0100
0010
0001
0000
,
0000
2001
0000
3100
,
1000
0010
0100
0001
,
0010
0100
0010
0001
,
0010
0100
1000
0000
,
0000
1020
0000
0130
,
0010
1000
0001
0010
,
0100
0010
0001
1000
,
0010
0100
0001
0010
,
1000
0010
0001
0100
,
0010
1000
0001
1000
,
0100
0001
0100
0010
,
0001
0100
0010
1001
,
0000
0001
0100
1010
,
0000
1000
0100
0011
,
0000
0001
0100
0110
,
0000
0000
0100
0000
0000
1000
0001
0000
,
0000
1010
0000
0100
,
0000
0001
0010
0000
0000
0010
0001
0000
,
0000
0001
1000
0000
0000
1000
0010
0000
,
0000
0010
0100
0000
0000
0100
0001
0000
,
0000
1000
0000
0011
,
0000
0001
0100
0101
,
0000
0100
0010
0110
,
0000
0000
0010
0000
0000
1000
0100
0000
,
0000
1000
0000
0001
,
0000
0101
0000
1010
,
0000
1100
0000
0110
,
0000
0011
0000
1000
,
1000
0001
0100
0100
,
0010
1000
1000
0100
,
0010
0010
0001
1000
,
0100
0010
0001
0100
,
0100
0010
1000
1000
,
0100
0010
0010
0001
,
0100
0100
0001
0010
,
0100
0010
0001
1000
,
1000
0001
0100
0100
,
0010
1000
1000
0100
,
0010
0010
0100
0010
,
0001
1000
0010
0100
,
0100
0001
0100
0100
,
0010
1000
0001
0010
,
0000
0100
0000
0000
0000
1000
0000
0000
0000
0001
0000
0000
,
0000
0100
0000
0000
0000
0010
0000
0000
0000
1001
0000
0000
,
0000
0000
1000
0010
0100
0001
0100
0010
,
1000
0010
0100
0000
1000
0000
0100
0000
,
0010
1000
0100
0010
,
0001
1000
0001
0000
0000
0000
0000
0000
;

//---------------dance-single - ----------------
#NOTEDATA:;
#CHARTNAME:;
#STEPSTYPE:dance-single;
#DESCRIPTION:;
#CHARTSTYLE:;
#DIFFICULTY:Medium;
#METER:10;
#RADARVALUES:0.767482,1.599867,0.305157,0.128487,0.172655,669.000000,631.000000,38.000000,16.000000,0.000000,0.000000,2.000000,0.000000,0.000000,0.767482,1.599867,0.305157,0.128487,0.172655,669.000000,631.000000,38.000000,16.000000,0.000000,0.000000,2.000000,0.000000,0.000000;
#CREDIT:;
#NOTES:
0000
0000
0000
0000
,
0000
0000
0000
0000
,
0000
0000
0000
0000
,
0000
0000
0000
0000
,
0000
0000
0000
0000
,
0110
0000
0000
0000
1000
0100
0010
0001
,
1000
0010
0100
0001
0010
0100
0010
0100
,
0010
0100
0010
0100
0010
0100
0010
0100
,
0010
0100
0010
0100
1000
0000
0102
0000
,
0023
0000
0130
0010
0001
0000
1000
0000
,
0001
0000
0100
0001
0010
0100
2100
0000
,
3020
0000
0130
0010
1000
0000
0001
0100
,
1000
0100
0010
1000
0010
0100
0102
0000
,
0023
0000
0130
0010
0001
0000
0010
0001
,
0100
0010
1000
0001
0010
0100
1200
0000
,
0320
0000
0000
0000
0130
0000
1000
0000
0001
0000
0000
0000
1000
0000
0000
0001
,
0000
0000
0100
0000
0000
0010
0000
0000
1001
0000
0000
0000
1000
0000
0000
0000
,
1000
0100
0010
0010
,
0001
0100
0100
0010
,
1000
1000
0001
0010
,
0100
1000
0100
0010
,
0010
0100
1000
1000
,
0010
0100
0100
0001
,
0010
0010
0100
0010
,
0001
1000
0100
0010
,
0010
0100
1000
1000
,
0001
0100
0100
0010
,
1000
1000
0010
0100
,
0001
0010
0100
1000
,
1000
0010
0100
0100
,
0001
0010
0010
0100
,
0010
0000
0010
0000
0001
0000
1000
0100
,
0010
0000
0100
1000
0010
0000
0101
0000
,
0000
0120
0000
1030
,
0000
0100
0000
0000
1000
0000
0001
0000
,
0000
0100
0000
0000
0010
0000
1000
0000
,
0100
0010
0000
0010
0001
0000
0000
0000
,
1000
0100
0001
0100
,
0000
0001
0000
0100
,
0000
0010
0000
0001
,
0011
1100
0000
0000
,
0000
0201
0000
0310
,
0000
0100
0000
0000
0001
0000
0010
0000
,
0000
0100
0000
0000
0010
0000
0001
0000
,
1000
0001
0000
0100
0010
0000
0100
0000
,
0001
0010
0100
0000
,
0010
0000
0100
0010
,
0001
0100
1000
0100
,
0010
1000
0001
1000
,
0100
0001
0000
0001
,
0100
1000
0000
1000
,
0100
0001
0000
0001
,
0100
0010
1000
0001
,
0010
1000
0000
1000
,
0010
0001
0000
0001
,
0010
1000
0000
1000
,
0010
0001
0100
0010
,
1000
0100
0000
0100
,
1000
0010
0000
0010
,
1000
0100
0000
0100
,
1000
0010
0100
0001
,
0010
0100
0010
0001
,
0100
0000
0010
0000
1000
0000
0004
4000
,
0000
0000
0000
0000
,
0000
0000
3003
0010
,
0100
0000
0000
0000
0010
1000
0100
0000
,
0000
0000
0000
0010
,
0100
1000
0010
0100
,
0001
0010
0100
0010
,
0001
0100
0010
1000
,
0001
0110
0000
0010
,
0010
0001
0100
0010
,
0010
1000
0000
0010
,
0010
0100
0001
1000
,
1000
0100
0000
0010
,
0010
0100
1000
0001
,
0000
0100
0000
0000
0010
0000
1000
0000
,
0100
0010
0001
1000
,
0000
0001
0000
0000
0100
0000
0010
0000
,
1000
0010
0100
0001
,
0010
0100
0010
0001
,
1000
0010
0100
0001
,
0010
0100
0010
0001
,
1000
0010
0100
0001
,
0010
0000
0100
0000
1000
0000
0001
1000
,
0001
0000
1000
0000
0001
0100
0000
0010
,
1000
0000
0100
0000
0010
0001
0000
0010
,
0100
0000
0000
0000
0000
0000
1000
0000
0000
0100
0000
0000
0000
0000
0000
0010
0000
0000
0001
0000
0000
0000
0010
0000
,
0000
0100
0000
1000
0000
0010
0000
0100
0000
0001
0000
0010
,
0000
0000
0000
0000
0100
0000
0000
0000
0000
0000
0000
0000
1000
0000
0000
0000
0000
0000
0000
0000
0100
0000
0000
0000
0000
0000
0000
0000
0010
0000
0000
0000
0000
0000
0000
0000
0001
0000
0000
0000
0000
0000
1000
0000
0000
0010
0000
0000
,
0000
0100
0010
0000
1000
0001
0000
0010
0100
0000
0010
0000
0000
0000
0100
1000
,
0000
0000
0100
0000
0010
0000
0000
0000
0100
0000
1000
0000
0000
0000
0010
0000
0100
0000
0000
0001
0000
0000
0010
0000
0000
0000
0000
0000
0100
0000
0010
0000
,
0000
0100
1000
0000
0010
0100
0000
0001
0010
0000
0100
0010
0001
0100
0010
0000
,
0100
0010
1000
0000
0001
0100
1000
0100
0010
1000
0001
0010
1100
0000
0000
0000
,
0100
1000
0010
0101
,
0001
0010
0100
1100
,
0100
1000
0010
0110
,
0010
1001
0010
2002
,
0000
0000
0000
0000
,
0000
0000
0000
0000
3003
0000
0001
0100
,
1000
0000
0100
0000
0010
0000
1000
0000
0100
0000
0010
0000
0001
0010
0001
0010
,
0001
1000
0100
1000
0100
1000
0010
1000
0010
1000
0010
0100
0001
0000
0000
0000
,
0000
1200
0000
0310
,
0100
0000
1000
0000
0010
0000
1000
0001
,
0000
0010
0100
0000
0010
0000
0001
0100
,
0000
0010
1000
0000
0001
0000
0000
0000
,
0000
1200
0000
0310
,
0100
0010
0001
1000
,
0001
0100
0000
0010
1000
0000
0100
0000
,
0010
0100
0000
1000
0010
0000
0000
0000
,
0000
0201
0000
0310
,
0100
0001
1000
0001
,
0010
0000
0100
0010
0000
0100
1000
0000
,
0010
0000
0100
0001
0000
0010
0100
0000
,
0010
0000
0001
0100
0000
0010
1000
0000
,
0100
0000
0010
0100
0000
1000
0010
0100
,
0010
0100
0010
0100
0010
0100
0010
0100
,
0010
0100
0010
0100
0010
0100
0010
0000
,
0000
1020
0030
0101
,
0000
0001
0000
1100
,
0000
1000
0000
1001
,
0000
0000
0010
0000
0000
0100
0001
0000
,
0000
0010
0100
0100
,
0000
1000
0100
0000
0000
0100
0010
0000
,
0000
0010
0001
0000
0000
0001
0100
0000
,
0000
0100
0010
0000
0000
0010
1000
0000
,
0000
1001
0000
0011
,
0000
0100
0000
1100
,
0000
1000
0000
0101
,
0000
0000
0001
0000
0000
1000
0010
0000
,
0000
0100
0000
0001
,
0000
0011
0000
1100
,
0100
0000
1000
0000
0010
0000
0001
0010
,
1000
0010
0100
0001
0010
0100
1000
0000
,
1000
0001
0010
0010
,
0100
1000
1000
0100
,
1000
1000
0010
0100
,
0001
0010
0100
1000
,
1000
0100
0010
0010
,
0100
1000
1000
0001
,
0100
0100
0001
0100
,
0010
1000
0100
0010
,
0010
0100
0010
0010
,
0001
1000
1000
0010
,
1000
1000
0100
0010
,
0100
1000
0001
0010
,
0010
0100
1000
1000
,
0001
1000
1000
1001
,
0000
1010
0000
0000
0000
1100
0000
0000
0000
1001
0000
0000
,
0000
0101
0000
0000
0000
1010
0000
0000
0000
1001
0000
0000
,
0000
0000
0001
0100
0010
1000
0001
0010
,
0100
1000
0001
0100
0001
0100
0001
0100
,
0001
0100
0001
0100
0001
0100
0001
0100
,
0001
1000
0010
0000
0000
0000
0000
0000
;

//---------------dance-single - ----------------
#NOTEDATA:;
#CHARTNAME:;
#STEPSTYPE:dance-single;
#DESCRIPTION:;
#CHARTSTYLE:;
#DIFFICULTY:Beginner;
#METER:4;
#RADARVALUES:0.224853,0.430733,0.112426,0.000000,0.000000,196.000000,182.000000,14.000000,0.000000,0.000000,0.000000,0.000000,0.000000,0.000000,0.224853,0.430733,0.112426,0.000000,0.000000,196.000000,182.000000,14.000000,0.000000,0.000000,0.000000,0.000000,0.000000,0.000000;
#CREDIT:;
#NOTES:
0000
0000
0000
0000
,
0000
0000
0000
0000
,
0000
0000
0000
0000
,
0000
0000
0000
0000
,
0000
0000
0000
0000
,
0110
0000
1000
0000
,
0000
0000
0001
0000
,
0000
0000
0000
0000
,
0000
0000
0100
0010
,
0000
1000
0000
0001
,
0000
0000
0000
1000
,
0000
0100
0000
0010
,
0000
0000
0000
0100
,
0000
1000
0000
0001
,
0000
0000
0000
0100
,
0000
0010
0000
1000
,
0000
0000
0000
1000
,
0000
0000
1000
0000
,
0000
1000
0000
0000
,
1000
0000
0000
1000
,
0000
0000
0000
0001
,
0000
0000
0001
0000
,
0000
0001
0000
0000
,
0001
0000
0000
0001
,
0000
0000
0000
1000
,
0000
0000
0001
0000
,
0000
0100
0000
0000
,
0010
0000
0000
1000
,
0000
0000
0000
0010
,
0000
0000
0100
0000
,
0000
0001
0000
0000
,
1000
0000
0000
0100
,
0000
0000
0000
1001
,
0000
0000
0000
1000
,
0000
0000
0000
0001
,
0000
0000
0000
0100
,
0000
0000
0000
0000
,
0000
0010
0000
0010
,
0000
0000
0000
0100
,
0000
0100
0000
0100
,
0000
0000
0000
0000
,
0000
0001
0000
0000
,
0000
0000
0000
1000
,
0000
0000
0000
0010
,
0000
0000
0000
1000
,
0000
0000
0000
0000
,
0000
0000
0000
0001
,
0000
0000
0000
1000
,
0000
0000
0000
0110
,
0000
0000
0000
0010
,
0000
0000
0000
0010
,
0000
0000
0000
0010
,
0000
0000
0000
0100
,
0000
0000
0000
0100
,
0000
0000
0000
0100
,
0000
0000
0000
0100
,
0000
0000
0000
0001
,
0000
0000
0000
0001
,
0000
0000
0000
0001
,
0000
0000
0000
0001
,
0000
0000
0000
1000
,
0000
0000
0000
0001
,
0000
0000
0000
0110
,
0000
0000
0000
0000
,
0000
0000
0000
1000
,
0000
0000
0000
0100
,
0000
0000
0000
1000
,
0000
0000
0000
0100
,
0000
0000
0000
0010
,
0000
0000
0000
0001
,
0000
0000
0000
1000
,
0000
0000
0000
0001
,
0000
0000
0000
0100
,
0000
0000
0000
0010
,
0000
0000
0000
1000
,
0000
0000
0000
0010
,
0000
0000
0000
0100
,
0000
0000
0000
0001
,
0000
0000
0000
1000
,
0000
0000
0000
1000
,
0000
0000
0000
0001
,
0000
0000
0000
0001
,
0000
0000
0000
0100
,
0000
0000
0000
0010
,
0000
0000
0000
1001
,
0000
0000
0000
0000
,
0000
0000
0000
0000
,
0000
0000
0000
0010
,
0000
0100
0000
0001
,
0000
1000
0000
1001
,
0000
0000
0000
0100
,
0000
0000
0000
0010
,
0000
0000
0010
1000
,
0000
0001
0000
1001
,
0000
0000
0000
0010
,
0000
0000
0000
1001
,
0000
0000
0000
0100
,
0000
0010
0000
1001
,
0000
0000
0000
0000
,
0000
0000
0000
0010
,
0000
0100
0000
0001
,
0100
0010
1000
0001
,
0000
1000
0000
0001
,
0000
0100
0000
0001
,
0000
0010
0000
0100
,
0000
0100
0000
0000
,
0000
0010
0000
0001
,
0000
0100
0000
0010
,
0000
1000
0000
0001
,
0000
0001
0000
0000
,
0000
1000
0000
0001
,
0000
0100
0000
0010
,
0000
1000
0000
0010
,
0000
0100
0000
0001
,
0000
1000
0000
0100
,
0000
0010
0000
0001
,
0000
0001
0000
0001
,
0000
0001
0000
1001
,
0000
0000
0000
0010
,
0000
0000
0000
1000
,
0000
0000
0000
0100
,
0000
0000
0000
1000
,
0000
0000
0000
0000
,
0000
0001
0000
1000
,
0000
0100
0000
0010
,
0000
0001
0000
0000
,
0000
0000
0000
0010
,
0000
0000
0000
0100
,
0000
0000
0000
0010
,
0000
0000
0000
0001
,
0000
0000
0000
0000
,
0000
1000
0000
0001
,
0000
0100
0000
0010
,
0000
1000
0000
0001
,
0000
0000
0001
0000
,
0000
0001
0000
0000
,
0001
0000
0000
0001
,
0000
0000
0000
1000
,
0000
0000
1000
0000
,
0000
1000
0000
0000
,
1000
0000
0000
1000
,
0000
0000
0000
0010
,
0000
0000
0100
0000
,
0000
0010
0000
0000
,
1000
0000
0000
0001
,
0000
0000
0000
0010
,
0000
0000
0001
0000
,
0000
0100
0000
0110
,
0000
0000
0000
1001
,
0000
0000
0000
0110
,
0000
0100
0000
0000
,
0000
0100
0000
0000
,
0000
0000
0000
0000
,
0000
1001
0000
0000
;

//---------------dance-double - ----------------
#NOTEDATA:;
#CHARTNAME:;
#STEPSTYPE:dance-double;
#DESCRIPTION:;
#CHARTSTYLE:;
#DIFFICULTY:Challenge;
#METER:14;
#RADARVALUES:1.124263,2.461333,0.385462,0.361370,0.449705,980.000000,932.000000,48.000000,45.000000,0.000000,0.000000,2.000000,0.000000,0.000000,1.124263,2.461333,0.385462,0.361370,0.449705,980.000000,932.000000,48.000000,45.000000,0.000000,0.000000,2.000000,0.000000,0.000000;
#CREDIT:;
#NOTES:
// measure 0
00000000
00000000
00000000
00000000
,  // measure 1
00000000
00000000
00000000
00000000
,  // measure 2
00000000
00000000
00000000
00000000
,  // measure 3
00000000
00000000
10010000
00000000
00000000
00100000
00000000
00000000
00001000
00000000
00000000
00010000
00000000
00000000
00001000
00000000
,  // measure 4
00010000
00000000
00000000
00001000
00000000
00000000
00010000
00000000
00000000
00000100
00000000
00000000
00001000
00000000
00000000
00000010
00000000
00000000
00000100
00000000
00000000
00000001
00000000
00000000
00001001
00000000
00000000
00010100
00000000
00000000
00011000
00000000
,  // measure 5
00101000
00000000
00000000
00000000
00000000
00000000
00000000
00000000
10000000
01000000
10000000
01000000
10000000
01000000
10000000
01000000
,  // measure 6
10000000
01000000
10000000
01000000
10000000
01000000
10000000
01000000
10000000
00000000
00100000
00000000
01000000
00000000
00010000
00000000
,  // measure 7
00100000
00001000
00010000
00000100
00001000
00000100
00010000
00001000
,  // measure 8
00100000
00001000
00010000
00000100
00002000
00003000
00002001
00000000
,  // measure 9
00003020
00000000
00000000
00000000
00000130
00000001
00000100
00000000
00000001
00000000
00000010
00000000
00000100
00000000
00001000
00000100
,  // measure 10
00000000
00000100
00010000
00000000
00001000
01000000
00000000
01000000
00100000
00000000
10000000
00000000
01000000
00000000
00000000
00000000
,  // measure 11
00210000
00000000
00000000
00000000
01300000
00000000
00000000
00000000
01000000
00000000
10000000
00000000
00100000
00000000
01000000
00010000
,  // measure 12
00000000
00100000
00001000
00000000
00010000
00000100
00000000
00001000
00000010
00000100
00000001
00000010
00000200
00000000
00000000
00000000
,  // measure 13
00000320
00000000
00000000
00000000
00000000
00000000
00000000
00000000
00000000
00000000
00000000
00000000
00000031
00000000
00000000
00001000
00000000
00000000
00000001
00000000
00000000
00000000
00000000
00000000
00001000
00000000
00000000
00000000
00000000
00000000
00000001
00000000
00000000
00000000
00000000
00000000
00000100
00000000
00000000
00000000
00000000
00000000
00000010
00000000
00000000
00000000
00001000
00000000
,  // measure 14
00000000
00000100
00000000
00010000
00000000
00000000
00001000
00000000
00000000
01000000
00000000
00000000
00100000
00000000
00000000
10000000
00000000
00000000
12000000
00000000
00000000
00000000
00000000
00000000
,  // measure 15
03200000
00000000
00000000
00000000
01300000
00000000
00000000
00000000
10000000
00000000
00000000
00000000
00010000
00000000
01000000
00010000
,  // measure 16
00000000
00100000
00001000
00000000
00010000
00000010
00000000
00000010
00000100
00000000
00000100
00000000
00000001
00000000
00000100
00000000
,  // measure 17
00000001
00000100
00000010
00000000
00001000
00000100
00001000
00000100
,  // measure 18
00010000
00000000
00001000
00100000
00001000
00100000
00010000
00000000
,  // measure 19
01000000
00100000
01000000
00100000
10000000
00000000
01000000
00100000
,  // measure 20
00010000
00100000
00001000
00010000
00000100
00001000
00000001
00000100
,  // measure 21
00000001
00000100
00000010
00000000
00000100
00001000
00000100
00001000
,  // measure 22
00000001
00000000
00000100
00000010
00000100
00000010
00001000
00000000
,  // measure 23
00000100
00010000
00000100
00010000
00001000
00000000
00010000
00001000
,  // measure 24
01000000
00100000
10000000
01000000
00100000
00010000
10000000
00100000
,  // measure 25
10000000
00100000
01000000
00000000
00010000
00100000
00010000
00100000
,  // measure 26
01000000
00000000
10000000
00010000
10000000
00010000
01000000
00000000
,  // measure 27
00010000
01000000
00010000
00100000
00001000
00010000
00000010
00000100
,  // measure 28
00000001
00000010
00000001
00000010
00000100
00000000
00000100
00001000
,  // measure 29
00000100
00001000
00000010
00000000
00000100
00000010
00000100
00000010
,  // measure 30
00001000
00000000
00000100
00010000
00000100
00010000
00001000
00000000
,  // measure 31
00010000
00001000
00010000
00001000
00010000
00100000
10000000
00100000
,  // measure 32
00010000
01000000
10000000
01000000
00010000
01000000
00100000
00000000
,  // measure 33
00000000
10100000
00000000
01010000
,  // measure 34
00010000
00100000
00010000
00100000
00001000
00000000
00010000
00000000
,  // measure 35
00000100
00001000
00000000
00000010
00000100
00000000
00000001
00000000
,  // measure 36
00000010
00000100
00000000
00000010
00000001
00000000
00001000
00000000
,  // measure 37
00000100
00000001
00000100
00001000
,  // measure 38
00000000
00000022
00000033
00001001
,  // measure 39
00000000
00010100
00000000
00011000
,  // measure 40
00001000
00011000
00000000
00000000
,  // measure 41
00000000
00102000
00000000
00103000
,  // measure 42
01000000
10000000
01000000
10000000
01000000
00100000
01000000
10000000
,  // measure 43
00000000
10000000
00100000
00000000
01000000
00000000
00010000
00100000
,  // measure 44
00000000
00001000
00010000
00000000
00000100
00000000
00010000
00000000
,  // measure 45
00000100
00001000
00000010
00000000
,  // measure 46
00000100
00000000
00000000
00000001
,  // measure 47
00000001
00000100
00000100
00000010
,  // measure 48
00001000
00000100
00010000
00002000
,  // measure 49
00000000
00203000
00000000
01300000
,  // measure 50
00100000
01000000
00100000
00010000
01000000
00100000
10000000
00000000
,  // measure 51
10000000
00010000
00000000
00100000
00001000
00010000
00000100
00000000
,  // measure 52
00001000
00000010
00000000
00000100
00000010
00000000
00000000
00000000
,  // measure 53
00000000
00000102
00000000
00000023
,  // measure 54
00000130
00000010
00000001
00000010
00000100
00001000
00000100
00000000
,  // measure 55
00000100
00010000
00000000
00001000
00100000
00010000
01000000
00000000
,  // measure 56
00100000
10000000
00000000
00010000
01000000
00000000
00000000
00000000
,  // measure 57
00000000
10200000
00000000
02300000
,  // measure 58
03100000
10000000
00100000
01000000
00010000
00000000
00100000
00000000
,  // measure 59
00001000
00010000
00000100
00001000
00000010
00000100
00000001
00000000
,  // measure 60
00000010
00000100
00000000
00000010
00000001
00000000
00001000
00000000
,  // measure 61
00000001
00000100
00000000
00000010
00001000
00000100
00010000
00000000
,  // measure 62
00001000
00010000
00000000
00001000
00010000
00100000
02000000
00000000
,  // measure 63
00000000
00000000
00000000
00000000
00000000
00000000
03100000
01000000
,  // measure 64
00100000
00000000
10010000
00000000
00000000
00000000
10000000
01000000
,  // measure 65
00100000
00010000
00100000
00001000
00010000
00000100
00001000
00000100
,  // measure 66
00000010
00000001
00000010
00000100
00001000
00000100
00010000
00001000
,  // measure 67
00010000
00100000
01000000
10000000
01000000
00100000
00010000
00100000
,  // measure 68
01000000
00100000
00010000
00100000
00001000
00010000
00000100
00001000
,  // measure 69
00000100
00000010
00000001
00000010
00000100
00001000
00000100
00010000
,  // measure 70
00001000
00000000
00011000
00000000
00000000
00000000
00001000
01000000
,  // measure 71
00001000
00000000
01000000
00000000
00100000
10000000
00100000
00000000
,  // measure 72
01000000
00010000
00000000
00100000
00001000
00000000
00010000
00001000
,  // measure 73
00010000
00000000
00000100
00000000
00001000
00000010
00000100
00000000
,  // measure 74
00000001
00000010
00000000
00000100
00000010
00000000
00000001
00000100
,  // measure 75
00000001
00000100
00000010
00001010
,  // measure 76
00000000
00011000
00000000
00000000
00101000
00000000
00001000
00100000
,  // measure 77
00010000
00100000
01000000
11000000
,  // measure 78
00000000
01100000
00000000
00000000
00110000
00000000
10000000
00000000
,  // measure 79
00010000
00100000
00000000
00001000
00010000
00000000
00000100
00001000
,  // measure 80
00000100
00000000
00001000
00000000
00000010
00000100
00000000
00000001
,  // measure 81
00000010
00000000
00000100
00000010
00000001
00000010
00000000
00000010
,  // measure 82
00000001
00001000
00000000
00000010
00001000
00000000
00000100
00010000
,  // measure 83
00000000
00001000
00100000
01000000
00100000
00000000
01000000
00000000
,  // measure 84
10000000
00100000
00000000
01000000
00010000
00000000
10000000
01000000
,  // measure 85
00010000
00000000
01010000
00000000
00010000
01000000
00000000
01000000
,  // measure 86
00100000
00000000
00010000
00100000
00001000
00010000
00000100
00001000
,  // measure 87
00000010
00000000
00000000
00000100
00000000
00000000
00000010
00000000
00000000
00010000
00000000
00000000
00001000
00000000
00000000
00100000
00000000
00000000
00010000
00000000
00000000
00000000
00100000
00000000
,  // measure 88
00000000
01000000
00000000
10000000
00000000
01000000
00000000
00100000
00000000
00010000
00000000
00001000
,  // measure 89
00000000
00000000
00000100
00000000
00000000
00000000
00000010
00000000
00000000
00000000
00000001
00000000
00000000
00000000
00000100
00000000
00000000
00000000
00000010
00000000
00000000
00002000
00000000
00000000
,  // measure 90
00003100
00000000
00010000
00001000
00010000
00000000
00001000
00000000
01000000
00000000
00100000
10000000
00000000
00100000
01000000
00000000
00010000
00000000
00100000
01000000
00000000
01000000
00100000
00000000
00000000
00000000
00000000
00000000
02000000
00000000
00000000
00000000
,  // measure 91
13000000
00000000
01000000
10000000
01000000
00000000
00100000
00000000
00010000
00000000
00100000
00001000
00000000
00010000
00000100
00001000
00000010
00000000
00000100
00000001
00000000
00000010
00000100
00000000
00000000
00000000
00000000
00000000
00000020
00000000
00000000
00000000
,  // measure 92
00000130
00000000
00000010
00000001
00000010
00000000
00000001
00000000
00000100
00000000
00000010
00001000
00000000
00000100
00001000
00000000
00000100
00000000
00010000
00001000
00010000
00001000
00100000
01000000
10000000
00000000
00000000
00000000
01000000
10000000
01000000
00000000
,  // measure 93
10000000
00000000
00100000
01000000
00000000
00010000
00100000
00001000
00010000
00000000
00000100
00001000
00000010
00000000
00000010
00000000
00000100
00000001
00001000
00000000
00000001
00000000
00001000
00000000
00000101
00000000
00000000
00000000
00000000
00000000
00000000
00000000
,  // measure 94
00000001
00000100
00000010
00001010
,  // measure 95
00000010
00000000
00001000
00000000
00000100
00010000
00010100
00000000
,  // measure 96
00001000
00000000
00100000
00000000
01000000
10000000
11000000
00000000
,  // measure 97
10000000
01000000
00110000
00000000
00100000
00001000
00044000
00000000
,  // measure 98
00000000
00000000
00000000
00000000
,  // measure 99
00000000
00000000
00000000
00000000
00000000
00033000
00100000
00001000
,  // measure 100
00010000
00000000
00000100
00000000
00001000
00000000
00000010
00000000
00000100
00000000
00000001
00000000
00000010
00000001
00001000
00000100
,  // measure 101
00010000
00001000
00100000
00001000
01000000
00100000
10000000
00010000
00100000
00001000
00010000
00000010
00000100
00000000
00000000
00000000
,  // measure 102
00000000
00000000
00000102
00000000
00000000
00000000
00000013
00000100
,  // measure 103
00001000
00000100
00010000
00001000
01000000
00100000
10000000
00000000
,  // measure 104
00100000
10000000
00000000
00010000
00100000
00001000
00010000
00000000
,  // measure 105
00000100
00010000
00000000
00010000
00001000
00000000
00000000
00000000
,  // measure 106
00000000
00000000
01002000
00000000
00000000
00000000
00103000
00001000
,  // measure 107
00010000
00000100
00001000
00000010
00000100
00000010
00001000
00000000
,  // measure 108
00001000
00000001
00000000
00000010
00000100
00001000
00000100
00000000
,  // measure 109
00010000
00000100
00000000
00000100
00001000
00000000
00000000
00000000
,  // measure 110
00000000
00000000
00012000
00000000
00000000
00000000
01003000
00010000
,  // measure 111
01000000
00100000
10000000
00010000
00100000
01000000
00100000
00000000
,  // measure 112
01000000
10000000
00000000
01000000
10000000
00100000
01000000
00000000
,  // measure 113
00010000
00100000
00000000
01000000
00100000
00000000
00010000
10000000
,  // measure 114
01000000
00100000
00010000
10000000
00010000
00100000
01000000
00000000
,  // measure 115
00100000
00010000
00000000
00100000
00001000
00010000
00000100
00010000
,  // measure 116
00001000
01000000
00001000
00010000
00000100
00010000
00000010
00001000
,  // measure 117
00000100
00010000
00001000
01000000
00100000
10000000
01000000
00000000
,  // measure 118
00000000
00210000
00000000
01300000
,  // measure 119
00100000
00010000
01000000
00001000
00010000
00000100
00001000
00000000
,  // measure 120
00000010
00000100
00000000
00000001
00000010
00000100
00000010
00000000
,  // measure 121
00000100
00001000
00000000
00000010
00000100
00000000
00000000
00000000
,  // measure 122
00000000
00000000
00002001
00000000
00000000
00000000
00003100
00010000
,  // measure 123
00001000
00100000
00001000
01000000
00100000
10000000
01000000
00000000
,  // measure 124
10000000
00100000
00000000
01000000
00010000
00100000
00001000
00000000
,  // measure 125
00010000
00000100
00000000
00001000
00000010
00000000
00000000
00000000
,  // measure 126
00000000
00000102
00000000
00000013
,  // measure 127
00000100
00000010
00000001
00000010
00000100
00001000
00000001
00000000
,  // measure 128
00001000
00000100
00000000
00001000
00000100
00010000
00001000
00000000
,  // measure 129
00100000
00010000
00000000
10000000
01000000
00000000
20000000
00000000
,  // measure 130
30000000
00000000
00100000
01000000
00010000
00000000
00100000
00000000
,  // measure 131
01000000
00100000
00000000
00100000
01000000
10000000
00020000
00000000
,  // measure 132
00230000
00000000
00302000
00000000
00023000
00000000
00030010
00000100
,  // measure 133
00000001
00000010
00000100
00001000
00000100
00010000
00001000
00100000
,  // measure 134
00010000
00100000
00002000
00000000
00013000
00000100
00010000
00000100
,  // measure 135
00002000
00000000
00003010
00000100
00000010
00000100
00000002
00000000
,  // measure 136
00000013
00000100
00000010
00000001
00001000
00000100
00010000
00000000
,  // measure 137
00001000
00000000
00101000
00000000
00110000
00000000
00100000
00010000
,  // measure 138
00100000
00010000
02000000
00000000
03100000
10000000
00100000
10000000
,  // measure 139
02000000
00000000
03100000
00010000
00100000
00010000
20000000
00000000
,  // measure 140
30010000
00100000
00001000
00010000
00000100
00001000
00000010
00000100
,  // measure 141
00000001
00000010
00000001
00000010
00000200
00000000
00001300
00000100
,  // measure 142
00001000
00000100
00020000
00000000
00031000
01000000
00001000
01000000
,  // measure 143
00200000
00000000
01300000
00010000
01000000
00010000
00200000
00000000
,  // measure 144
01300000
00100000
00010000
00100000
00002000
00000000
00013000
00001000
,  // measure 145
00010000
00000100
00001000
00000010
00000100
00000000
00000010
00001000
,  // measure 146
00000010
00001000
00000200
00000000
00000310
00000001
00000010
00000001
,  // measure 147
00002000
00000000
00003001
00001000
00000001
00001000
00001001
00000000
,  // measure 148
00000000
00001100
00000000
00000000
00000000
00010100
00000000
00000000
00000000
00011000
00000000
00000000
,  // measure 149
00000000
00110000
00000000
00000000
00000000
11000000
00000000
00000000
00000000
10100000
00000000
00000000
,  // measure 150
00000000
00000000
00000000
00000000
01000000
00010000
01000000
00010000
01000000
00010000
01000000
00010000
01000000
00010000
01000000
00010000
,  // measure 151
01000000
00010000
01000000
00010000
01000000
00000000
00010000
00000000
00100000
00000000
00001000
00000000
00010000
00000000
00000100
00000000
,  // measure 152
00001000
00000010
00000100
00000001
00000010
00000100
00001000
00000001
,  // measure 153
00001000
00000001
00001000
00000000
00000000
00000000
00000000
00000000
;
