#VERSION:0.83;
#TITLE:Virtual Emotion;
#SUBTITLE:;
#ARTIST:Inspector K;
#TITLETRANSLIT:;
#SUBTITLETRANSLIT:;
#ARTISTTRANSLIT:;
#GENRE:;
#ORIGIN:;
#CREDIT:;
#BANNER:banner.png;
#BACKGROUND:background.png;
#PREVIEWVID:;
#JACKET:jacket.png;
#CDIMAGE:;
#DISCIMAGE:;
#LYRICSPATH:;
#CDTITLE:;
#MUSIC:Virtual Emotion.ogg;
#OFFSET:-0.100000;
#SAMPLESTART:24.080000;
#SAMPLELENGTH:10.666666;
#SELECTABLE:YES;
#BPMS:0.000=90.000,
36.000=180.000,
100.000=90.000,
116.000=180.000,
148.000=90.000,
180.000=180.000;
#STOPS:;
#DELAYS:;
#WARPS:;
#TIMESIGNATURES:0.000=4=4;
#TICKCOUNTS:0.000=4;
#COMBOS:0.000=1;
#SPEEDS:0.000=1.000=0.000=0;
#SCROLLS:0.000=1.000;
#FAKES:;
#LABELS:0.000=Song Start;
#BGCHANGES:;
#KEYSOUNDS:;
#ATTACKS:
;

//---------------dance-single - ----------------
#NOTEDATA:;
#CHARTNAME:;
#STEPSTYPE:dance-single;
#DESCRIPTION:;
#CHARTSTYLE:;
#DIFFICULTY:Hard;
#METER:9;
#RADARVALUES:0.544941,0.678001,0.151161,0.000000,0.466820,429.000000,412.000000,17.000000,0.000000,8.000000,0.000000,0.000000,0.000000,0.000000,0.544941,0.678001,0.151161,0.000000,0.466820,429.000000,412.000000,17.000000,0.000000,8.000000,0.000000,0.000000,0.000000,0.000000;
#CREDIT:;
#NOTES:
0000
0000
0000
0000
,
0000
0000
0000
0000
,
0000
0000
0000
0000
,
0000
0000
0000
0000
,
1000
0000
0001
0000
0100
0000
0010
0000
0000
0000
0100
0010
0000
0000
0010
0100
,
0000
0000
0010
0000
1000
0000
0100
0000
0000
0000
0010
0000
0010
0100
1000
0000
,
0000
0000
0100
1000
0000
0000
0010
0000
0000
0000
0100
0001
0000
0001
0010
0000
,
0000
0000
0100
0010
0001
1000
0010
0100
0000
0000
0010
0000
0100
0010
1000
0001
,
1001
0000
0000
MM1M
0000
0000
1001
0000
0100
0010
0M00
0010
0100
0000
0110
0000
,
1001
0001
0010
0000
0100
0000
0010
0000
,
0000
0000
0100
1000
0100
1000
0100
0000
0000
0000
1000
0000
0010
0000
0000
0000
,
0100
1000
0010
0000
0010
0100
0001
0010
,
0000
0100
0010
0001
1000
0010
0001
0010
,
0100
0001
0010
0000
0100
0000
0010
0000
,
0000
0000
0100
1000
0100
1000
0100
0000
0000
0000
0100
0000
0010
0000
0000
0000
,
0100
1000
0010
0100
0010
0100
0010
1000
,
0000
1000
0000
1000
0001
0010
1000
0010
,
0011
0001
0100
0000
0010
0000
1000
0000
,
0000
0000
0001
0010
0001
0010
0001
0000
0000
0000
0001
0000
0100
0000
0000
0000
,
0010
0100
1000
0000
0100
0010
1000
0001
,
0000
0010
0100
1000
0001
0010
1000
0010
,
0001
0000
1000
0001
0010
0000
0100
0000
,
0000
0000
0010
0001
0010
0001
0010
0000
0000
0000
0010
0000
0100
0000
0000
0000
,
0010
0001
0100
0010
0000
0100
0010
1000
,
0000
1000
0000
1000
0001
0010
1000
0010
,
0001
1000
0000
0010
0000
1000
0000
0001
0010
0100
0000
0010
0000
0000
0000
0000
,
0100
0010
0000
0001
0000
1000
0100
0010
0001
1000
0000
0001
0000
0100
0000
0010
,
0100
0010
0000
1000
0000
0010
0000
1000
0001
0010
0000
0100
0000
0000
0000
0000
,
0010
0000
0100
0000
0000
0000
0010
0000
0000
0000
0001
0000
0010
0000
0100
0000
1000
0000
0000
0000
1000
0000
0000
0000
0001
0100
0001
0100
0001
0100
0001
0100
,
0010
0000
0100
0000
0001
0000
1000
0000
0100
0000
0000
0100
0000
0000
0100
0000
,
0010
0000
0001
0000
0100
0000
0010
0000
1000
0000
0000
1000
0000
0000
1000
0000
,
0010
0000
0000
1000
0000
0000
0010
0000
0100
0000
0000
0001
0000
0000
0100
0000
,
0001
0000
0000
0010
0000
0000
0001
0000
1000
0000
0001
0000
0100
0000
0010
0000
,
1000
0000
0010
0000
0100
0000
0001
0000
0010
0000
0000
0010
0000
0000
0010
0000
,
0100
0000
0010
0000
0001
0000
1000
0000
0100
0000
0000
0100
0000
0000
0100
0000
,
0010
0000
0000
0001
0000
0000
0010
0000
0100
0000
0000
1000
0000
0000
0100
0000
,
1000
0001
1000
0001
1000
0001
1000
0001
,
1001
0000
0000
0000
1000
0000
0000
0010
0000
0000
0100
0000
0000
0000
0001
0000
0000
0000
0000
0000
0001
0000
0000
0010
0000
0000
0100
0000
0000
0000
1000
0000
,
0000
0000
0000
0000
0100
0000
0000
1000
0000
0000
0010
0000
0000
0000
0100
0000
0000
0000
0000
0000
0001
0000
0000
0010
0000
0000
0100
0000
0000
0000
1000
0000
,
0000
0000
0000
0000
0100
0000
0000
1000
0000
0000
1000
0000
0000
0000
0001
0000
0000
0000
0000
0000
0100
0000
0000
0010
0000
0000
1000
0000
0000
0000
0001
0000
,
0000
0000
0000
0000
0010
0000
0000
0100
0000
0000
0100
0000
0000
0000
0010
0000
0000
0000
0000
0000
0001
0000
0000
0010
0000
0000
0100
0000
0000
0000
1000
0000
,
0010
0000
0100
0000
0010
0000
1000
0000
0000
0000
0001
1000
0000
0000
1000
0001
,
0000
0000
0100
0000
0010
0000
1000
0000
0000
0000
0100
0000
0100
1000
0010
0000
,
0000
0000
0100
0000
0010
0000
1000
0000
0000
0000
0010
1000
0000
0000
1000
0001
,
1001
0000
0000
MM1M
0000
0000
1001
0000
0001
0100
000M
0100
0001
0000
1000
0000
,
1001
1000
0100
0000
1000
0000
0010
0000
,
0000
0000
0100
0001
0100
0001
0100
0000
0000
0000
0001
0000
0010
0000
0000
0000
,
0100
0010
0001
0000
0001
0010
1000
0010
,
0000
0100
0010
0001
0100
1000
0100
0010
,
1000
0001
0010
0100
,
0000
0000
0010
0001
0010
0001
0010
0000
0000
0000
0010
0000
0100
0000
0000
0000
,
0010
0001
0100
1000
0100
0010
1000
0001
,
0000
0001
0000
0001
0010
0100
1000
0010
,
0100
0010
0110
0000
1001
0000
0110
0000
,
0000
0000
0001
0100
0001
0100
0001
0000
0000
0000
0001
0000
0011
0000
0000
0000
,
0001
0001
1000
0000
1000
1000
0010
0100
,
0000
0010
0100
0100
0010
1000
0001
0010
,
0100
0010
0011
0000
1010
0000
0011
0000
,
0000
0000
1000
0010
1000
0010
1000
0000
0000
0000
0001
0000
0011
0000
0000
0000
,
0001
0010
1000
0010
0000
0100
0010
0001
,
0000
0000
0001
0000
0000
0000
0001
0000
1000
0010
0100
0001
1000
0010
0100
0001
,
1000
0000
0000
0000
;

//---------------dance-double - ----------------
#NOTEDATA:;
#CHARTNAME:;
#STEPSTYPE:dance-double;
#DESCRIPTION:;
#CHARTSTYLE:;
#DIFFICULTY:Challenge;
#METER:10;
#RADARVALUES:0.660535,0.922081,0.675778,0.062243,0.551292,520.000000,444.000000,76.000000,7.000000,0.000000,0.000000,0.000000,0.000000,0.000000,0.660535,0.922081,0.675778,0.062243,0.551292,520.000000,444.000000,76.000000,7.000000,0.000000,0.000000,0.000000,0.000000,0.000000;
#CREDIT:;
#NOTES:
00000000
00000000
00000000
00000000
,
00000000
00000000
00000000
00000000
,
00000000
00000000
00000000
00000000
,
00000000
00000000
00000000
00000000
,
10000000
00000000
11000000
00000000
01010000
00000000
00110000
00000000
00000000
00000000
00100000
00001000
00000000
00000000
00010000
00000100
,
00000000
00000000
00001100
00000000
00000110
00000000
00000011
00000000
00000000
00000000
00001001
00000000
00000001
00000100
00000010
00000000
,
00000100
00000010
00001000
00000100
00000000
00000000
00011000
00000000
00100000
00010000
01000000
00100000
00000000
01000000
00001000
00000000
,
00000000
00000000
00010000
00000100
00001000
00000010
00000001
00000010
00000000
00000000
00000100
00000000
00000010
00010000
00000100
00010000
,
00010100
00000000
00000000
01010000
00000000
00000000
00011000
00000000
01000000
00001000
00000000
00001000
00010000
00000000
00000100
00000000
,
00001000
00000010
00000110
00000000
00001010
00000000
00001100
00000000
,
00000000
00000000
00000100
00010000
00000100
00010000
00001000
00000000
00000000
00000000
00100000
00000000
00010000
00000000
00000000
00000000
,
01000000
01000000
00100000
00000000
01000000
00100000
10000000
00010000
,
00000000
10000000
01000000
00010000
01000000
00100000
00010000
00100000
,
00001000
00011000
00010100
00001100
,
00000000
00000000
00000001
00000100
00000001
00000100
00000001
00000000
00000000
00000000
00000010
00000000
00000100
00000000
00000000
00000000
,
00000001
00000100
00001000
00010000
00100000
10000000
00010000
00000000
,
10000000
01000000
00010000
00001000
00000010
00000001
00001000
00000000
,
00000001
00000100
00001010
00000000
00001100
00000000
00010100
00000000
,
00000000
00000000
00001000
00100000
00001000
00100000
00010000
00000000
00000000
00000000
10000000
00000000
01000000
00000000
00000000
00000000
,
10000000
00010000
00100000
00000000
00001000
00010000
00000100
00001000
,
00000000
00000100
00001000
00000010
00000100
00000001
00000010
00000100
,
00000010
00000001
00000011
00000000
00000110
00000000
00001100
00000000
,
00000000
00000000
00000100
00010000
00000100
00010000
00001000
00000000
00000000
00000000
00100000
00000000
01000000
00000000
00000000
00000000
,
10000000
00100000
00010000
00001000
00000000
00001000
00100000
10000000
,
00000000
00100000
00000000
01000000
00100000
00001000
00010000
00000100
,
00001000
00000010
00000000
00000001
00000000
00000010
00000000
00001000
00000100
00010000
00000000
00011000
00000000
00000000
00000000
00000000
,
00010000
00100000
00000000
01000000
00000000
00100000
00010000
01000000
00100000
10000000
00000000
00010000
00000000
00100000
00000000
00001000
,
00020000
00032000
00003200
00000320
,
00000032
00000000
00000000
00000000
00000000
00000000
00000000
00000000
00000203
00000000
00000000
00000000
00000000
00000000
00000000
00000000
00002300
00000000
00000000
00000000
00000000
00000000
00000000
00000000
00003100
00000010
00001000
00000100
00010000
00001000
00100000
01000000
,
10000000
00010000
01000000
00000000
00100000
10000000
00010000
00000000
00100000
00000000
00001000
00010000
00000000
00010000
00000100
00000000
,
00001000
00000100
00001000
00000000
00000100
00000010
00000100
00000000
00000010
00000000
00000001
00000100
00000000
00000010
00001000
00000000
,
00000100
00000000
00010000
00001000
00000000
00001000
00100000
00000000
01000000
00000000
10000000
01000000
00000000
01000000
00100000
00000000
,
01000000
00000000
10000000
00100000
00000000
01000000
00010000
00000000
00100000
00001000
00010000
00000100
00001000
00000000
00000010
00000000
,
00000100
00000001
00000010
00000000
00000100
00000010
00000001
00000000
00000010
00000000
00000001
00000100
00000000
00000010
00001000
00000000
,
00000010
00001000
00000100
00000000
00010000
00001000
00100000
00000000
00010000
00000000
01000000
10000000
00000000
01000000
00100000
00000000
,
01000000
00000000
00100000
10000000
00000000
00100000
01000000
00000000
00010000
00000000
00100000
00001000
00000000
00010000
00000100
00000000
,
00001000
00000010
00000100
00000001
00001000
00000010
00001000
00000100
00010000
00001000
00100000
01000000
00100000
00010000
10000000
00100000
,
01000000
00000000
00000000
00000000
01010000
00000000
00000000
00110000
00000000
00000000
00101000
00000000
00000000
00000000
00011000
00000000
00000000
00000000
00000000
00000000
00011000
00000000
00000000
00001100
00000000
00000000
00000110
00000000
00000000
00000000
00001100
00000000
,
00000000
00000000
00000000
00000000
00000110
00000000
00000000
00000011
00000000
00000000
00000101
00000000
00000000
00000000
00001001
00000000
00000000
00000000
00000000
00000000
00001010
00000000
00000000
00001100
00000000
00000000
00010100
00000000
00000000
00000000
00011000
00000000
,
00000000
00000000
00000000
00000000
00011000
00000000
00000000
00110000
00000000
00000000
00011000
00000000
00000000
00000000
00001010
00000000
00000000
00000000
00000000
00000000
00001010
00000000
00000000
00001100
00000000
00000000
00011000
00000000
00000000
00000000
01010000
00000000
,
00000000
00000000
00000000
00000000
00110000
00000000
00000000
00101000
00000000
00000000
00011000
00000000
00000000
00000000
00010100
00000000
00000000
00000000
00000000
00000000
00001100
00000000
00000000
00010100
00000000
00000000
00011000
00000000
00000000
00000000
00101000
00000000
,
00100000
00000000
01000000
00000000
10000000
00000000
00100000
00000000
00000000
00000000
01000000
00001000
00000000
00000000
00010000
00000100
,
00000000
00000000
00000100
00000000
00001000
00000000
00000010
00000000
00000000
00000000
00000100
00000000
00000010
00001000
00000001
00000000
,
00000000
00000000
00001000
00000000
00000010
00000000
00001000
00000000
00000000
00000000
00000010
00010000
00000000
00000000
00000010
00000100
,
00000110
00000000
00000000
00011000
00000000
00000000
01100000
00000000
10000000
01000000
00000000
01000000
00100000
00000000
10010000
00000000
,
00101000
00001000
00011000
00000000
00001100
00000000
00011000
00000000
,
00000000
00000000
00001000
00010000
00000100
00010000
00001000
00000000
00000000
00000000
00100000
00000000
01000000
00000000
00000000
00000000
,
00100000
00001000
00010000
00000000
00000100
00001000
00000010
00000100
,
00000000
00000010
00000100
00000001
00000010
00001000
00000010
00000001
,
00000100
00000010
00001010
00000000
00000110
00000000
00010100
00000000
,
00000000
00000000
00000100
00010000
00000100
00010000
00001000
00000000
00000000
00000000
00010000
00000000
00001000
00000000
00000000
00000000
,
00010000
00000100
00000001
00000100
00001000
00000010
00000100
00000000
,
00000001
00000100
00001000
00010000
00100000
10000000
01000000
00000000
,
10000000
01000000
01100000
00000000
01010000
00000000
00110000
00000000
,
00101000
00000000
00001000
00010000
00001000
00010000
00001000
00000000
00000000
00000000
00010000
00000000
00010100
00000000
00000000
00000000
,
00001000
00000010
00000110
00000000
00000010
00000100
00000001
00000010
,
00000000
00000100
00000001
00000100
00000010
00001000
00000100
00000010
,
00000001
00001000
00001001
00000000
00001010
00000000
00010010
00000000
,
00000000
00000000
00001000
00100000
00001000
00100000
00010000
00000000
00000000
00000000
01000000
00000000
00100000
00000000
00000000
00000000
,
01000000
00010000
00100000
00001000
00000000
00010000
00000100
00001000
,
00000000
00000000
00000010
00000000
00000000
00000000
00000100
00000000
00000010
00001000
00000100
00010000
00001000
00100000
00010000
01000000
,
00010000
00000000
00000000
00000000
;

//---------------dance-single - ----------------
#NOTEDATA:;
#CHARTNAME:;
#STEPSTYPE:dance-single;
#DESCRIPTION:;
#CHARTSTYLE:;
#DIFFICULTY:Medium;
#METER:7;
#RADARVALUES:0.435699,0.542401,0.231187,0.168944,0.186728,343.000000,317.000000,26.000000,19.000000,0.000000,0.000000,0.000000,0.000000,0.000000,0.435699,0.542401,0.231187,0.168944,0.186728,343.000000,317.000000,26.000000,19.000000,0.000000,0.000000,0.000000,0.000000,0.000000;
#CREDIT:;
#NOTES:
0000
0000
0000
0000
,
0000
0000
0000
0000
,
0000
0000
0000
0000
,
0000
0000
0000
0000
,
1000
0000
0100
0000
0010
0000
0100
0000
0000
0000
0010
0001
0000
0000
0010
0100
,
0000
0000
0010
0000
0001
0000
1000
0000
0000
0000
0001
0000
1000
0010
1000
0000
,
0000
0000
1000
0001
0000
0000
0010
0000
0000
0000
0100
1000
0000
0100
0010
0000
,
0000
0000
0100
0000
1000
0000
0010
0000
0000
0000
0100
0000
0010
1000
0001
0010
,
0100
0000
0000
0010
0000
0000
0001
0000
1000
0001
0000
0100
0010
0000
1000
0000
,
0001
1100
0101
1001
,
0000
0001
0100
1000
0000
0100
0010
0000
,
0100
0001
0100
0000
0001
0000
1000
0000
,
0100
1000
0100
0000
1000
0100
0010
0001
,
1000
1001
0101
0011
,
0000
0010
0001
0100
0000
0010
1000
0000
,
0002
0000
0000
0203
0000
1300
0100
0000
,
0200
0000
0000
0320
0000
1030
0100
0000
,
1000
1100
0101
1001
,
0000
0001
0010
1000
0000
0010
0100
0000
,
0010
0001
0100
0000
0010
1000
0001
0000
,
1000
0000
0001
0000
0010
0100
0010
0001
,
1000
0101
0011
1100
,
0000
0100
0001
0100
0000
0010
0001
0000
,
0200
0000
0000
0320
0000
1030
0001
0000
,
0020
0000
0000
0032
0000
0103
0010
0000
,
1000
0001
0000
1000
0000
0001
0000
1000
0001
1000
0000
0001
0000
0000
0000
0000
,
0100
0010
0000
0100
0000
0010
0100
0010
1000
0001
0000
0010
0000
0100
0000
0010
,
0002
0203
2300
3200
,
0320
0000
2030
0000
3002
0000
1003
0001
,
0100
0000
0000
0000
0001
0000
0000
0000
0010
0000
0000
0001
0000
0000
1000
0000
,
0100
0000
0000
0000
1000
0000
0000
0000
0010
0000
0000
0100
0000
0000
0001
0000
,
1000
0000
0000
0010
0000
0000
1000
0000
0010
0000
0000
0100
0000
0000
0010
0000
,
0100
0000
0000
0001
0000
0000
0100
0000
0001
0000
0000
0000
0010
0000
0000
0000
,
0001
0000
0000
0000
0010
0000
0000
0000
0001
0000
0000
1000
0000
0000
0100
0000
,
0010
0000
0000
0000
0100
0000
0000
0000
1000
0000
0000
0010
0000
0000
0100
0000
,
0001
0000
0000
0001
0000
0000
0001
0000
1000
0000
0000
1000
0000
0000
1000
0000
,
0010
0100
0010
0000
0100
0010
0100
0000
,
1001
0000
1000
0000
0001
0010
0001
0000
,
1000
0000
0010
0000
0100
0010
0100
0000
,
0010
0000
1000
0000
0100
0010
0100
0000
,
0010
0000
0001
0000
1000
0010
1000
0000
,
0000
0000
0001
0000
0100
0000
0010
0000
0000
0000
0100
0001
0000
0000
0100
0010
,
0000
0000
0100
0000
0010
0000
1000
0000
0000
0000
0001
0000
1000
0100
1000
0000
,
0000
0000
0100
0000
1000
0000
0010
0000
0000
0000
0100
0001
0000
0000
0100
0010
,
1000
0000
0000
0001
0000
0000
0010
0000
0100
0010
0000
0010
0001
0000
1000
0000
,
0001
0110
1010
1100
,
0000
0001
0100
1000
0000
0100
0010
0000
,
0100
1000
0010
0000
0100
0010
1000
0000
,
0001
0000
1000
0000
0001
0010
0001
0100
,
0010
1010
0101
1001
,
0000
0001
0010
1000
0000
0010
0100
0000
,
0020
0000
0000
0032
0000
0103
1000
0000
,
0200
0000
0000
0320
0000
1030
0001
0000
,
1000
0011
1100
0011
,
0000
0001
0010
1000
0000
0010
0100
0000
,
0010
0001
0100
0000
0010
1000
0100
0000
,
1000
0000
0001
0000
0100
0010
1000
0100
,
0010
0110
1100
1001
,
0000
0001
0010
1000
0000
1000
0010
0000
,
0100
0010
0001
0100
0010
1000
0001
1000
,
0000
1000
0000
1000
0001
0010
0100
1000
,
1001
0000
0000
0000
;

//---------------dance-single - ----------------
#NOTEDATA:;
#CHARTNAME:;
#STEPSTYPE:dance-single;
#DESCRIPTION:;
#CHARTSTYLE:;
#DIFFICULTY:Easy;
#METER:4;
#RADARVALUES:0.231187,0.325440,0.053351,0.088918,0.000000,182.000000,176.000000,6.000000,10.000000,0.000000,0.000000,0.000000,0.000000,0.000000,0.231187,0.325440,0.053351,0.088918,0.000000,182.000000,176.000000,6.000000,10.000000,0.000000,0.000000,0.000000,0.000000,0.000000;
#CREDIT:;
#NOTES:
0000
0000
0000
0000
,
0000
0000
0000
0000
,
0000
0000
0000
0000
,
0000
0000
0000
0000
,
1000
0100
0000
0010
,
0100
1000
0000
0001
,
0100
0000
0010
0000
,
1000
0000
0001
0000
,
0110
0000
0000
0000
,
1000
0001
0100
0010
,
0000
0100
0100
0010
,
1000
0000
0001
0000
,
0010
0001
1000
0100
,
1000
0010
0100
0001
,
0000
1000
1000
0000
,
0001
0000
0000
0001
0000
0000
0001
0000
,
1000
0000
0000
1000
0000
0000
1000
0000
,
0010
0100
0010
1000
,
0001
0010
0001
0000
,
0100
0000
0001
0000
,
1000
0100
1000
0000
,
0100
1000
0010
0100
,
0000
0010
0010
0100
,
0010
0000
0000
1000
0000
0000
0001
0000
,
0010
0000
0000
0100
0000
0000
1000
0000
,
0001
0000
0000
0000
,
1000
0000
0000
0000
,
0010
0000
0000
0000
,
0100
0000
0000
0010
,
1000
0001
0020
0030
,
0001
1000
0200
0300
,
2000
3000
0002
0003
,
0200
0300
0020
0030
,
1000
0010
0200
0300
,
0010
1000
0002
0003
,
0020
0030
0002
0003
,
1000
0100
0010
0001
,
1001
0000
0010
0100
,
0010
0000
1000
0001
,
1000
0000
0100
1000
,
0010
0000
0100
0001
,
0010
0100
1000
0000
0100
0000
1000
0000
,
0001
0100
0010
0000
1000
0000
0001
0000
,
0010
0001
0100
0000
0010
0000
1000
0000
,
1001
0000
0110
0000
,
1000
0010
0100
0001
,
0000
0010
0010
0001
,
1000
0100
1000
0001
,
0100
0010
1000
0010
,
0100
0001
1000
0001
,
0000
0010
0010
0001
,
0100
0000
0000
0100
0000
0000
0100
0000
,
0010
0000
0000
0010
0000
0000
0010
0000
,
1001
0001
1000
0010
,
1000
0100
1000
0100
,
1000
0010
0100
0001
,
0010
0100
0010
0001
,
1000
0001
0001
1000
,
0001
0100
0100
0001
,
1000
0000
0000
0100
0000
0000
0001
0000
,
0100
0000
0000
1000
0000
0000
0010
0000
,
1001
0000
0000
0000
;

//---------------dance-single - ----------------
#NOTEDATA:;
#CHARTNAME:;
#STEPSTYPE:dance-single;
#DESCRIPTION:;
#CHARTSTYLE:;
#DIFFICULTY:Challenge;
#METER:10;
#RADARVALUES:0.749453,0.922081,0.782480,0.071135,0.706899,590.000000,502.000000,88.000000,8.000000,0.000000,0.000000,0.000000,0.000000,0.000000,0.749453,0.922081,0.782480,0.071135,0.706899,590.000000,502.000000,88.000000,8.000000,0.000000,0.000000,0.000000,0.000000,0.000000;
#CREDIT:;
#NOTES:
// measure 0
0000
0000
0000
0000
,  // measure 1
0000
0000
0000
0000
,  // measure 2
1000
0100
0001
0100
0000
0000
0011
0000
0001
0100
1000
0100
0000
0000
1010
0000
,  // measure 3
0000
0000
1000
0100
0001
0100
0010
0001
0000
0000
0100
0000
0010
1000
0001
1000
,  // measure 4
1001
0000
0001
0000
0010
0000
1000
0000
0000
0000
0010
0100
0000
0000
0010
0001
,  // measure 5
0000
0000
1000
0000
0100
0000
0001
0000
0000
0000
0001
0000
0001
0100
0010
0000
,  // measure 6
1000
0010
0100
0001
0000
0000
0010
0000
0100
1000
0001
1000
0000
0010
1000
0000
,  // measure 7
0000
0000
0001
0100
1000
0100
0010
1000
0000
0000
0001
0000
0001
0010
0100
0010
,  // measure 8
0011
0000
0000
1100
0000
0000
0101
0000
0001
0001
0000
1000
1000
0000
0110
0000
,  // measure 9
0001
1000
1100
0000
0011
0000
0101
0000
,  // measure 10
0001
0000
1000
0010
0100
0001
0010
0000
0000
0000
0100
0000
1001
0000
0000
0000
,  // measure 11
1000
0000
0001
0000
0010
0000
0100
0010
0100
0000
0010
0000
0001
0000
1000
0000
,  // measure 12
0000
0000
0010
0000
0100
0000
0001
1000
0001
0000
0010
0000
0100
0000
0010
0000
,  // measure 13
0001
0100
0101
0000
1010
0000
1100
0000
,  // measure 14
1000
0000
0100
0010
0001
1000
0010
0000
0000
0000
0100
0000
1001
0000
0000
0000
,  // measure 15
1000
2000
0001
3002
0100
0103
1001
0000
,  // measure 16
0001
0002
1000
2003
0010
3010
1001
0000
,  // measure 17
0001
0100
0101
0000
1010
0000
1100
0000
,  // measure 18
0100
0000
0010
0100
1000
0001
0100
0000
0000
0000
0010
0000
1001
0000
0000
0000
,  // measure 19
0001
0000
0010
0000
0100
0000
0010
0001
0010
0000
0001
0000
0100
0000
0010
0000
,  // measure 20
0000
0000
0100
0000
0010
0000
1000
0010
1000
0000
0001
0000
0010
0000
0100
0000
,  // measure 21
0010
0001
0011
0000
1100
0000
0011
0000
,  // measure 22
1000
0000
0001
1000
0100
1000
0001
0000
0000
0000
0100
0000
0010
0000
0000
0000
,  // measure 23
1000
0010
0001
0110
0000
0100
0010
1001
,  // measure 24
0000
0101
0000
0011
1000
1000
1000
0000
,  // measure 25
0101
0001
0000
0001
0000
0001
0000
0001
0001
0001
0000
0001
0000
0000
0000
0000
,  // measure 26
1000
1000
0000
1000
0000
1000
1000
1000
0010
0010
0000
0100
0000
0100
0000
0010
,  // measure 27
0100
0100
0000
0100
0000
0100
0000
0100
0100
0100
0000
0100
0000
0000
0000
0000
,  // measure 28
0010
0000
0010
0000
0000
0000
1000
0000
0000
0000
0001
0000
1000
0000
1000
0000
1000
0000
0000
0000
1000
0000
0000
0000
0001
0100
0001
0100
0001
0100
0001
0100
,  // measure 29
0001
1000
0100
1000
0001
0010
0100
0010
0001
0000
1000
0001
0000
0100
0010
0000
,  // measure 30
1000
0010
0100
0001
0010
0100
0010
0001
1000
0000
0001
0100
0000
0010
1000
0000
,  // measure 31
0100
0000
1000
0100
0000
0010
0001
0000
1000
0000
0001
0100
0000
0010
1000
0000
,  // measure 32
0001
0000
1000
0010
0000
0010
0100
0000
0010
1000
0010
1000
0010
0000
1000
0000
,  // measure 33
0001
0010
0100
0010
0001
0100
0010
1000
0001
0000
0010
0100
0000
0010
0001
0000
,  // measure 34
0010
0001
1000
0010
1000
0001
0100
0001
0010
0000
0100
0010
0000
0100
1000
0000
,  // measure 35
0001
0000
1000
0010
0000
0100
0001
0000
0010
0000
0100
1000
0000
0100
0010
0000
,  // measure 36
0100
0010
0001
0100
1000
0100
0010
1000
0001
0010
1000
0010
0001
1000
0010
0100
,  // measure 37
0001
0000
0000
0000
1100
0000
0000
0110
0000
0000
0011
0000
0000
0000
0110
0000
0000
0000
0000
0000
1100
0000
0000
0110
0000
0000
0011
0000
0000
0000
0110
0000
,  // measure 38
0000
0000
0000
0000
1100
0000
0000
0110
0000
0000
0011
0000
0000
0000
0110
0000
0000
0000
0000
0000
1001
0000
0000
0101
0000
0000
1010
0000
0000
0000
1001
0000
,  // measure 39
0000
0000
0000
0000
0101
0000
0000
1010
0000
0000
1100
0000
0000
0000
0110
0000
0000
0000
0000
0000
0101
0000
0000
1010
0000
0000
1100
0000
0000
0000
0110
0000
,  // measure 40
0000
0000
0000
0000
0101
0000
0000
1010
0000
0000
1100
0000
0000
0000
0110
0000
0000
0000
0000
0000
0011
0000
0000
0110
0000
0000
1100
0000
0000
0000
1001
0000
,  // measure 41
0000
0000
0001
0000
0100
0000
1000
0000
0000
0000
0100
0010
0000
0000
0100
0001
,  // measure 42
0000
0000
0010
0000
1000
0000
0001
0000
0000
0000
0010
0000
0100
0010
0001
0000
,  // measure 43
0000
0000
0010
0000
1000
0000
0001
0000
0000
0000
0100
0001
0000
0000
0100
0010
,  // measure 44
1001
0000
0000
1010
0000
0000
0011
0000
1000
1000
0000
0001
0001
0000
0110
0000
,  // measure 45
1001
1000
1100
0000
0011
0000
0101
0000
,  // measure 46
0001
0000
1000
0001
0010
0001
1000
0000
0000
0000
0100
0000
1100
0000
0000
0000
,  // measure 47
0100
0000
1000
0000
0010
0000
0100
0001
0100
0000
0001
0000
0010
0000
0100
0000
,  // measure 48
0010
0000
0001
0000
1000
0000
0010
1000
0010
0000
0100
0000
0001
0000
0010
0000
,  // measure 49
0100
0010
0011
0000
1010
0000
0011
0000
,  // measure 50
0001
0000
1000
0001
0010
0100
0010
0000
0000
0000
0100
0000
0110
0000
0000
0000
,  // measure 51
0100
0200
0010
0320
0001
0031
1001
0000
,  // measure 52
0001
0002
0100
0203
0010
0310
1001
0000
,  // measure 53
0001
0100
1010
0000
0101
0000
0011
0000
,  // measure 54
0100
0000
0010
0001
1000
0010
0100
0000
0000
0000
0001
0000
0011
0000
0000
0000
,  // measure 55
0010
0000
0001
0000
0100
0000
1000
0100
1000
0000
0100
0000
0010
0000
1000
0000
,  // measure 56
0001
0000
0010
0000
1000
0000
0010
0001
0010
0000
0001
0000
0100
0000
0010
0000
,  // measure 57
1000
0001
0011
0000
1100
0000
0011
0000
,  // measure 58
0001
0000
1000
0001
0010
0100
0010
0000
0000
0000
0100
0000
1100
0000
0000
0000
,  // measure 59
0100
0001
0100
0110
0000
0001
1000
1100
,  // measure 60
0000
0000
0101
0000
0000
0000
1001
0000
0001
0100
0010
1000
0001
0100
0010
1000
,  // measure 61
0001
0000
0000
0000
;

//---------------dance-single - ----------------
#NOTEDATA:;
#CHARTNAME:;
#STEPSTYPE:dance-single;
#DESCRIPTION:;
#CHARTSTYLE:;
#DIFFICULTY:Beginner;
#METER:2;
#RADARVALUES:0.115594,0.244080,0.151161,0.000000,0.000000,91.000000,74.000000,17.000000,0.000000,0.000000,0.000000,0.000000,0.000000,0.000000,0.115594,0.244080,0.151161,0.000000,0.000000,91.000000,74.000000,17.000000,0.000000,0.000000,0.000000,0.000000,0.000000,0.000000;
#CREDIT:;
#NOTES:
0000
0000
0000
0000
,
0000
0000
0000
0000
,
0000
0000
0000
0000
,
0000
0000
0000
0000
,
0010
0000
0000
0000
,
1000
0000
0001
0000
,
0100
0000
0000
0000
,
0010
0000
0000
0000
,
1001
0000
0010
0000
,
0100
0000
0000
0000
,
0001
0000
0000
0000
,
1000
0000
0000
0000
,
0010
0000
0000
0000
,
1000
0000
0000
0000
,
0100
0000
0000
0000
,
1001
0000
0000
0000
,
1001
0000
0000
0000
,
0010
0000
0000
0000
,
0100
0000
0000
0000
,
0001
0000
0000
0000
,
0010
0000
0000
0000
,
0001
0000
0000
0000
,
1000
0000
0000
0000
,
0110
0000
0000
0000
,
0110
0000
0000
0000
,
1000
0000
0000
0000
,
1000
0000
0001
0000
,
0100
0000
0000
0000
,
0010
0000
0100
0001
,
1000
0000
0000
0000
,
0001
0000
0000
0000
,
0010
0000
0010
0000
,
0100
0000
0100
0000
,
1000
0000
0000
0000
,
0001
0000
0000
0000
,
0100
0000
0100
0000
,
0010
0000
0000
0000
,
1001
0000
1000
0000
,
0001
0000
0100
0000
,
0010
0000
0100
0000
,
0001
0000
1000
0000
,
1001
0000
0010
0000
,
1001
0000
0100
0000
,
0110
0000
1000
0000
,
0110
0000
1001
0000
,
1001
0000
0000
0000
,
0001
0000
0000
0000
,
0100
0000
0000
0000
,
0001
0000
0000
0000
,
1000
0000
0000
0000
,
0100
0000
0000
0000
,
0110
0000
0000
0000
,
0110
0000
0000
0000
,
0100
0000
0000
0000
,
0010
0000
0000
0000
,
0001
0000
0000
0000
,
1000
0000
0000
0000
,
0010
0000
0000
0000
,
0100
0000
0000
0000
,
1001
0000
0000
0000
,
1001
0000
0000
0000
,
0110
0000
0000
0000
;
