#VERSION:0.83;
#TITLE:The Revolution;
#SUBTITLE:(VIP Mix);
#ARTIST:Scott Brown & M-Project;
#TITLETRANSLIT:;
#SUBTITLETRANSLIT:;
#ARTISTTRANSLIT:;
#GENRE:;
#ORIGIN:;
#CREDIT:;
#BANNER:The Revolution (VIP Mix).png;
#BACKGROUND:The Revolution (VIP Mix)-bg.png;
#PREVIEWVID:;
#JACKET:The Revolution (VIP Mix)-jacket.png;
#CDIMAGE:;
#DISCIMAGE:;
#LYRICSPATH:;
#CDTITLE:;
#MUSIC:The Revolution (VIP Mix).ogg;
#OFFSET:-0.200000;
#SAMPLESTART:77.019989;
#SAMPLELENGTH:10.971428;
#SELECTABLE:YES;
#BPMS:0.000=175.000;
#STOPS:;
#DELAYS:;
#WARPS:;
#TIMESIGNATURES:0.000=4=4;
#TICKCOUNTS:0.000=4;
#COMBOS:0.000=1;
#SPEEDS:0.000=1.000=0.000=0;
#SCROLLS:0.000=1.000;
#FAKES:;
#LABELS:0.000=Song Start;
#BGCHANGES:;
#KEYSOUNDS:;
#ATTACKS:
;

//---------------dance-single - ----------------
#NOTEDATA:;
#CHARTNAME:;
#STEPSTYPE:dance-single;
#DESCRIPTION:;
#CHARTSTYLE:;
#DIFFICULTY:Hard;
#METER:7;
#RADARVALUES:0.405004,0.604332,0.382151,0.364376,0.000000,319.000000,276.000000,43.000000,41.000000,0.000000,0.000000,0.000000,0.000000,0.000000,0.405004,0.604332,0.382151,0.364376,0.000000,319.000000,276.000000,43.000000,41.000000,0.000000,0.000000,0.000000,0.000000,0.000000;
#CREDIT:;
#NOTES:
0000
0000
0000
0000
,
0000
0000
0000
0000
,
0000
0000
0000
0000
,
0000
0000
0000
0000
,
0000
0000
0000
0000
,
0000
0000
0000
0000
,
0000
0000
0000
0000
,
0000
0000
0000
0000
,
1001
0000
0010
0000
0000
0100
0000
0001
,
0000
0010
0000
0001
0000
1000
0000
0000
,
0000
0000
0010
0000
0000
1000
0000
0001
,
0000
0100
0000
0001
0000
1000
0000
0000
,
0010
0000
1000
0000
0000
0001
0000
0100
,
0000
0010
0000
0100
0000
0001
0000
0000
,
1001
0100
1001
0010
,
0000
0000
1000
0010
0011
0000
1010
0000
,
0200
0302
2003
3020
,
0130
0001
1000
0000
0100
0010
0001
0000
,
0021
0000
0130
0000
0010
0001
0100
0000
,
0010
1000
0010
1000
0200
0000
0320
0000
,
0032
0000
2003
0000
3010
1000
0100
0010
,
0100
1000
0010
1000
0002
0000
0023
0000
,
0230
0000
0320
0000
0031
0010
0001
1000
,
0010
0100
1000
0100
0010
1000
0001
0010
,
0200
0000
0320
0000
0031
0100
0001
1000
,
0100
1000
0010
0000
0100
0001
1000
0000
,
0002
0000
2003
0000
3100
0010
0100
1000
,
0001
0100
0001
1000
0200
0000
0320
0000
,
0130
0000
2001
0000
3001
1000
0010
1000
,
0001
0010
0100
0010
0002
0000
2003
0000
,
3020
0130
0002
1003
,
0000
0000
0001
0100
1100
0000
0101
0000
,
1000
0000
0011
0000
,
0100
0000
0011
0000
,
0001
0000
1010
0000
,
0100
0000
1010
0000
,
1000
0000
0110
0000
,
0001
0000
0110
0000
,
0100
0000
1001
0000
,
0010
0000
1001
0000
,
0002
0000
1003
0001
0000
0000
0002
0000
,
1003
0001
0000
1000
0001
0100
0001
0000
,
0002
0000
1003
0001
0000
0000
0002
0000
,
1003
0001
0000
0001
0010
0100
0010
0000
,
0200
0000
1300
0100
0000
0000
0200
0000
,
0310
0001
0000
0010
0001
1000
0010
0000
,
0200
0000
0301
0100
0000
0000
0200
0000
,
0310
1000
0000
0010
1000
0001
0010
0000
,
0110
0000
0100
0000
0000
0010
0000
0001
,
0000
1000
0000
0010
0000
0100
0000
0000
,
0000
0000
0010
0000
0000
0100
0000
0001
,
0000
1000
0000
0100
0000
0010
0000
0000
,
0000
0000
0100
0000
0000
0010
0000
0001
,
0000
1000
0000
0010
0000
0100
0000
0000
,
0010
0000
0100
0000
0000
0010
0000
1000
,
0000
0000
0001
0010
1010
0000
0011
0000
,
0001
1000
0000
1001
0000
0101
0000
1001
,
0000
0101
0000
1001
0000
0001
0020
0000
,
0130
1000
0000
1100
0000
0110
0000
1100
,
0000
0110
0000
1100
0000
1000
0020
0000
,
0130
0001
0000
0011
0000
0110
0000
0011
,
0000
0110
0000
0011
0000
0010
0200
0000
,
1300
0010
0000
0110
0000
0101
0000
0110
,
0000
0101
0000
0110
0000
0010
2000
0000
,
3001
0000
1002
0000
0000
1000
0000
1000
,
0000
1000
0000
0100
0000
0103
0000
0000
,
0000
0000
2001
0000
0000
0010
0000
0010
,
0000
0001
0000
0001
0000
3010
0000
0000
,
0000
0000
1002
0000
0000
0100
0000
0100
,
0000
0010
0000
0010
0000
1003
0000
0000
,
0001
0100
0000
0010
0000
1000
0000
0100
,
0000
0010
0000
0100
0000
1000
0020
0000
,
1030
0000
0000
0000
,
0000
0000
0001
0000
0000
1000
0000
0000
,
0001
0000
0000
0000
,
0000
0000
0001
0000
0000
1000
0000
0000
,
0010
0000
0000
0000
,
0000
0000
0010
0000
0000
1000
0000
0000
,
0002
0000
0000
0000
,
0000
0000
0000
0000
,
0003
0000
0000
0000
;

//---------------dance-double - ----------------
#NOTEDATA:;
#CHARTNAME:;
#STEPSTYPE:dance-double;
#DESCRIPTION:;
#CHARTSTYLE:;
#DIFFICULTY:Challenge;
#METER:8;
#RADARVALUES:0.459597,0.604332,0.622106,0.204406,0.000000,362.000000,292.000000,70.000000,23.000000,0.000000,0.000000,0.000000,0.000000,0.000000,0.459597,0.604332,0.622106,0.204406,0.000000,362.000000,292.000000,70.000000,23.000000,0.000000,0.000000,0.000000,0.000000,0.000000;
#CREDIT:;
#NOTES:
00000000
00000000
00000000
00000000
,
00000000
00000000
00000000
00000000
,
00000000
00000000
00000000
00000000
,
00000000
00000000
00000000
00000000
,
00000000
00000000
00000000
00000000
,
00000000
00000000
00000000
00000000
,
00000000
00000000
00000000
00000000
,
00000000
00000000
00000000
00000000
,
10200000
00000000
01300000
00000000
00000000
00010000
00000000
00100000
,
00000000
00001000
00000000
00010000
00000000
00000100
00000000
00000000
,
00002100
00000000
00003001
00000000
00000000
00000100
00000000
00000010
,
00000000
00010000
00000000
00001000
00000000
01000000
00000000
00000000
,
00210000
00000000
01300000
00000000
00000000
00100000
00000000
00010000
,
00000000
00100000
00000000
00001000
00000000
00010000
00000000
00000000
,
00011000
00000100
00011000
01000000
,
00000000
00000000
00001000
00100000
02000000
00000000
13000000
00000000
,
10100000
00000000
01010000
00000000
10100000
00000000
10000000
00010000
,
00100000
00000000
00001000
00010000
00000100
00000000
00001000
00000000
,
00001100
00000000
00000011
00000000
00001000
00000100
00001000
00000001
,
00000100
00000010
00000100
00000000
00000010
00001000
00000010
00000000
,
00001100
00000000
00000011
00000000
00001100
00000000
00000100
00010000
,
00001000
00100000
01000000
00100000
00010000
01000000
00001000
00000000
,
00011000
00000000
00011000
00000000
00001000
00100000
00010000
01000000
,
00100000
10000000
00100000
01000000
00010000
00100000
10000000
10000000
,
00100000
00000000
01100000
00000000
00110000
00000000
00100000
00001000
,
00010000
00000100
00001000
00000100
00010000
00000010
00000100
00000000
,
00000110
00000000
00000101
00000000
00000010
00000100
00000010
00001000
,
00000001
00001000
00000100
00000000
00001000
00000000
00000010
00000000
,
00001010
00000000
00010100
00000000
00000100
00010000
00001000
00000000
,
00010000
00000100
00001000
00000010
00000100
00000010
00001000
00000100
,
00010000
00000000
00011000
00000000
00001000
00100000
01000000
10000000
,
00000000
00000000
00010000
00100000
00002000
00000000
00013000
00000000
,
00011000
00000000
00000000
00000000
,
00000000
00000000
00101000
00000000
00000000
00001010
00000000
00000000
,
00101000
00000000
00000000
00000000
,
00000000
00000000
00101000
00000000
00000000
00011000
00000000
00000000
,
01001000
00000000
00000000
00000000
,
00000000
00000000
01001000
00000000
00000000
00011000
00000000
00000000
,
00010100
00000000
00000000
00000000
,
00000000
00000000
00010100
00000000
00000000
00011000
00000000
00000000
,
00002000
00000000
01003000
00100000
00000000
00000000
02000000
00000000
,
03001000
00010000
00000000
00001000
00010000
00000100
00000010
00000000
,
00000002
00000000
00000103
00000010
00000000
00000000
00000020
00000000
,
00000130
00000001
00000000
00001000
00000001
00000100
00000001
00000000
,
00000200
00000000
00000310
00001000
00000000
00000000
00000200
00000000
,
00001300
00000001
00000000
00001000
00000010
00010000
00001000
00000000
,
00200000
00000000
01300000
10000000
00000000
00000000
20000000
00000000
,
31000000
00100000
00000000
01000000
10000000
00100000
01000000
00000000
,
01010000
00010000
00100000
00001000
,
00010000
00000100
00001000
00000010
,
00000100
00000001
00000010
00000100
,
00001000
00000100
00010000
00001000
,
00100000
01000000
10000000
00100000
,
01000000
00010000
00100000
00001000
,
00010000
00000100
00000000
00001000
00000000
00000010
00000000
00000100
,
00000000
00000000
00000001
00000100
00002000
00000000
00003100
00000000
,
00000010
00001000
00000000
00001010
00000000
00010100
00000000
00011000
,
00000000
01001000
00000000
01010000
00000000
01000000
00200000
00000000
,
10300000
01000000
00000000
01100000
00000000
00110000
00000000
00101000
,
00000000
00011000
00000000
00010100
00000000
00000100
00000020
00000000
,
00000130
00001000
00000000
00001100
00000000
00011000
00000000
00101000
,
00000000
00110000
00000000
01100000
00000000
10000000
00200000
00000000
,
01300000
00010000
00000000
01010000
00000000
00110000
00000000
00101000
,
00000000
00011000
00000000
00010100
00000000
00000100
00000020
00000000
,
00000031
00000100
00000110
00000000
00000000
00001010
00000000
00001100
,
00000000
00010100
00000000
00101000
00000000
00001000
02000000
00000000
,
03100000
10000000
01000000
00000000
00100000
01100000
00000000
00110000
,
00000000
00101000
00000000
00011000
00000000
00010000
00000200
00000000
,
00000310
00000001
00000101
00000000
00000001
00000101
00000000
00001010
,
00000000
00001100
00000000
00010100
00000000
00001000
02000000
00000000
,
03100000
10000000
10010000
00000000
00000000
00010000
00000000
00100000
,
00000000
00001000
00000000
00010000
00000000
00000100
00000020
00000000
,
00000031
00000000
00000000
00000000
,
00000000
00000000
00000001
00000000
00000000
00000100
00000000
00000000
,
00001000
00000000
00000000
00000000
,
00000000
00000000
00000100
00000000
00000000
00000010
00000000
00000000
,
00010000
00000000
00000000
00000000
,
00000000
00000000
00010000
00000000
00000000
00000100
00000000
00000000
,
00002000
00000000
00000000
00000000
,
00000000
00000000
00000000
00000000
,
00003000
00000000
00000000
00000000
;

//---------------dance-single - X----------------
#NOTEDATA:;
#CHARTNAME:;
#STEPSTYPE:dance-single;
#DESCRIPTION:X;
#CHARTSTYLE:;
#DIFFICULTY:Edit;
#METER:9;
#RADARVALUES:0.586557,0.729308,0.391038,0.471023,0.222181,462.000000,418.000000,44.000000,53.000000,83.000000,0.000000,0.000000,0.000000,0.000000,0.586557,0.729308,0.391038,0.471023,0.222181,462.000000,418.000000,44.000000,53.000000,83.000000,0.000000,0.000000,0.000000,0.000000;
#CREDIT:;
#OFFSET:-0.200000;
#BPMS:0.000000=87.500000
,16.000000=175.000000
,112.000000=87.500000
,144.000000=175.000000
;
#STOPS:240.000000=1.542854
,240.500000=0.342857
,241.000000=0.342857
,241.500000=1.542862
,242.000000=0.342857
,242.500000=0.342857
,243.000000=1.542862
,243.500000=0.342857
,244.000000=0.342857
;
#DELAYS:;
#WARPS:;
#TIMESIGNATURES:0.000000=4=4
;
#TICKCOUNTS:0.000000=4
;
#COMBOS:0.000000=1
;
#SPEEDS:0.000000=1.000000=0.000000=0
;
#SCROLLS:0.000000=1.000000
;
#FAKES:;
#LABELS:0.000000=Song Start
;
#NOTES:
// measure 0
0000
0000
0000
0000
,  // measure 1
0000
0000
0000
0000
,  // measure 2
0000
0000
0000
0000
,  // measure 3
0000
0000
0000
0000
,  // measure 4
1001
0001
0010
0000
0000
0100
0010
0001
,  // measure 5
0100
0010
1000
0100
0010
0100
0000
0000
,  // measure 6
1001
1000
0010
0000
0000
0100
0001
0010
,  // measure 7
0001
1000
0100
1000
0001
0010
0000
0000
,  // measure 8
1001
1000
0100
0000
0000
0010
0100
1000
,  // measure 9
0010
0100
0001
0010
0001
1000
0000
0000
,  // measure 10
1001
0010
0100
0000
1001
0100
0010
1001
,  // measure 11
0000
0000
00M1
01M0
20M0
00M0
31M0
0000
,  // measure 12
1020
0000
2030
0000
3002
0000
0023
0000
0130
0000
1000
0001
0100
0000
0001
0000
,  // measure 13
0010
0000
0100
0010
0001
0000
1000
0000
0010
0000
0100
0001
0010
0000
0001
0000
,  // measure 14
1002
0000
0023
0000
0230
0000
0320
0000
0031
0000
1000
0010
1000
0000
0001
0000
,  // measure 15
1000
0100
0001
0100
0012
0000
0203
0000
,  // measure 16
0320
0000
2030
0000
3200
0000
0320
0000
0032
0000
0003
0010
0001
0000
1000
0000
,  // measure 17
0010
0100
0001
0000
1000
0000
0001
0000
0010
0001
0100
0000
0010
0000
1000
0000
,  // measure 18
0201
0320
2030
3200
1300
2000
0001
3002
,  // measure 19
0103
0010
0100
0000
0020
0000
2030
0000
3200
0000
0302
0000
0103
0000
0100
0000
,  // measure 20
0120
0000
0230
0000
0320
0000
0230
0000
2300
0000
3000
0001
0100
0000
0001
0000
,  // measure 21
0010
0000
1000
0000
0010
0000
0100
0000
0010
0001
1000
0000
0001
0000
0100
0000
,  // measure 22
0210
0000
0320
0000
2030
0000
3002
0000
1003
0100
0010
0000
0100
0000
1000
0000
,  // measure 23
0001
0100
0010
0000
1000
0000
0001
0010
0200
0000
0000
0000
2300
0000
0000
0000
,  // measure 24
3010
0000
0020
0000
1000
0000
2030
0000
0001
0000
3001
0010
0001
0000
1000
0000
,  // measure 25
0010
0000
0100
0001
1000
0000
0100
0000
0010
0000
0100
1000
0001
0000
0100
0000
,  // measure 26
0001
0100
0001
0000
1000
0010
1000
0000
0001
0100
0010
1000
0001
0010
0100
1000
,  // measure 27
0000
0000
1M00
0M10
0M02
0M00
0M13
0000
,  // measure 28
1010
0000
0000
0000
0000
0000
0000
0000
0000
0000
1100
0000
0000
0110
0000
0000
,  // measure 29
1100
0000
0000
0000
0000
0000
0000
0000
0000
0000
0110
0000
0000
0011
0000
0000
,  // measure 30
0110
0000
0000
0000
0000
0000
0000
0000
0000
0000
0011
0000
0000
0110
0000
0000
,  // measure 31
0011
0000
0000
0000
0000
0000
0000
0000
0000
0000
0101
0000
0000
0110
0000
0000
,  // measure 32
0010
0010
1000
0010
0000
0000
1000
1000
0001
1000
0000
0001
0010
0100
0010
0000
,  // measure 33
0100
0100
1000
0010
0000
0000
0100
0100
0010
1000
0000
0001
0010
1000
0020
0000
,  // measure 34
0130
0100
0010
0001
0000
0000
0010
0010
0001
0100
0000
0010
1000
0001
0100
0000
,  // measure 35
0001
0001
1000
0010
0000
0000
1000
1000
0010
0100
0000
0001
0100
0010
1000
0000
,  // measure 36
1001
1000
0010
0000
0000
0100
0010
1000
,  // measure 37
0001
0010
0100
0010
0001
1000
0000
0000
,  // measure 38
0001
1000
1010
0000
0000
1000
0010
0100
,  // measure 39
0001
0010
0100
0010
0001
1000
0200
0000
,  // measure 40
1300
0010
0110
0000
0000
0100
0010
1000
,  // measure 41
0001
0010
0100
0010
0001
1000
0020
0000
,  // measure 42
0130
0001
0000
0011
0000
1100
0000
1001
,  // measure 43
0000
0000
00M1
01M0
10M0
00M0
01M0
0000
,  // measure 44
0001
0010
0001
0100
0001
1000
0100
0010
,  // measure 45
0100
1000
0010
0100
0001
0010
M2MM
M0MM
,  // measure 46
M31M
0001
0100
0001
1000
0100
0010
0100
,  // measure 47
1000
0010
0100
0001
0010
0001
2MMM
0MMM
,  // measure 48
31MM
0010
0100
1000
0010
0100
0001
0010
,  // measure 49
0001
1000
0010
1000
0100
1000
MM2M
MM0M
,  // measure 50
M13M
0001
0010
0001
1000
0010
0100
0001
,  // measure 51
1000
0100
0010
0100
1000
0001
MM2M
MM0M
,  // measure 52
M13M
1000
0010
0100
1000
0100
0001
0100
,  // measure 53
1000
0100
0001
0100
1000
0100
MM2M
MM0M
,  // measure 54
1M3M
0001
0100
0001
0010
1000
0010
0001
,  // measure 55
0010
1000
0010
0001
0010
1000
MM2M
MM0M
,  // measure 56
MM31
0100
0010
1000
0001
0100
0010
0100
,  // measure 57
0001
0100
0010
0100
0001
0100
MM2M
MM0M
,  // measure 58
1M3M
0001
M00M
1001
0M0M
0101
M0M0
1010
,  // measure 59
MM00
1100
0MM0
0110
0MM0
0010
0200
0000
,  // measure 60
1300
1100
0011
1100
1100
0011
1001
1001
,  // measure 61
0011
2200
0000
0000
0000
0000
0000
0000
,  // measure 62
0000
0000
0000
0000
,  // measure 63
0000
3300
0000
0000
0000
0000
0000
0000
;

//---------------dance-single - ----------------
#NOTEDATA:;
#CHARTNAME:;
#STEPSTYPE:dance-single;
#DESCRIPTION:;
#CHARTSTYLE:;
#DIFFICULTY:Medium;
#METER:5;
#RADARVALUES:0.328827,0.426587,0.195519,0.151083,0.000000,259.000000,237.000000,22.000000,17.000000,0.000000,0.000000,0.000000,0.000000,0.000000,0.328827,0.426587,0.195519,0.151083,0.000000,259.000000,237.000000,22.000000,17.000000,0.000000,0.000000,0.000000,0.000000,0.000000;
#CREDIT:;
#NOTES:
0000
0000
0000
0000
,
0000
0000
0000
0000
,
0000
0000
0000
0000
,
0000
0000
0000
0000
,
0000
0000
0000
0000
,
0000
0000
0000
0000
,
0000
0000
0000
0000
,
0000
0000
0000
0000
,
1000
0000
0010
0000
0000
0100
0000
0010
,
0000
1000
0000
0001
0000
0010
0000
0000
,
0100
0000
0010
0000
0000
0100
0000
0010
,
0000
0001
0000
1000
0000
0010
0000
0000
,
1000
0000
0001
0000
0000
0010
0000
0001
,
0000
1000
0000
0100
0000
0010
0000
0000
,
0100
0000
0010
0000
0000
0001
0000
1000
,
0000
0000
0001
0100
0010
0000
1000
0000
,
0001
1000
0010
1000
,
0001
0010
0100
0010
,
0001
1000
0100
0100
,
1000
0010
0100
0010
,
1000
0001
0010
0001
,
0100
0001
1000
0100
,
1000
0010
0100
0010
,
1000
0001
1000
0100
,
0011
1100
0001
0100
,
0010
1000
0010
0100
,
0110
1001
0001
1000
,
0010
1000
0100
0010
,
0011
1100
0100
1000
,
0001
0100
0010
1000
,
1010
0010
0110
0100
,
0000
0000
0001
0100
0010
0000
0100
0000
,
0110
0000
0000
0000
,
0000
0000
0010
0000
0000
1000
0000
0000
,
1100
0000
0000
0000
,
0000
0000
0100
0000
0000
1000
0000
0000
,
1001
0000
0000
0000
,
0000
0000
0001
0000
0000
0100
0000
0000
,
0110
0000
0000
0000
,
0000
0000
0010
0000
0000
1000
0000
0000
,
0200
0000
0000
1300
0000
0000
0200
0000
,
0000
1300
0000
0000
0100
0000
1000
0000
,
0020
0000
0000
0130
0000
0000
0020
0000
,
0000
0130
0000
0000
0010
0000
0100
0000
,
0002
0000
0000
0013
0000
0000
0002
0000
,
0000
0013
0000
0000
0001
0000
1000
0000
,
0002
0000
0000
1003
0000
0000
0002
0000
,
0000
1003
0000
0000
0001
0000
1000
0000
,
0010
0000
1000
0000
0000
0010
0000
0100
,
0000
0001
0000
1000
0000
0100
0000
0000
,
0000
0000
1000
0000
0000
0001
0000
0010
,
0000
0001
0000
0100
0000
0010
0000
0000
,
0000
0000
0100
0000
0000
0010
0000
1000
,
0000
0100
0000
0010
0000
0100
0000
0000
,
0000
0000
0010
0000
0000
0001
0000
1000
,
0000
0000
0001
1000
0100
0000
1000
0000
,
0001
1000
0000
0001
0000
0010
0000
0001
,
0000
0100
0000
0010
0000
1000
0020
0000
,
0130
0010
0000
1000
0000
0001
0000
0010
,
0000
0001
0000
1000
0000
0100
2000
0000
,
3001
1000
0000
0001
0000
0010
0000
0001
,
0000
0100
0000
0010
0000
1000
0020
0000
,
0130
0001
0000
0010
0000
0100
0000
0010
,
0000
0001
0000
1000
0000
0001
0200
0000
,
0301
0010
0100
0000
0000
0010
0000
0001
,
0000
1000
0000
0010
0000
0100
0002
0000
,
0013
0001
1000
0000
0000
0001
0000
1000
,
0000
0010
0000
0100
0000
0010
2000
0000
,
3010
1000
0001
0000
0000
1000
0000
0001
,
0000
0010
0000
0100
0000
0010
0002
0000
,
1003
0001
0100
0000
0000
0001
0000
0010
,
0000
0001
0000
1000
0000
0010
0100
0000
,
1001
0000
0000
0000
,
0000
0000
0101
0000
0000
1001
0000
0000
,
0101
0000
0000
0000
,
0000
0000
1100
0000
0000
1001
0000
0000
,
1100
0000
0000
0000
,
0000
0000
1100
0000
0000
0110
0000
0000
,
0022
0000
0000
0000
,
0000
0000
0000
0000
,
0033
0000
0000
0000
;

//---------------dance-single - ----------------
#NOTEDATA:;
#CHARTNAME:;
#STEPSTYPE:dance-single;
#DESCRIPTION:;
#CHARTSTYLE:;
#DIFFICULTY:Easy;
#METER:3;
#RADARVALUES:0.189171,0.284391,0.079985,0.008887,0.000000,149.000000,140.000000,9.000000,1.000000,0.000000,0.000000,0.000000,0.000000,0.000000,0.189171,0.284391,0.079985,0.008887,0.000000,149.000000,140.000000,9.000000,1.000000,0.000000,0.000000,0.000000,0.000000,0.000000;
#CREDIT:;
#NOTES:
0000
0000
0000
0000
,
0000
0000
0000
0000
,
0000
0000
0000
0000
,
0000
0000
0000
0000
,
0000
0000
0000
0000
,
0000
0000
0000
0000
,
0000
0000
0000
0000
,
0000
0000
0000
0000
,
1000
0000
0000
0000
,
0000
0001
0000
0000
,
1000
0000
0000
0000
,
0000
0001
0000
0000
,
0010
0000
0000
0000
,
0000
0001
0000
0000
,
0100
0000
0000
0000
,
0110
0000
0000
0000
,
0010
0000
1000
0000
,
0001
0010
0001
0000
,
1000
0000
0010
0000
,
0100
0001
0100
0001
,
0100
0000
0010
0000
,
1000
0001
1000
0000
,
0100
0000
1000
0000
,
0010
0000
0100
0010
,
1000
0001
1000
0000
,
0100
0000
1000
0000
,
0010
0100
0010
0000
,
0100
0000
0001
0000
,
0010
0100
0010
0000
,
0100
0000
0010
0000
,
0001
1000
0001
1000
,
0000
0001
0100
0010
,
1000
0000
0000
0000
,
0000
0000
0001
0000
0000
0010
0000
0000
,
0100
0000
0000
0000
,
0000
0000
0010
0000
0000
0100
0000
0000
,
1000
0000
0000
0000
,
0000
0000
0100
0000
0000
1000
0000
0000
,
0010
0000
0000
0000
,
0000
0000
1000
0000
0000
0010
0000
0000
,
0100
0000
0000
0100
,
0000
0000
0100
0010
,
1000
0000
0000
1000
,
0000
0000
1000
0001
,
0010
0000
0000
0010
,
0000
0000
0010
0001
,
0100
0000
0000
0100
,
0000
0000
0100
0000
,
1001
0000
0000
0000
,
0000
0000
0000
0000
,
0110
0000
0000
0000
,
0000
0000
0000
0000
,
1001
0000
0000
0000
,
0110
0000
0000
0000
,
1001
0000
0110
0000
,
1001
0000
0000
0000
,
1000
0000
0001
0000
,
0100
0000
0001
0010
,
0100
0000
0010
0000
,
0001
0000
1000
0010
,
0100
0000
0010
0000
,
1000
0000
0001
0010
,
0100
0000
0010
0000
,
0001
0000
1000
0001
,
0100
0001
0000
0100
,
0010
1000
0010
0100
,
0000
0010
0000
1000
,
0001
0010
0100
0010
,
0000
0100
0000
0010
,
0001
1000
0010
0100
,
0000
0010
0000
0100
,
0010
1000
0001
0010
,
1001
0000
0000
0000
,
0000
0000
0001
0000
0000
0001
0000
0000
,
0001
0000
0000
0000
,
0000
0000
1000
0000
0000
1000
0000
0000
,
1000
0000
0000
0000
,
0000
0000
0010
0000
0000
0010
0000
0000
,
0020
0000
0000
0000
,
0000
0000
0000
0000
,
0030
0000
0000
0000
;

//---------------dance-single - ----------------
#NOTEDATA:;
#CHARTNAME:;
#STEPSTYPE:dance-single;
#DESCRIPTION:;
#CHARTSTYLE:;
#DIFFICULTY:Beginner;
#METER:2;
#RADARVALUES:0.097760,0.207961,0.035549,0.000000,0.000000,77.000000,73.000000,4.000000,0.000000,0.000000,0.000000,0.000000,0.000000,0.000000,0.097760,0.207961,0.035549,0.000000,0.000000,77.000000,73.000000,4.000000,0.000000,0.000000,0.000000,0.000000,0.000000,0.000000;
#CREDIT:;
#NOTES:
0000
0000
0000
0000
,
0000
0000
0000
0000
,
0000
0000
0000
0000
,
0000
0000
0000
0000
,
0000
0000
0000
0000
,
0000
0000
0000
0000
,
0000
0000
0000
0000
,
0000
0000
0000
0000
,
1000
0000
0000
0000
,
0000
0000
0000
0000
,
1000
0000
0000
0000
,
0000
0000
0000
0000
,
0001
0000
0000
0000
,
0000
0000
0000
0000
,
0001
0000
0000
0000
,
0000
0010
0010
0010
,
1001
0000
0000
0000
,
1000
0000
0000
0000
,
0100
0000
0000
0000
,
1000
0000
0000
0000
,
0010
0000
0000
0000
,
0100
0000
0000
0000
,
0001
0000
0000
0000
,
1000
0000
0001
0000
,
1000
0000
0000
0000
,
0010
0000
0000
0000
,
0100
0000
0000
0000
,
0001
0000
0001
0000
,
0001
0000
0000
0000
,
1000
0000
0000
0000
,
0010
0000
0100
0000
,
0000
0001
0001
0001
,
1000
0000
0000
0000
,
0000
0010
0000
0000
,
0000
0000
0000
0000
,
0000
0010
0000
0000
,
0000
0000
0000
0000
,
0000
0100
0000
0000
,
0000
0000
0000
0000
,
0000
0100
0000
0000
,
0001
0000
0000
0001
,
0000
0000
0001
0000
,
1000
0000
0000
1000
,
0000
0000
1000
0000
,
0010
0000
0000
0010
,
0000
0000
0010
0000
,
0100
0000
0000
0100
,
0000
0000
0100
0000
,
1001
0000
0000
0000
,
0000
0000
0000
0000
,
0010
0000
0000
0000
,
0000
0000
0000
0000
,
0100
0000
0000
0000
,
0000
0000
0000
0000
,
0001
0000
0000
0000
,
0000
1000
1000
1000
,
0110
0000
0000
0000
,
0010
0000
0000
0000
,
1000
0000
0000
0000
,
0100
0000
0000
0000
,
1000
0000
0000
0000
,
0001
0000
0000
0000
,
0100
0000
0000
0000
,
0010
0000
0000
0000
,
0100
0000
0000
0000
,
0010
0000
0000
0000
,
1000
0000
0000
0000
,
0001
0000
0000
0000
,
0010
0000
0000
0000
,
0001
0000
0000
0000
,
0100
0000
0000
0000
,
0010
0000
0000
0000
,
1001
0000
0000
0000
,
0000
0010
0000
0000
,
0000
0000
0000
0000
,
0000
0010
0000
0000
,
0000
0000
0000
0000
,
0000
0100
0000
0000
,
0010
0000
0000
0000
;
