#VERSION:0.83;
#TITLE:The Rebellion of Sequencer;
#SUBTITLE:;
#ARTIST:DJ Myosuke;
#TITLETRANSLIT:;
#SUBTITLETRANSLIT:;
#ARTISTTRANSLIT:;
#GENRE:;
#ORIGIN:;
#CREDIT:;
#BANNER:banner.png;
#BACKGROUND:background.png;
#PREVIEWVID:;
#JACKET:jacket.png;
#CDIMAGE:;
#DISCIMAGE:;
#LYRICSPATH:;
#CDTITLE:;
#MUSIC:The Rebellion of Sequencer.mp3;
#OFFSET:-0.664000;
#SAMPLESTART:77.464005;
#SAMPLELENGTH:14.400002;
#SELECTABLE:YES;
#BPMS:0.000=150.000,
55.500=600.000,
56.500=300.000,
129.000=150.000,
226.500=600.000,
227.500=300.000,
256.000=150.000,
258.000=300.000,
290.000=150.000,
306.000=300.000;
#STOPS:131.000=0.400,
162.500=0.400;
#DELAYS:;
#WARPS:;
#TIMESIGNATURES:0.000=4=4;
#TICKCOUNTS:0.000=4;
#COMBOS:0.000=1;
#SPEEDS:0.000=1.000=0.000=0;
#SCROLLS:0.000=1.000;
#FAKES:;
#LABELS:0.000=Song Start;
#BGCHANGES:;
#KEYSOUNDS:;
#ATTACKS:
;

//---------------dance-single - ----------------
#NOTEDATA:;
#CHARTNAME:;
#STEPSTYPE:dance-single;
#DESCRIPTION:;
#CHARTSTYLE:;
#DIFFICULTY:Hard;
#METER:9;
#RADARVALUES:0.589345,0.843019,0.242144,0.053810,0.197302,460.000000,433.000000,27.000000,6.000000,12.000000,0.000000,2.000000,0.000000,0.000000,0.589345,0.843019,0.242144,0.053810,0.197302,460.000000,433.000000,27.000000,6.000000,12.000000,0.000000,2.000000,0.000000,0.000000;
#CREDIT:;
#DISPLAYBPM:150.000000:300.000000;
#NOTES:
// measure 0
0000
0000
0000
0000
,  // measure 1
0000
0000
0000
0000
,  // measure 2
0100
0000
0010
1000
0000
0000
0001
0000
1000
0100
0000
0010
0001
0000
0100
0000
,  // measure 3
0000
0000
0001
0000
1000
0100
0000
1000
0000
0010
0100
0000
0001
0000
1000
0000
,  // measure 4
0100
0000
1000
0010
0000
0000
0100
0000
0001
0010
0000
0010
0001
0000
1000
0000
,  // measure 5
0001
1000
0010
1000
,  // measure 6
0001
0000
0001
0000
0001
1000
0000
0000
0000
0000
0000
0000
0001
1000
0000
0000
,  // measure 7
0000
0000
0020
0000
0000
0030
1000
0001
0000
0001
1000
0000
0010
0000
0100
0000
,  // measure 8
1001
0000
0000
0000
0001
1000
0000
0000
0000
0001
0000
0000
1000
0000
0010
0000
,  // measure 9
0100
0001
0000
0010
0100
0000
1000
0010
0000
0100
0001
0000
1000
0000
0001
0000
,  // measure 10
0200
0000
0000
0000
,  // measure 11
0000
0000
0000
0000
0000
0000
0000
0300
,  // measure 12
0110
0000
0000
0110
0000
0000
0000
0000
1010
0000
0000
1010
0000
0000
0000
0000
,  // measure 13
0101
0000
0000
0101
0000
0000
0000
0000
0001
0000
0010
0000
0100
0000
1001
0000
,  // measure 14
0000
1000
0010
0100
,  // measure 15
0001
0010
0001
0100
,  // measure 16
0010
1000
0001
0010
,  // measure 17
0100
0000
0010
0000
0001
1000
0001
1000
,  // measure 18
0000
1000
0001
0000
0010
0000
0001
0000
,  // measure 19
0100
0010
1000
0001
,  // measure 20
0010
0100
0010
0001
,  // measure 21
1000
0010
0000
0000
,  // measure 22
0000
0000
0100
0000
0000
0100
0000
0000
,  // measure 23
0010
0100
0001
0000
0000
1000
0000
0000
,  // measure 24
0001
0010
0100
0000
0000
0010
0000
0000
,  // measure 25
0001
0100
0010
0000
0000
1000
0000
0000
,  // measure 26
0001
1000
0010
0000
0000
0100
0000
0000
,  // measure 27
0010
1000
0100
0000
0000
0010
0000
0000
,  // measure 28
0100
1000
0010
0000
0000
0100
0000
0000
,  // measure 29
0010
1000
0001
0000
0000
1000
0000
0000
,  // measure 30
0001
0100
0010
0000
0010
0000
0100
0000
,  // measure 31
0100
0000
0001
0000
0001
0000
1000
0100
,  // measure 32
1000
0100
2000
0000
0000
0000
3000
0000
,  // measure 33
0001
0000
0000
0010
0000
0000
0001
0000
0200
0000
0000
0000
0300
0000
0110
0000
,  // measure 34
0000
0000
1010
0000
0000
0000
1000
0010
0000
0010
0100
0000
0001
0000
1000
0000
,  // measure 35
0000
0000
1100
0000
0000
0011
0000
0000
0001
0000
0100
0000
0001
0000
1000
0000
,  // measure 36
0000
0000
1001
0000
0000
0101
0000
0000
0001
0000
0010
0000
0000
0000
0000
0000
,  // measure 37
0100
0000
0000
0010
0000
0000
0001
0000
1000
0000
0100
0000
0001
0000
0110
0000
,  // measure 38
0000
0000
0011
0000
0000
0000
0000
0000
1000
0010
0000
0010
0100
0000
0001
0000
,  // measure 39
0000
0000
1100
0000
0000
1001
0000
0000
0001
0100
0010
1000
0001
0100
0010
1000
,  // measure 40
0000
0000
0001
0000
0000
1000
0000
0000
0100
0000
1000
0000
0001
0000
0000
0000
,  // measure 41
0100
0000
0010
0100
0001
0000
1000
0000
,  // measure 42
0100
0000
0010
0100
1000
0000
0001
0000
,  // measure 43
1000
0000
0000
0000
0010
0000
1000
0000
0100
0000
0000
0000
1000
0000
0001
0100
,  // measure 44
0000
0010
0000
0100
0000
0010
0000
0100
0002
0000
0000
0000
0013
0000
0001
0000
,  // measure 45
0100
0000
1000
0100
0001
0000
0010
0100
,  // measure 46
1000
0000
1000
0010
0001
0000
0010
0001
,  // measure 47
0100
0000
0010
1000
0001
0000
1000
0100
,  // measure 48
0001
0100
0010
0001
0010
1000
1001
0000
,  // measure 49
0000
0000
0000
0000
,  // measure 50
0000
0000
0000
0000
,  // measure 51
0000
0000
0000
0000
,  // measure 52
0000
0000
0000
0000
0000
0000
0000
0000
0001
0100
0001
0100
0001
0000
0000
0000
,  // measure 53
1010
1100
0011
0110
,  // measure 54
1001
0000
1010
0000
0101
0000
0001
0100
,  // measure 55
1000
0100
0010
1000
0001
0010
0100
0010
,  // measure 56
0001
1000
0001
0010
0100
1001
0000
0000
,  // measure 57
1000
0010
0100
0001
,  // measure 58
0010
0000
0100
0000
0010
0000
0001
1000
,  // measure 59
0001
0010
0001
0100
,  // measure 60
0010
0000
1000
0000
0001
1000
0100
1000
,  // measure 61
0001
0010
0001
0100
,  // measure 62
0010
0000
1000
0000
0100
0000
0010
0100
,  // measure 63
0010
0001
0100
0010
1000
0001
0010
0100
,  // measure 64
1000
0000
0001
0100
,  // measure 65
1000
0100
0010
1000
,  // measure 66
0001
0000
1000
0010
0100
0000
0001
0000
,  // measure 67
0010
0000
0100
0000
0010
0001
0100
0010
,  // measure 68
0000
1000
0100
0000
1000
0000
0010
0000
,  // measure 69
0100
0001
0010
0001
,  // measure 70
1000
0000
0100
0000
0000
1000
0100
0001
,  // measure 71
0100
0010
0000
0001
0010
1000
0010
0100
,  // measure 72
0000
0010
0001
0100
0010
0000
0000
0000
,  // measure 73
0000
0000
0000
0000
,  // measure 74
0000
0000
MMMM
0000
,  // measure 75
MMMM
0000
MMMM
0000
,  // measure 76
0400
0040
0000
0000
0000
0000
0000
0330
1000
0000
0001
0000
0000
0000
0100
0000
,  // measure 77
0000
0010
1000
0001
0000
0010
0000
0001
,  // measure 78
0100
0000
0010
0000
1000
0001
0000
0100
,  // measure 79
0000
0010
1000
0001
0000
0010
0000
0100
,  // measure 80
0010
0000
0001
0000
1000
0010
0000
0100
,  // measure 81
0000
0001
0010
0100
0000
0010
0000
0001
,  // measure 82
1000
0000
0100
0000
1000
0010
0000
0100
,  // measure 83
0000
0010
1000
0001
0000
0010
0000
0100
,  // measure 84
0010
0000
0001
0000
1000
0100
0000
0001
,  // measure 85
0000
0100
0010
0001
0000
0010
0000
0100
,  // measure 86
1000
0000
0010
0000
0100
1000
0000
0100
,  // measure 87
0000
0010
1000
0001
0000
0010
0000
0100
,  // measure 88
0010
0000
0001
0000
0100
1000
0000
0100
,  // measure 89
0000
0010
1000
0001
0000
0010
0000
0100
,  // measure 90
0010
0000
0001
0000
1000
0000
0001
0100
,  // measure 91
0010
0000
0100
0010
1000
0000
0001
0010
,  // measure 92
0100
1000
0002
0000
0000
0000
0000
0000
,  // measure 93
0000
0000
0000
0000
,  // measure 94
0003
0000
0000
0000
;

//---------------dance-single - X----------------
#NOTEDATA:;
#CHARTNAME:;
#STEPSTYPE:dance-single;
#DESCRIPTION:X;
#CHARTSTYLE:;
#DIFFICULTY:Edit;
#METER:12;
#RADARVALUES:0.817395,1.320132,0.439446,0.116588,0.645717,638.000000,589.000000,49.000000,13.000000,102.000000,0.000000,0.000000,0.000000,0.000000,0.817395,1.320132,0.439446,0.116588,0.645717,638.000000,589.000000,49.000000,13.000000,102.000000,0.000000,0.000000,0.000000,0.000000;
#CREDIT:;
#OFFSET:-0.664000;
#BPMS:0.000000=150.000000
,55.500000=600.000000
,56.500000=300.000000
,126.000000=150.000000
,219.500000=600.000000
,220.500000=300.000000
,249.000000=150.000000
,251.000000=300.000000
,281.500000=150.000000
,297.000000=300.000000
;
#STOPS:85.000000=0.600002
,128.000000=0.400000
,132.500000=0.200001
,136.000000=0.199997
,139.500000=0.199997
,142.000000=0.200001
,146.500000=0.200001
,147.000000=0.200001
,149.000000=0.400002
,155.500000=0.400000
,274.500000=0.100006
,277.000000=0.099998
,279.500000=0.099998
,281.500000=0.199997
;
#DELAYS:;
#WARPS:;
#TIMESIGNATURES:0.000000=4=4
;
#TICKCOUNTS:0.000000=4
;
#COMBOS:0.000000=1
;
#SPEEDS:0.000000=1.000000=0.000000=0
;
#SCROLLS:0.000000=1.000000
;
#FAKES:;
#LABELS:0.000000=Song Start
;
#NOTES:
// measure 0
0000
0000
0000
0000
,  // measure 1
0000
0000
0000
0000
,  // measure 2
1000
0000
0001
0100
0000
0100
0010
0000
0100
0010
0000
0100
0010
0000
1000
0000
,  // measure 3
0100
1000
0100
0000
1000
0001
0000
0100
0000
0010
1000
0000
0010
0100
0001
0000
,  // measure 4
1000
0000
0001
0010
0000
0001
0100
0000
0001
0100
0000
0001
0100
0000
0010
0000
,  // measure 5
1000
0000
0000
0001
1000
0010
0000
0010
1000
0001
0000
0010
0100
0000
0000
0000
,  // measure 6
0010
0000
0010
0000
0010
0001
0000
0000
0000
0000
0000
0000
0010
0100
0000
0000
,  // measure 7
0000
0000
0020
0000
0000
0000
0031
0100
0000
0001
1000
0000
0001
0000
0010
0000
,  // measure 8
MMMM
0000
0000
0000
1000
0010
1000
0000
0000
0001
0100
0000
0001
0000
0010
0000
,  // measure 9
0001
0100
0000
0010
1000
0000
0001
0000
0010
0100
0000
0010
0001
0000
1000
0000
,  // measure 10
0001
0000
1000
0010
0000
0100
0001
0010
0100
0000
0010
0001
0000
1000
0010
0100
,  // measure 11
0001
0000
0010
0100
0000
0010
0001
0100
0010
0000
0100
0010
0000
0010
1000
0001
,  // measure 12
1001
0000
0000
0110
0000
0000
0001
0100
0101
0000
0000
1010
0000
0000
1000
0100
,  // measure 13
1100
0000
0000
0011
0000
0000
1000
0001
1000
0000
0100
0000
0001
0000
0101
0000
,  // measure 14
0000
1000
1000
0001
,  // measure 15
0001
0100
0010
0000
0100
0000
0100
0000
,  // measure 16
0010
1000
0100
0000
0010
0000
0010
0000
,  // measure 17
0100
0010
0001
0000
1000
0010
0100
0001
,  // measure 18
0000
0100
0010
0000
0010
0000
1000
0000
,  // measure 19
0001
0010
0100
0000
0010
0000
0010
0000
,  // measure 20
0001
1000
0100
0000
0100
1000
0001
0100
,  // measure 21
0001
0010
0100
0000
0021
0000
0000
0130
,  // measure 22
0000
0000
0100
1000
1020
0000
0000
0130
,  // measure 23
0000
0000
0010
1000
1002
0000
0000
0013
,  // measure 24
0000
0000
0100
0010
0210
0000
0000
1300
,  // measure 25
0000
0000
1000
0001
0102
0000
0000
0013
,  // measure 26
0000
0000
0010
0001
2001
0000
0000
3100
,  // measure 27
0000
1000
0000
0100
1000
0010
0100
0001
,  // measure 28
1000
0000
0000
0010
0000
0000
0100
0000
0000
0001
0000
0000
1000
0000
0001
0000
1000
0000
0001
0000
1000
0000
0001
0000
,  // measure 29
1000
0001
1000
0001
1000
0001
1000
0000
0000
2000
0000
0000
,  // measure 30
0001
3002
0100
0203
,  // measure 31
0310
0100
0010
0100
0002
0000
0000
0000
,  // measure 32
0013
0000
0000
0000
0000
0000
0000
0000
0000
0000
0000
0000
1100
0000
0000
0000
0000
0000
0000
0000
0000
0011
0000
0000
0000
0000
0000
0000
0000
0000
0001
0000
0000
0000
0000
0000
1000
0000
0001
0000
0100
0000
0001
0000
0010
0000
0001
0000
,  // measure 33
1000
0000
1001
0000
0101
0000
0000
0000
0001
0100
0000
0100
0010
0000
1000
0000
,  // measure 34
1000
0000
0000
0000
0000
0000
1001
0000
0000
0000
0000
0000
0000
0000
0000
0101
0000
0000
0000
0000
0000
0000
0000
0000
0001
0000
0010
0000
0001
0000
0100
0000
0010
0000
1000
0000
0100
0000
0000
0000
0000
0000
0100
0000
0000
0000
0000
0000
,  // measure 35
0010
0000
0000
0011
0000
0000
0001
0000
0100
0000
0000
0000
0110
0000
0000
0110
,  // measure 36
0000
0000
0000
0000
0000
0000
0010
0000
0000
0000
0000
0000
1000
0000
0010
0000
0100
0000
0001
0000
0010
0000
0001
0000
1000
0000
0000
0000
0000
0000
1001
0000
0000
0000
0000
0000
0101
0000
0000
0000
0000
0000
0001
0000
0000
0100
0000
0000
,  // measure 37
0000
0100
0001
0000
1000
0000
1001
0000
0000
0110
0000
0000
0001
0001
1000
0010
,  // measure 38
0100
0100
0010
1000
0000
0000
1010
0000
0000
0101
0000
0010
0000
0100
0000
0000
,  // measure 39
0010
0000
0001
0100
0000
0001
0100
0000
0010
0000
1000
0010
0000
1000
0010
0000
,  // measure 40
1000
0000
0001
0010
0000
0001
0010
0000
0001
0000
1000
0010
0000
1000
0010
0000
,  // measure 41
0100
0000
0001
0100
0000
0100
0010
0000
0100
0000
0001
0100
0000
0100
0010
0000
,  // measure 42
1000
0100
M000
00M1
0000
M100
0000
001M
0000
M001
0000
01M0
0020
0000
0000
0000
,  // measure 43
1030
0001
1000
0001
0010
0100
1000
0001
,  // measure 44
0100
0010
0100
0010
0100
0001
1000
0100
,  // measure 45
0010
0100
0010
0100
0010
0100
0010
0100
0010
1000
0010
0001
0100
0010
1000
0001
,  // measure 46
0010
0100
0010
0001
1000
0001
0000
1000
0100
0010
0100
1000
0000
0001
1000
0010
,  // measure 47
0110
0000
0000
0000
,  // measure 48
0000
0000
0000
0000
,  // measure 49
0000
0000
0000
0000
,  // measure 50
0000
0000
0000
0000
0000
0000
0000
0000
0000
0000
0000
0000
0000
0000
0000
0000
0000
0000
1000
0001
1000
0001
1000
0001
,  // measure 51
1000
MMMM
0110
MMMM
1001
MMMM
0110
MMMM
,  // measure 52
1010
MMMM
0101
MMMM
1010
MMMM
0101
MMMM
,  // measure 53
0001
0010
0001
0100
0010
1000
0100
0010
,  // measure 54
0001
1000
0100
1000
0010
0100
0001
0010
0001
0000
0010
0000
0100
0000
1001
0000
,  // measure 55
0000
0000
0001
1000
0001
0010
0001
1000
,  // measure 56
0000
0001
1000
0010
1000
0001
0000
1000
,  // measure 57
0001
0100
0000
0010
1000
0100
0010
0100
,  // measure 58
0000
0010
0001
0100
0010
0100
0000
0010
,  // measure 59
1000
0001
0000
1000
0100
1000
0001
0100
,  // measure 60
0000
0001
0100
0010
1000
0100
0000
0010
,  // measure 61
0100
0000
0000
1000
0000
0000
0001
0000
1000
0000
0001
0000
1000
0000
0000
0100
0000
0000
0010
0000
0000
0100
0000
0000
,  // measure 62
1000
0000
0001
0000
0100
0010
1000
0001
0000
0010
0100
1000
0001
0000
0010
0000
,  // measure 63
0001
0100
0010
1000
0000
0010
0100
0001
,  // measure 64
0010
0100
0000
0010
0001
1000
0000
0001
,  // measure 65
0100
0001
1000
0100
0000
0010
0100
1000
,  // measure 66
0010
0100
0000
0010
1000
0000
0100
1000
,  // measure 67
0001
0100
0010
1000
0000
0001
1000
0100
,  // measure 68
0010
0100
0000
0010
0001
0100
0010
1000
,  // measure 69
0100
0001
0100
0010
0001
0100
1000
0100
,  // measure 70
0010
1000
0001
0010
0000
0000
0000
0000
,  // measure 71
0000
0000
0000
0000
,  // measure 72
0000
0000
0000
0000
MMMM
MMMM
MMMM
MMMM
MMMM
0000
0000
0000
MMMM
MMMM
MMMM
MMMM
,  // measure 73
MMMM
0000
0000
0000
0000
0000
0000
0000
0000
0000
0000
0000
MMMM
0000
0000
MMMM
0000
0000
MMMM
0000
0000
MMMM
0000
0000
MMMM
0000
0000
0000
0000
0000
0000
0000
0000
0000
0000
0000
1000
0000
0100
0000
1000
0000
0100
0000
1000
0000
0100
0000
,  // measure 74
1000
0010
1000
0010
1000
0010
0100
0000
0000
0010
0000
0000
0000
0000
0000
1000
0000
0000
0000
0000
0000
0001
0000
0000
,  // measure 75
0010
0100
0000
0010
0000
0001
0100
0000
,  // measure 76
0010
0000
0100
0010
0000
1000
0000
0001
,  // measure 77
0010
0100
0000
0010
0000
0001
0100
0000
,  // measure 78
0010
0000
1000
0100
0000
0001
0000
0100
,  // measure 79
0010
0001
0000
0010
0000
0001
0100
0000
,  // measure 80
1000
0000
0100
0010
0000
1000
0000
0001
,  // measure 81
0010
1000
0000
0010
0000
0100
0010
0000
,  // measure 82
0001
0000
1000
0001
0000
0101
0000
0001
,  // measure 83
0100
0010
0000
1010
0000
1000
0010
0000
,  // measure 84
0110
0000
0100
0010
0000
1010
0000
1000
,  // measure 85
0001
0010
0000
0110
0000
0010
0001
0000
,  // measure 86
1001
0000
0001
0100
0000
1010
0000
1000
,  // measure 87
0100
0001
0000
0101
0000
0001
0100
0000
,  // measure 88
0110
0000
0010
0001
0000
0011
0000
0001
,  // measure 89
0100
1000
0000
1100
0000
1000
0100
0000
,  // measure 90
0120
0000
0000
0000
,  // measure 91
0000
0000
0000
0000
,  // measure 92
0030
0000
0000
0000
;

//---------------dance-double - ----------------
#NOTEDATA:;
#CHARTNAME:;
#STEPSTYPE:dance-double;
#DESCRIPTION:;
#CHARTSTYLE:;
#DIFFICULTY:Challenge;
#METER:9;
#RADARVALUES:0.623937,0.969472,0.152461,0.143493,0.322858,487.000000,470.000000,17.000000,16.000000,24.000000,0.000000,2.000000,0.000000,0.000000,0.623937,0.969472,0.152461,0.143493,0.322858,487.000000,470.000000,17.000000,16.000000,24.000000,0.000000,2.000000,0.000000,0.000000;
#CREDIT:;
#NOTES:
00000000
00000000
00000000
00000000
,
00000000
00000000
00000000
00000000
,
10000000
00000000
00010000
01000000
00000000
00010000
00100000
00000000
00001000
00010000
00000000
00000100
00001000
00000000
00000100
00000000
,
00010000
00001000
00010000
00000000
00001000
00010000
00000000
00000100
00000000
00010000
00001000
00000000
00100000
00010000
00100000
00000000
,
01000000
00000000
10000000
00100000
00000000
01000000
00010000
00000000
00100000
01000000
00000000
00100000
00010000
00000000
10000000
00000000
,
00010000
00000000
00000000
01000000
00100000
10000000
00000000
00010000
00100000
00001000
00000000
00010000
00000100
00000000
00000000
00000000
,
00010000
00000000
00010000
00000000
00001000
01000000
00000000
00000000
00000000
00000000
00000000
00000000
00100000
01000000
00000000
00000000
,
00000000
00000000
00020000
00000000
00000000
00000000
00130000
01000000
00000000
01000000
10000000
00000000
00010000
00000000
01000000
00000000
,
00000000
00000000
00000000
00000000
00100000
01000000
00000000
00000000
00100000
00000000
00000000
00000000
01000000
00000000
00010000
00000000
,
00100000
00001000
00000000
00010000
00000100
00000000
00001000
00000000
00000010
00000100
00000000
00000100
00000001
00000000
00001000
00000000
,
00001100
00000000
00000000
00001000
00000000
00000000
00000010
00000000
00000100
00000000
00000000
00000001
00000000
00000000
00001000
00000000
,
00000100
00000000
00000000
00001000
00000000
00000000
00000010
00000000
00000100
00000000
00000000
00000001
00001000
00000001
00001000
00000001
,
00001000
00000000
00000000
00001010
00000000
00000000
00000100
00000000
00010000
00000000
00000000
00011000
00000000
00000000
00001000
00000000
,
00010000
00000000
00000000
00110000
00000000
00000000
00010000
00000000
01000000
00000000
10000000
00000000
01000000
00000000
00010000
00000000
,
00000000
00100000
01000000
00100000
,
00010000
01000000
00010000
00100000
,
00001000
00010000
00001000
00000000
00010000
00000000
00000100
00000000
,
00001000
00000000
00000010
00000000
00000100
00000001
00000100
00000001
,
00000000
00000100
00000001
00000000
00000010
00000000
00000100
00000000
,
00000010
00000001
00001000
00000010
,
00001000
00000100
00001000
00000000
00000010
00000000
00010000
00001000
,
00010000
00001000
00010000
00000000
00000000
00000000
00000000
00000000
,
00000000
00000000
00002000
00000000
00000000
00103000
00000000
00000000
,
01000000
10000000
02000000
00000000
00000000
03100000
00000000
00000000
,
01000000
10000000
00200000
00000000
00000000
01300000
00000000
00000000
,
00100000
01000000
00020000
00000000
00000000
00130000
00000000
00000000
,
00100000
00001000
00020000
00000000
00000000
00030100
00000000
00000000
,
00001000
00000010
00000200
00000000
00000000
00000310
00000000
00000100
,
00000000
00000100
00000020
00000000
00000000
00001030
00000000
00000000
,
00000100
00010000
00001000
00010000
00001000
00010000
00001000
00010000
,
00001000
00010000
00001000
00000000
00001000
00000000
00100000
00000000
,
00100000
00000000
01000000
00000000
01000000
00000000
10000000
01000000
,
00100000
00010000
20000000
00000000
00000000
00000000
30000000
00000000
,
00010000
00000000
00000000
01000000
00000000
00000000
00100000
00000000
20000000
00000000
00000000
00000000
30000000
00000000
11000000
00000000
,
00000000
00000000
01100000
00000000
00000000
01000000
00000000
00000000
00100000
00000000
00000000
00000000
00010000
00000000
01000000
00000000
,
00000000
00000000
01100000
00000000
00000000
01010000
00000000
00000000
00020000
00000000
00000000
00000000
00130000
00000000
00100000
00000000
,
00000000
00000000
00011000
00000000
00000000
00000100
00000000
00001000
00000000
00000010
00000000
00000000
00000000
00000000
00000000
00000000
,
00000100
00000000
00000000
00000010
00000000
00000000
00000100
00000000
00000002
00000000
00000000
00000000
00000003
00000000
00001100
00000000
,
00000000
00000000
00001010
00000000
00000000
00000010
00000000
00001000
00000000
00000000
00000000
00000200
00000000
00000000
00000300
00000000
,
00000000
00000000
00001100
00000000
00000000
00000100
00000000
00000000
00010000
00001000
00010000
00000100
00010000
00001000
00010000
00000100
,
00000000
00000000
00011000
00000000
00000000
00001000
00000000
00010000
00000000
01000000
00000000
00000000
01000000
00000000
00000000
00000000
,
00100000
00000000
00010000
00000000
01000000
00100000
10000000
00000000
,
00010000
00000000
00100000
00000000
00001000
00010000
00000100
00000000
,
00001000
00000000
00000000
00000000
00000010
00000000
00000000
00000000
00000100
00000000
00000001
00000000
00000010
00000000
00000100
00000010
,
00000000
00000001
00000000
00000100
00000000
00001000
00000000
00000100
00000020
00000000
00000000
00000000
00001030
00000000
00000001
00000000
,
00001000
00000001
00000010
00000100
00001000
00000000
00000100
00010000
,
00000100
00010000
00000100
00010000
00001000
00000000
00010000
00001000
,
01000000
00000000
00100000
00000000
01000000
00000000
00010000
00000000
00100000
00000000
01000000
00000000
10000000
01000000
00100000
00010000
,
10000000
00100000
00000000
01000000
00100000
10000000
00010000
00100000
00000000
01000000
00100000
00010000
10000000
00000000
00000000
00000000
,
00000000
00000000
00000000
00000000
,
00000000
00000000
00000000
00000000
,
00000000
00000000
00000000
00000000
,
00000000
00000000
00000000
00000000
00000000
00000000
00000000
00000000
00100000
00010000
00100000
00010000
00100000
00000000
00000000
00000000
,
00101000
00001000
00011000
00010000
,
00010100
00000000
00000100
00000000
00001100
00000000
00000100
00000010
,
00000001
00000100
00000010
00001000
00000100
00010000
00001000
00010000
,
00001000
00100000
01000000
00010000
01000000
10000000
00000000
00000000
,
00100000
01000000
00010000
00100000
,
00001000
00000000
00010000
00000000
00000100
00000000
00001000
00000010
,
00001000
00000010
00000100
00000001
,
00001000
00000000
00000100
00000000
00000010
00000001
00000010
00000001
,
00000010
00000001
00000100
00000010
,
00001000
00000000
00000100
00000000
00010000
00000000
00001000
00100000
,
00001000
00010000
00100000
01000000
,
10000000
00000000
00010000
01000000
00000000
00010000
00100000
00000000
01000000
00000000
00000000
00000000
00100000
00000000
00000000
00000000
,
00010000
00100000
00001000
00010000
,
00000100
00000000
00001000
00000010
00001000
00000000
00000010
00000000
,
00000100
00000000
00000001
00000000
00000010
00000100
00000010
00000100
,
00000010
00000100
00000010
00000000
00000100
00000000
00001000
00000000
,
00000100
00010000
00001000
00010000
,
00000100
00000000
00001000
00000000
00000000
00000010
00010000
00001000
,
00100000
01000000
00000000
01000000
00100000
00001000
00010000
00000100
,
00000000
00000100
00010000
00001000
02000000
00000000
00000000
00000000
,
00000000
00000000
00000000
00000000
,
03000000
00000000
MMMMMMMM
00000000
,
MMMMMMMM
00000000
MMMMMMMM
00000000
,
00004000
00040000
00000000
00000000
00000000
00000000
00033000
00000000
00000100
00000000
00001000
00000000
00000000
00000000
00000010
00000000
,
00000000
00000100
00000001
00000010
00000000
00000100
00000000
00000010
,
00000001
00000000
00001000
00000000
00000010
00001000
00000000
00000100
,
00000000
00010000
00001000
00100000
00000000
00001000
00000000
00010000
,
00000100
00000000
00010000
00000000
00001000
01000000
00000000
00100000
,
00000000
10000000
00010000
00100000
00000000
01000000
00000000
00100000
,
00010000
00000000
01000000
00000000
00010000
00100000
00000000
00001000
,
00000000
00010000
00000100
00001000
00000000
00000010
00000000
00000100
,
00000010
00000000
00001000
00000000
00000001
00000010
00000000
00001000
,
00000000
00000010
00000001
00000100
00000000
00001000
00000000
00000100
,
00000010
00000000
00001000
00000000
00000100
00010000
00000000
00001000
,
00000000
00010000
00100000
01000000
00000000
00100000
00000000
01000000
,
00001000
00000000
00010000
00000000
00100000
10000000
00000000
00100000
,
00000000
00010000
01000000
10000000
00000000
10000000
00000000
01000000
,
00010000
00000000
00100000
00000000
01000000
00000000
00100000
00010000
,
00100000
00000000
00001000
00100000
00001000
00000000
00100000
00010000
,
00100000
00002000
00000000
00000000
,
00000000
00000000
00000000
00000000
,
00003000
00000000
00000000
00000000
;

//---------------dance-single - ----------------
#NOTEDATA:;
#CHARTNAME:;
#STEPSTYPE:dance-single;
#DESCRIPTION:;
#CHARTSTYLE:;
#DIFFICULTY:Medium;
#METER:7;
#RADARVALUES:0.439446,0.758717,0.197302,0.098651,0.152461,343.000000,321.000000,22.000000,11.000000,6.000000,0.000000,0.000000,0.000000,0.000000,0.439446,0.758717,0.197302,0.098651,0.152461,343.000000,321.000000,22.000000,11.000000,6.000000,0.000000,0.000000,0.000000,0.000000;
#CREDIT:;
#NOTES:
0000
0000
0000
0000
,
0000
0000
0000
0000
,
1000
0000
0000
0010
0000
0000
0100
0000
0000
0001
0000
0000
0010
0000
0100
0000
,
0000
0000
0010
0000
0000
0000
0000
0001
0000
0000
0100
0000
0010
0000
1000
0000
,
0100
0000
0000
1000
0000
0000
0001
0000
0000
0100
0000
0000
0010
0000
1000
0000
,
0100
0010
0001
1000
,
0001
0000
0100
0000
0001
0100
0000
0000
0000
0000
0000
0000
0001
0100
0000
0000
,
0000
0000
0020
0000
0000
0000
1030
0001
0000
0001
1000
0000
0100
0000
0010
0000
,
0000
0000
0000
0000
0100
1000
0000
0000
0000
0000
1000
0000
0001
0000
0100
0000
,
0010
0000
0000
1000
0000
0000
0001
0000
0010
0000
0000
0100
0000
0000
0010
0000
,
2002
0000
0000
0000
,
0000
0000
0000
3003
,
1000
0000
0000
0010
0000
0000
0000
0000
0100
0000
0000
0001
0000
0000
0000
0000
,
0010
0000
0000
0100
0000
0000
0000
0000
0000
0000
0000
0000
0000
0000
0000
0000
,
0000
1000
0010
1000
,
0000
0001
0100
0001
,
0000
1000
0001
1000
,
0000
0001
0010
0100
,
0010
0001
1000
0010
,
0000
0100
0001
0010
,
0000
0100
0010
0001
,
0100
1001
0000
0000
,
0000
0000
1000
0000
0000
1000
0000
0000
,
1000
0000
0100
0000
0000
0100
0000
0000
,
0100
0000
0010
0000
0000
0010
0000
0000
,
0010
0000
0001
0000
0000
0001
0000
0000
,
0001
0000
0100
0000
0000
0010
0000
0000
,
1000
0000
0001
0000
0000
0010
0000
0000
,
0100
0010
0001
0100
,
0010
1000
0001
0010
,
0100
2000
0000
3002
,
0000
0203
0000
0310
,
1000
0200
0000
0300
,
1000
0000
0000
1000
0000
0000
1000
0000
0001
0000
0100
0000
0001
0000
0011
0000
,
0000
1100
0000
0000
0000
0000
1000
0001
,
0000
0000
0110
0000
0000
0100
0000
0000
0010
0000
1000
0000
0100
0000
0100
0000
,
0000
0000
1000
0000
0000
0001
0000
1000
0000
0010
0000
0000
0000
0000
0000
0000
,
0100
0000
0000
0100
0000
0000
0100
0000
0010
0000
1000
0000
0001
0000
1001
0000
,
0000
0011
0000
0000
0000
0000
1010
0000
,
0000
0000
0100
0000
0000
0001
0000
0000
1000
0001
1000
0001
0100
0010
0100
0010
,
0000
0000
0100
0000
0000
0010
0000
1000
0000
0100
0000
0000
1000
0000
0000
0000
,
0010
0000
0100
0000
0010
1000
0001
0000
,
0010
0000
0100
0000
0010
0001
1000
0000
,
0001
0000
0000
0000
0100
0000
0000
0000
0010
0000
1000
0000
0001
0000
0100
0001
,
0000
0100
0000
0010
0000
1000
0000
0010
0200
0000
0000
0000
0310
0000
1000
0000
,
0001
0000
0010
0000
0100
0000
1000
0100
,
0010
0000
0100
0000
1000
0000
0001
1000
,
0010
0000
1000
0001
0100
0000
0001
0100
,
1000
0100
0010
1000
0001
0010
0110
0000
,
0000
0000
0000
0000
,
0000
0000
0000
0000
,
0000
0000
0000
0000
,
0000
0000
0100
1001
,
1001
0110
0110
1010
,
1010
0101
0101
0011
,
0110
0000
1100
0000
0110
0000
0010
0001
,
0100
0010
1000
0100
0001
0100
0000
0000
,
0000
0010
0001
0000
,
0010
0000
0000
0001
0000
0000
1000
0000
,
0001
0100
0001
0000
,
0100
0000
0000
0010
0000
0000
1000
0000
,
0001
0010
0100
0000
,
0010
0000
0000
0100
0000
0000
1000
0000
,
0001
1000
0010
0000
,
0200
0000
0301
1000
,
0010
0000
0000
0000
0100
0000
0000
0001
,
0000
0010
0100
0010
,
0001
0000
0000
0000
1000
0000
0000
0001
,
0000
0100
0001
0010
,
0100
0000
0000
0000
0100
0000
0000
0010
,
0000
0000
1000
0000
0000
0001
0100
0000
,
0010
1000
0000
1000
0100
0000
0010
0001
,
0000
1000
0001
0000
1001
0000
0000
0000
,
0000
0000
0000
0000
,
0000
0000
M00M
0000
,
0MM0
0000
M00M
0000
,
0020
0000
0000
0000
0130
0000
0000
0001
,
0000
0000
0010
0000
0000
0100
0000
0000
,
0010
0000
0001
0000
1000
0000
0000
0001
,
0000
0000
1000
0000
0000
0010
0000
0000
,
1000
0000
0010
0000
0100
0000
0000
0010
,
0000
0000
1000
0000
0000
0001
0000
0000
,
0010
0000
0100
0000
1000
0000
0000
0100
,
0000
0000
1000
0000
0000
0010
0000
0000
,
0100
0000
0010
0000
1000
0000
0000
0001
,
0000
0000
0010
0000
0000
1000
0000
0000
,
0010
0000
0100
0000
1000
0000
0000
0100
,
0000
0000
0001
0000
0000
0100
0000
0000
,
0010
0000
0001
0000
0100
0000
0000
0010
,
0000
0000
1000
0000
0000
0001
0000
0000
,
0100
0001
0100
0001
,
0100
0010
1000
0001
,
1000
0200
0000
0000
,
0000
0000
0000
0000
,
0300
0000
0000
0000
;

//---------------dance-single - ----------------
#NOTEDATA:;
#CHARTNAME:;
#STEPSTYPE:dance-single;
#DESCRIPTION:;
#CHARTSTYLE:;
#DIFFICULTY:Easy;
#METER:6;
#RADARVALUES:0.321577,0.758717,0.313890,0.071746,0.000000,251.000000,216.000000,35.000000,8.000000,3.000000,0.000000,0.000000,0.000000,0.000000,0.321577,0.758717,0.313890,0.071746,0.000000,251.000000,216.000000,35.000000,8.000000,3.000000,0.000000,0.000000,0.000000,0.000000;
#CREDIT:;
#NOTES:
0000
0000
0000
0000
,
0000
0000
0000
0000
,
1000
0001
0010
0001
,
0100
0001
1000
0100
,
0010
0100
1000
0001
,
1000
0100
0010
0001
,
1000
0001
1000
0000
0000
0000
0010
0000
,
0000
0200
0000
0000
0310
0000
1000
0000
,
0101
0001
1000
0100
,
0010
0100
0010
0000
0100
1000
0100
0000
,
2002
0000
0000
0000
,
0000
0000
0000
3003
,
0110
0000
1010
0000
,
0101
0000
1001
0000
,
0000
1000
0000
0100
,
0000
0010
0000
0100
,
0000
1000
0000
0010
,
0000
0100
0010
0100
,
0000
0010
0000
1000
,
0000
0001
0000
0010
,
0000
0100
0000
0010
,
0001
1000
0000
0000
,
0000
1001
0000
0000
,
0000
0011
0000
0000
,
0000
0110
0000
0000
,
0000
1100
0000
0000
,
0000
0110
0000
0000
,
0000
1010
0000
0000
,
0000
0101
0000
1010
,
0000
1100
0000
0110
,
0000
0001
0010
0100
,
1000
0001
0010
0100
,
1000
0002
0000
0003
,
1001
0000
0000
0000
0010
0000
0000
0100
,
0000
0000
0000
0010
,
0000
1000
0000
0000
0001
0000
0000
0010
,
0000
0000
0000
0000
0000
0000
0100
0100
,
0010
0000
0000
0000
0100
0000
0000
1000
,
0000
0001
0000
0000
0000
0000
1000
0000
,
0000
0010
0000
0000
0100
0010
0100
0010
,
0000
0010
0000
0000
1000
0000
0001
0000
,
1000
0010
1000
0100
,
1000
0001
0100
0010
,
1000
0001
0010
2200
,
0000
0000
3300
1001
,
0001
0010
0010
0001
,
1000
0010
0010
1000
,
0001
0100
0010
1000
,
0100
0010
0001
1100
,
0000
0000
0000
0000
,
0000
0000
0000
0000
,
0000
0000
0000
0000
,
0000
0000
0000
0000
0001
1000
1001
0000
,
1001
1001
1001
0110
,
0110
0110
0110
1001
,
0110
1001
0110
0101
,
1010
1000
0100
0000
,
0000
0010
0001
0000
,
0010
0000
0000
0100
0000
0000
1000
0000
,
0000
0001
1000
0000
,
0001
0000
0000
0100
0000
0000
0010
0000
,
0000
1000
0010
0000
,
0100
0000
0000
0010
0000
0000
1000
0000
,
0000
0001
1000
0000
,
0020
0000
0130
0001
,
0010
0000
0000
0000
0100
0000
0000
0010
,
0000
0001
0000
0010
,
0100
0000
0000
0000
1000
0000
0000
0001
,
0000
0100
0000
0010
,
1000
0000
0000
0000
0001
0000
0000
1000
,
0000
0001
0000
1000
,
0001
0000
1000
0001
,
0000
1000
1001
0000
,
0000
0000
0000
0000
,
0000
0000
00M0
0000
,
00M0
0000
00M0
0000
,
0000
0000
1000
0000
,
0000
1000
0000
0000
,
0001
1000
0010
0000
,
0000
0010
0000
0000
,
0010
0100
0001
0000
,
0000
0001
0000
0000
,
0010
0100
1000
0000
,
0000
1000
0000
0000
,
0100
1000
0010
0000
,
0000
0100
0000
0000
,
0001
1000
0100
0000
,
0000
0010
0000
0000
,
0100
1000
0010
0000
,
0000
0100
0000
0000
,
0001
1000
0010
0000
,
0100
0000
0001
0000
,
1000
0002
0000
0000
,
0000
0000
0000
0000
,
0003
0000
0000
0000
;

//---------------dance-single - ----------------
#NOTEDATA:;
#CHARTNAME:;
#STEPSTYPE:dance-single;
#DESCRIPTION:;
#CHARTSTYLE:;
#DIFFICULTY:Beginner;
#METER:2;
#RADARVALUES:0.115307,0.206271,0.035873,0.000000,0.000000,90.000000,86.000000,4.000000,0.000000,0.000000,0.000000,0.000000,0.000000,0.000000,0.115307,0.206271,0.035873,0.000000,0.000000,90.000000,86.000000,4.000000,0.000000,0.000000,0.000000,0.000000,0.000000,0.000000;
#CREDIT:;
#NOTES:
0000
0000
0000
0000
,
0000
0000
0000
0000
,
1000
0000
0000
1000
,
0000
0000
0000
0000
,
0001
0000
0000
0000
,
0001
0000
0000
0000
,
0100
0000
0000
0100
,
0000
0000
0000
0000
,
0010
0000
0000
0000
,
1000
0000
0001
0000
,
0110
0000
0000
0000
,
0000
0000
0000
0000
,
1000
0000
1000
0000
,
0001
0000
0000
0000
,
0000
0100
0000
0000
,
0000
0010
0000
0000
,
0000
1000
0000
0000
,
0000
0001
0000
0000
,
0000
1000
0000
0000
,
0000
0010
0000
0000
,
0000
0100
0000
0010
,
0000
0100
0000
0000
,
0000
0001
0000
0000
,
0000
1000
0000
0000
,
0000
0001
0000
0000
,
0000
0010
0000
0000
,
0000
0001
0000
0000
,
0000
1000
0000
0000
,
0000
0100
0000
0000
,
0000
1000
0000
0000
,
0000
0010
0000
0000
,
0000
0000
0000
0000
,
0000
0000
0000
0000
,
0100
0000
0000
0000
,
0010
0000
0000
0000
,
0000
0000
1000
0000
,
0000
0000
0001
0000
,
0100
0000
0000
0010
,
0000
0000
0000
0100
,
0000
0000
1001
0000
,
0000
0000
0000
1000
,
0000
0000
0000
0001
,
0000
0000
0000
0100
,
0000
0000
0000
0110
,
0000
0000
0000
1000
,
0000
0000
0000
0001
,
0000
0000
0000
0010
,
0000
0001
0000
1000
,
0000
0000
0000
0110
,
0000
0000
0000
0000
,
0000
0000
0000
0000
,
0000
0000
0000
0000
,
0000
0000
0000
1000
,
0000
0000
0000
1000
,
0000
0000
0000
0001
,
0000
1000
0000
0010
,
0000
0100
0000
0000
,
0010
0000
0000
0000
,
0000
0000
0000
0000
,
1000
0000
0000
0000
,
0000
0000
0000
0000
,
0001
0000
0000
0000
,
0000
0000
0000
0000
,
0010
0000
0001
0000
,
1000
0000
0001
0000
,
0000
0000
0000
0000
,
0000
0000
1000
0000
,
0000
0000
0000
0000
,
0000
0000
0010
0000
,
0000
0000
0100
0000
,
0000
0000
0000
0010
,
0000
0000
0010
0000
,
0000
0010
0000
0000
,
0000
0000
0000
0000
,
0000
0000
0000
0000
,
0000
0000
0000
0000
,
0000
0000
1000
0000
,
0000
0000
0000
0000
,
0001
0000
0100
0000
,
0000
0000
0000
0000
,
0010
0000
0100
0000
,
0000
0000
0000
0000
,
0001
0000
0010
0000
,
0000
0000
0000
0000
,
0100
0000
0010
0000
,
0000
0000
0000
0000
,
0100
0000
1000
0000
,
0000
0000
0000
0000
,
1000
0000
0001
0000
,
0000
0000
0000
0000
,
0100
0000
0010
0000
,
0100
0000
0010
0000
,
1000
0000
0000
0000
;
