#VERSION:0.83;
#TITLE:The Dirty of Loudness;
#SUBTITLE:;
#ARTIST:Tatsh Assult X;
#TITLETRANSLIT:;
#SUBTITLETRANSLIT:;
#ARTISTTRANSLIT:;
#GENRE:;
#ORIGIN:;
#CREDIT:;
#BANNER:;
#BACKGROUND:;
#PREVIEWVID:;
#JACKET:;
#CDIMAGE:;
#DISCIMAGE:;
#LYRICSPATH:;
#CDTITLE:;
#MUSIC:The Dirty of Loudness.mp3;
#OFFSET:-0.460000;
#SAMPLESTART:28.076363;
#SAMPLELENGTH:11.636364;
#SELECTABLE:YES;
#BPMS:0.000=330.000;
#STOPS:;
#DELAYS:;
#WARPS:;
#TIMESIGNATURES:0.000=4=4;
#TICKCOUNTS:0.000=4;
#COMBOS:0.000=1;
#SPEEDS:0.000=1.000=0.000=0;
#SCROLLS:0.000=1.000;
#FAKES:;
#LABELS:0.000=Song Start;
#BGCHANGES:;
#KEYSOUNDS:;
#ATTACKS:
;

//---------------dance-single - ----------------
#NOTEDATA:;
#CHARTNAME:;
#STEPSTYPE:dance-single;
#DESCRIPTION:;
#CHARTSTYLE:;
#DIFFICULTY:Hard;
#METER:10;
#RADARVALUES:0.689035,1.099737,0.513718,0.000000,0.000000,507.000000,453.000000,54.000000,0.000000,36.000000,0.000000,0.000000,0.000000,0.000000,0.689035,1.099737,0.513718,0.000000,0.000000,507.000000,453.000000,54.000000,0.000000,36.000000,0.000000,0.000000,0.000000,0.000000;
#CREDIT:;
#NOTES:
MMMM
MMMM
0000
0000
,
0000
0000
0000
0000
,
0000
0000
0000
0000
,
0000
0000
0000
0000
,
1001
0000
0000
0000
,
0000
0000
0000
0000
,
0110
0000
0000
0000
,
0000
0000
0000
0000
,
1001
0000
0000
0000
,
0000
0000
0000
0000
,
0110
0110
0110
0000
,
0000
0000
0100
0000
,
0001
0100
0010
1000
,
0100
0001
0100
0010
,
0001
0100
0010
1000
,
1001
0000
0000
1001
0000
0000
1001
0000
,
1000
0100
1000
0010
,
0001
0010
1000
0100
,
1000
0100
0010
0000
0100
0000
1000
0001
,
0100
0000
0000
0010
1000
0000
0001
0000
,
1000
0010
1000
0001
,
0010
0100
0010
0001
,
1000
0001
1000
0000
0001
0000
0100
0000
,
0010
1000
0010
0100
,
0001
0100
0000
0010
0000
1000
0000
0100
,
0000
0001
0000
0100
0000
0010
0000
0001
,
0000
1000
0000
0010
0000
0001
0000
0010
,
0000
1000
0000
0001
0000
0010
0000
0100
,
0110
0110
1001
1001
,
0110
0000
0100
0010
0100
0010
0100
0010
,
1000
0010
0100
0001
0000
0000
0000
0000
,
0010
0001
0100
0010
0000
0000
0000
0000
,
1000
0001
0010
0100
0000
0000
0000
0000
,
0000
0000
0000
0000
,
0010
0001
1000
0010
0000
0000
0000
0000
,
0100
0010
1000
0001
0000
0000
0000
0000
,
0010
0100
1000
0001
0000
0000
0000
0000
,
0000
0000
0000
0000
,
1000
0000
0010
0000
0100
0000
0001
0010
,
0000
0010
0100
0000
1000
0000
0000
0000
,
0100
0000
1000
0000
0010
0000
0100
0001
,
0000
0001
1000
0000
0100
0000
0010
0000
,
0100
0000
1000
0000
0010
0000
0100
0010
,
0000
0010
1000
0000
0001
0000
0000
0000
,
1000
0001
0100
0001
,
M11M
0000
1MM1
0000
,
0101
0001
0100
0000
,
0010
1000
0100
0000
,
0010
0100
1000
0010
,
0100
0001
0010
0000
,
0100
0010
0001
0000
,
0010
0100
1000
0000
,
0010
0000
0000
0000
,
1MM1
M11M
1MM1
M11M
,
1001
1000
0100
0000
,
0010
0001
0100
0000
,
0010
1000
0001
0010
,
0001
1000
0001
0000
,
1000
0100
0010
0000
,
0100
1000
0010
0000
,
0100
0010
1000
0001
,
0010
0100
0010
0001
,
1000
0001
1000
0000
0010
0000
0000
0000
,
0100
0001
0100
0000
0010
0000
0000
0000
,
1000
0010
1000
0000
0010
0000
0100
0000
,
0001
0010
0001
0000
0010
0000
0100
0000
,
1000
0001
0100
0000
0010
0000
0000
0000
,
0100
0001
0010
0000
0100
0000
0000
0000
,
0010
0001
0010
0000
0001
0000
0100
0000
,
0010
1000
0010
0000
0100
0000
0001
0000
,
1000
0100
0010
0001
0000
0000
0000
0000
,
0001
0010
0100
1000
0000
0000
0000
0000
,
1000
0100
0010
0001
0000
0000
0000
0000
,
0000
0000
0000
0000
,
0100
0010
1000
0001
0000
0000
0000
0000
,
0010
0100
1000
0001
0000
0000
0000
0000
,
0100
0010
0001
1000
0000
0000
0000
0000
,
0010
0000
1001
0000
,
0000
0000
0000
0000
,
0000
0000
0000
0000
,
0001
0100
0001
0100
,
0010
1000
0010
1000
,
0001
1000
0001
1000
,
0010
1000
0010
1000
,
0001
0100
0001
0100
,
0001
0010
0100
1000
,
0001
1000
0010
1000
,
0100
0010
0100
1000
,
0001
0100
0010
1000
,
0001
0010
0100
0010
,
0001
1000
0100
0001
,
0100
0010
0001
0100
,
1000
0100
0010
1000
,
0010
0100
0001
0010
,
0100
1000
0100
0000
0010
0000
0001
0000
,
0100
0010
1000
0001
,
0010
0100
0010
0000
0100
0000
1000
0000
,
0010
0100
0001
0010
,
0100
1000
0100
0000
1000
0000
0010
0000
,
0100
0001
0010
0001
,
1000
0001
1000
0000
0001
0000
0100
0000
,
0010
1000
0010
0100
,
0001
0100
0001
0000
0100
0010
0100
0000
,
0010
1000
0010
0000
1000
0001
1000
0000
,
0001
0010
0001
0000
0010
0100
0010
0000
,
0100
1000
0100
0000
1000
0001
1000
0000
,
0100
0010
0001
0000
0010
0100
1000
0000
,
0100
1000
0010
0000
0100
0001
0010
0000
,
0100
0010
0001
0100
0010
1000
0001
0010
,
0100
0010
0001
0100
0010
1000
0001
0010
,
0100
0000
0000
0000
,
0000
0000
0000
0000
,
0000
0000
0000
0000
,
0000
0000
0000
0000
,
0010
0001
0000
0011
0000
0101
0000
0110
,
0000
1010
0000
1001
0000
1010
0000
1000
,
0010
0100
0000
0110
0000
1010
0000
1000
,
0100
0000
0000
0000
,
0000
0000
0000
0000
,
0000
0000
0000
0000
,
0000
0000
0000
0000
,
1000
0000
0001
0100
0010
0000
0100
0010
,
0000
1000
0001
0000
0010
0100
0000
1001
,
0000
0000
1001
0000
,
0000
1001
0000
0000
0000
0000
1001
0000
,
0000
1001
0000
0110
0000
1001
0000
0000
,
0011
0000
0010
0100
0000
0011
0000
0101
,
0000
0110
0000
1010
0000
1100
0000
0001
,
0010
0100
0000
0011
0000
1100
0000
0100
,
0010
0000
0000
0000
,
0000
0000
0000
0000
,
0000
0000
0000
0000
,
0000
0000
0000
0000
,
1M1M
M11M
M1M1
MM11
,
M11M
0000
1MM1
0000
,
M11M
0000
0000
0000
,
1MM1
0000
0000
0000
;

//---------------dance-single - X----------------
#NOTEDATA:;
#CHARTNAME:;
#STEPSTYPE:dance-single;
#DESCRIPTION:X;
#CHARTSTYLE:;
#DIFFICULTY:Edit;
#METER:12;
#RADARVALUES:0.868428,1.258134,0.599338,0.000000,0.057080,639.000000,576.000000,63.000000,0.000000,80.000000,0.000000,0.000000,0.000000,0.000000,0.868428,1.258134,0.599338,0.000000,0.057080,639.000000,576.000000,63.000000,0.000000,80.000000,0.000000,0.000000,0.000000,0.000000;
#CREDIT:;
#OFFSET:-0.460000;
#BPMS:0.000000=330.000000
,400.000000=82.500000
,404.000000=330.000000
,416.000000=82.500000
,420.000000=330.000000
,445.000000=82.500000
,448.000000=330.000000
;
#STOPS:121.500000=0.363636
,123.500000=0.363636
,125.500000=1.090910
,127.500000=0.363636
,129.500000=0.363636
,131.500000=1.090910
,160.000000=0.090908
,160.500000=0.090912
,161.000000=0.090912
,161.500000=0.090912
,190.000000=0.090912
,190.500000=0.090912
,191.000000=0.090912
,191.500000=0.090912
,257.500000=0.363636
,259.500000=0.363636
,261.500000=1.090908
,263.500000=0.363636
,265.500000=0.363636
,267.500000=0.363636
,430.000000=0.363632
,430.500000=0.363632
,431.000000=0.181816
,431.500000=0.090904
,432.000000=0.090904
,432.500000=0.181816
,447.500000=0.727272
;
#DELAYS:;
#WARPS:;
#TIMESIGNATURES:0.000000=4=4
;
#TICKCOUNTS:0.000000=4
;
#COMBOS:0.000000=1
;
#SPEEDS:0.000000=1.000000=0.000000=0
;
#SCROLLS:0.000000=1.000000
;
#FAKES:;
#LABELS:0.000000=Song Start
;
#NOTES:
MMMM
MMMM
0000
0000
,
0000
0000
0000
0000
,
0000
0000
0000
0000
,
0000
0000
0000
0000
,
1001
1000
0000
0100
0000
1000
0000
0010
,
0000
0100
0000
0001
0000
0010
0000
0100
,
0010
0001
1000
0000
0001
0000
0100
0001
,
0010
0000
0000
0100
0010
0000
0100
1000
,
0010
0100
0000
0010
0000
1000
0000
0001
,
0000
0010
0000
0100
0000
0010
0000
0001
,
0011
1100
0011
0000
,
0100
0000
1001
0000
,
0001
0100
0000
0010
0000
1000
0000
0100
,
0000
0001
0000
0100
0000
0010
0000
0001
,
0010
0100
0000
0010
0001
0000
1000
0001
,
0101
0000
0000
0101
0000
0000
0101
0000
,
1001
1000
0000
0100
0000
1000
0000
0001
,
0000
0100
0000
0001
0000
0010
0000
0100
,
0010
0001
0000
0010
0001
0000
0010
0100
,
1000
0000
0000
0100
1000
0000
0010
0100
,
0001
1000
0000
0100
0000
1000
0000
0010
,
0000
0100
0000
0001
0000
0010
0000
0100
,
0010
0001
1000
0000
0001
0000
0100
0010
,
1000
0000
0000
0001
0010
0000
0100
0010
,
0001
1000
0000
1001
0000
0101
0000
1001
,
0000
1100
0000
1001
0000
0101
0000
1001
,
0000
1100
0000
1001
0000
0101
0000
1001
,
0000
1100
0000
1001
0000
0101
0000
0100
,
0110
0110
0110
0110
,
0110
0000
0100
0010
1000
0001
0100
0010
,
1000
0001
0010
0100
0010
0001
1000
0010
,
0100
0010
1000
0001
1000
0001
0010
0100
,
0010
0001
1000
0100
1000
0001
0100
0010
,
1001
0000
1000
0000
0010
0000
0100
0001
,
0000
0010
0100
0000
0010
0000
0001
0000
,
1000
0000
0010
0000
0100
0000
0001
0010
,
0000
0010
0100
0000
1100
0000
0000
0000
,
0100
0000
1000
0000
0010
0000
0100
0001
,
0000
0010
0100
0000
0010
0000
0001
0000
,
0100
0000
1000
0100
0001
0000
1000
0000
,
1MM1
M1MM
M11M
MMM1
0001
1000
0100
0000
,
1000
0000
0010
0000
0100
0001
0010
0000
,
0100
0000
0000
0000
0010
0001
0100
0000
,
0010
0000
0100
0000
0010
1000
0001
0000
,
1001
0000
0000
0000
1000
0001
0010
0000
,
0100
0010
0001
1000
,
0001
0000
0100
0010
,
0100
0000
0000
0000
1MM1
M11M
1MM1
M11M
,
1001
1000
0001
0000
0100
0000
0001
0000
,
0010
1000
0010
0001
,
0100
0010
1000
0000
0001
0000
1000
0000
,
0100
0001
0100
1000
,
0010
1000
0100
0000
0010
0000
0001
0000
,
0100
1000
0100
0001
,
1000
0001
0100
0000
0010
0000
1000
0000
,
0001
0010
1000
0010
,
0001
0100
0010
0000
1000
0000
0001
0000
,
0010
0100
1000
0000
0100
0000
1000
0000
,
0010
0100
0001
0000
0010
0000
0100
0000
,
0010
0001
0100
0000
0010
0000
1000
0000
,
0100
1000
0010
0000
0100
0000
0001
0000
,
0010
0001
0100
0000
0010
0000
1000
0000
,
0001
0100
0001
0000
0100
0010
0100
0000
,
0010
1000
0010
0000
1000
0001
1000
0000
,
0001
0100
0010
1000
0100
1000
0100
0010
,
0100
0010
0001
0100
0010
0100
0001
0010
,
0100
1000
0010
0100
0010
1000
0001
1000
,
0001
0010
0100
1000
0001
0010
0100
1000
,
0001
0010
0100
1000
,
0100
0010
0100
1000
,
0001
0001
1000
1000
,
0010
0100
0001
0010
,
0100
0100
0010
0010
,
0001
0010
0001
1000
,
0100
0100
1000
1000
,
0010
1000
0001
0100
,
0001
0001
0010
0010
,
0100
0010
0001
1000
,
0100
0100
1000
0010
,
0100
0010
1000
0001
,
0010
0010
0001
0100
,
0010
0010
1000
0001
,
0010
1000
0010
0001
,
0100
1000
0100
0001
,
1000
0010
1000
0010
1000
0010
0100
0001
,
0100
0001
0100
0001
0010
0001
0010
0001
,
0010
0001
1000
0100
1000
0100
1000
0100
,
1000
0001
0100
0010
1000
0001
0010
0000
,
0001
0100
0001
0100
0001
0100
0010
1000
,
0010
1000
0010
1000
0100
1000
0100
1000
,
0100
1000
0100
0010
0001
0010
0100
0010
,
0001
1000
0010
0100
0001
1000
0001
0000
,
1000
0010
0100
0001
0010
0100
0010
0001
,
1000
0100
0010
0100
1000
0001
0100
0000
,
0010
1000
0010
0100
0001
0010
0100
0010
,
0001
1000
0010
0100
0001
0010
0100
0000
,
0010
0001
0010
0000
0001
0100
0001
0000
,
0100
0010
0100
0000
0010
1000
0010
0000
,
1000
0001
0100
0010
1000
0001
0010
0100
,
0010
0001
0100
0010
1000
0001
0010
0100
,
1000
0000
0000
0000
0000
0000
0000
0000
0000
0000
0000
0000
0000
0000
0000
0000
M000
M000
M000
M000
M000
M000
M000
M000
M000
M000
M000
M000
M000
M000
M000
M000
,
M001
0011
0000
0101
0000
0011
0000
1100
,
0000
0011
0000
1001
0000
0101
0000
0001
,
0100
1000
0000
1100
0000
0101
0000
0001
,
1001
0000
0000
0000
0000
0M00
0000
0000
,
0001
0100
0010
1000
0100
0010
0100
1000
,
0001
0010
0100
0010
0001
1000
0000
0011
,
0000
0000
0000
0000
1001
1010
0101
1001
,
0110
1001
1000
0100
0001
0100
1000
0010
,
0001
0010
1000
0010
0100
0001
0010
0100
,
0010
0001
1000
0010
0100
0001
0010
0100
,
0010
0001
1000
0000
0000
0000
0000
0000
,
M11M
1M1M
11MM
M11M
,
MM11
MMMM
1MM1
MMMM
,
M11M
MMMM
MMMM
MMMM
,
1MM1
0000
0000
0000
;

//---------------dance-double - ----------------
#NOTEDATA:;
#CHARTNAME:;
#STEPSTYPE:dance-double;
#DESCRIPTION:;
#CHARTSTYLE:;
#DIFFICULTY:Challenge;
#METER:12;
#RADARVALUES:0.820862,1.164428,0.542258,0.000000,0.000000,604.000000,547.000000,57.000000,0.000000,106.000000,0.000000,0.000000,0.000000,0.000000,0.820862,1.164428,0.542258,0.000000,0.000000,604.000000,547.000000,57.000000,0.000000,106.000000,0.000000,0.000000,0.000000,0.000000;
#CREDIT:;
#NOTES:
MMMMMMMM
MMMMMMMM
00000000
00000000
,
00000000
00000000
00000000
00000000
,
00000000
00000000
00000000
00000000
,
00000000
00000000
00000000
00000000
,
10000000
00100000
00000000
01000000
00000000
00010000
00000000
00100000
,
00000000
00001000
00000000
00010000
00000000
00000100
00000000
00001000
,
00000010
00000100
00000000
00000010
00001000
00000000
00000010
00000100
,
00000001
00001000
00000000
00000001
00000100
00000000
00000010
00001000
,
00000100
00001000
00000000
00000100
00000000
00010000
00000000
00001000
,
00000000
00100000
00000000
01000000
00000000
10000000
00000000
01000000
,
11000000
00110000
11000000
00000000
,
01000000
00000000
10010000
00000000
,
00010000
01000000
00000000
00010000
00000000
00100000
00000000
00001000
,
00000000
00010000
00000000
00000100
00000000
00001000
00000000
00000010
,
00000100
00000010
00001000
00000000
00000001
00000000
00000010
00000000
,
00001100
00000000
00000000
00011000
00000000
00000000
01010000
00000000
,
01000000
00010000
00000000
00100000
00000000
01000000
00000000
00100000
,
00000000
00010000
00000000
01000000
00000000
00100000
00000000
10000000
,
00010000
00100000
01000000
00000000
00100000
00000000
00010000
00100000
,
00001000
00000000
00000000
00010000
00000100
00000000
00001000
00000010
,
00000100
00000010
00000000
00001000
00000000
00000001
00000000
00000010
,
00000000
00000100
00000000
00000010
00000000
00000100
00000000
00000010
,
00000100
00001000
00000100
00000000
00001000
00000000
00000100
00010000
,
00100000
00010000
00000000
00010000
00100000
00000000
01000000
10000000
,
01000000
00100000
00000000
01100000
00000000
00110000
00000000
00101000
,
00000000
00011000
00000000
00010100
00000000
00001100
00000000
00001010
,
00000000
00000110
00000000
00000101
00000000
00001001
00000000
00001100
,
00000000
00010100
00000000
00011000
00000000
00110000
00000000
00100000
,
01100000
01100000
10010000
10010000
,
01100000
00000000
01000000
00010000
00100000
01000000
00100000
00010000
,
00100000
00001000
00010000
00000010
00000000
00000000
00000000
00000000
,
00000010
00010000
00001000
01000000
00000000
00000000
00000000
00000000
,
01000000
00001000
00010000
00001000
00000000
00000000
00000000
00000000
,
00000000
00000000
00000000
00000000
,
01000000
00010000
00100000
00000100
00000000
00000000
00000000
00000000
,
00000100
00010000
00001000
01000000
00000000
00000000
00000000
00000000
,
01000000
00001000
00010000
00001000
00000000
00000000
00000000
00000000
,
00000000
00000000
00000000
00000000
,
00010000
00000000
00001000
00000000
00010000
00000000
00000010
00001000
,
00000000
00000010
00000100
00000000
00000001
00000000
00000000
00000000
,
00000010
00000000
00000100
00000000
00001000
00000000
00000100
00010000
,
00000000
00001000
01000000
00000000
00100000
00000000
00000000
00000000
,
01000000
00000000
00100000
00000000
10000000
00000000
00010000
00100000
,
00000000
01000000
10000000
00000000
00010000
00000000
00100000
00000000
,
01000000
10000000
00010000
00000000
,
1MM1MMMM
00000000
MMM11MMM
00000000
,
00001000
00010000
00000100
00000000
00001000
00000000
00000010
00000000
,
00000100
00000001
00000010
00000000
,
00000100
00000010
00000001
00000000
00000100
00000000
00000010
00000000
,
00001000
00000100
00010000
00000000
,
00001000
01000000
00100000
00000000
10000000
00000000
01000000
00000000
,
00010000
01000000
00100000
00010000
,
00100000
00000000
00001000
00000000
,
MM1M1MMM
MMM1MM1M
MM1M1MMM
MMM1MM1M
,
MMM11MMM
00001000
00010000
00000000
00000100
00000000
00000000
00000000
,
00010000
00001000
01000000
00000000
00100000
00000000
00000000
00000000
,
01000000
00010000
00100000
00000000
01000000
10000000
00100000
00000000
,
01000000
00010000
10000000
00000000
00010000
00000000
00000000
00000000
,
00100000
00001000
00010000
00000000
00000100
00000000
00000000
00000000
,
00001000
00000010
00000100
00000000
00000001
00000000
00000000
00000000
,
00001000
00000001
00000100
00000000
00000010
00001000
00000100
00000000
,
00001000
00000010
00000100
00000000
00000001
00000010
00000100
00000000
,
00000010
00000001
00000010
00000000
00000100
00000000
00001000
00000000
,
00000100
00001000
00000100
00000000
00010000
00000000
00001000
00000000
,
01000000
00010000
01000000
00000000
00010000
00000000
10000000
00000000
,
00010000
00100000
00010000
00000000
00100000
00000000
01000000
00000000
,
10000000
00010000
00100000
00000000
00001000
00000000
00010000
00000000
,
00000100
00001000
00000010
00000000
00000100
00000000
00000001
00000000
,
00000010
00000001
00000100
00000010
,
00001000
00000100
00010000
00100000
,
01000000
00100000
00010000
00001000
00000000
00000000
00000000
00000000
,
00100000
00010000
00001000
00000100
00000000
00000000
00000000
00000000
,
00010000
00001000
00000100
00000010
00000000
00000000
00000000
00000000
,
00000000
00000000
00000000
00000000
,
00000100
00000010
00000001
00000100
00000000
00000000
00000000
00000000
,
00000010
00001000
00000100
00010000
00000000
00000000
00000000
00000000
,
00001000
00100000
01000000
10000000
00000000
00000000
00000000
00000000
,
10000000
01000000
00100000
00010000
00001000
00000100
00000010
00000001
,
00001000
00000000
00000000
00000000
,
00000000
00000000
00000000
00000000
,
00000001
00000010
00000100
00000010
,
00000001
00000100
00000010
00001000
,
00000100
00010000
00001000
00100000
,
01000000
00100000
00010000
01000000
,
00100000
10000000
00010000
00100000
,
01000000
10000000
01000000
00010000
,
01000000
00100000
00010000
00100000
,
00001000
00010000
00000100
00001000
,
00000010
00000100
00000001
00000010
,
00001000
00000010
00000001
00000100
,
00000010
00001000
00000100
00010000
,
00001000
00100000
00001000
00010000
,
00000100
00001000
00000010
00000100
,
00000001
00000010
00000100
00001000
,
00000001
00000100
00000010
00000000
00001000
00000100
00010000
00000000
,
00001000
00100000
00010000
00000000
01000000
10000000
00100000
00000000
,
10000000
01000000
00100000
00000000
01000000
00100000
00010000
00000000
,
00100000
00001000
00010000
00000000
00000010
00000100
00000001
00000000
,
00000010
00000100
00001000
00000000
00000100
00001000
00000001
00000000
,
00000100
00000010
00001000
00000000
00000100
00010000
00001000
00000000
,
00010000
00001000
01000000
00000000
00100000
10000000
01000000
00000000
,
00100000
01000000
10000000
00000000
01000000
00100000
00010000
00000000
,
01000000
00010000
00100000
00001000
00010000
00000100
00001000
00000010
,
00000100
00000001
00000010
00000100
00001000
00000001
00001000
00000000
,
00000001
00001000
00000001
00000010
00000100
00001000
00000100
00010000
,
00001000
00100000
01000000
10000000
00010000
10000000
00010000
00000000
,
10000000
01000000
00010000
00000000
00010000
01000000
10000000
00000000
,
10000000
01000000
00100000
00000000
00100000
00010000
00100000
00000000
,
00100000
00001000
00010000
00000100
00001000
00000010
00000001
00000010
,
00001000
00000100
00010000
00001000
00100000
10000000
00100000
00010000
,
10000000
00000000
00000000
00000000
,
00000000
00000000
00000000
00000000
,
00000000
00000000
00000000
00000000
,
00000000
00000000
00000000
00000000
,
10000000
11000000
00000000
10010000
00000000
00110000
00000000
00101000
,
00000000
00011000
00000000
00010010
00000000
00001010
00000000
00000010
,
00000100
00000001
00000000
00000011
00000000
00000110
00000000
00000010
,
00010000
00000000
00000000
00000000
,
00000000
00000000
00000000
00000000
,
00000000
00000000
00000000
00000000
,
00000000
00000000
00000000
00000000
,
00001000
00100000
00010000
01000000
00010000
00100000
00001000
00010000
,
00000100
00010000
00000100
00001000
00000010
00000100
00000000
00001001
,
00000000
00000000
00001001
00000000
,
00000000
00011000
00000000
00000000
00000000
00000000
10010000
00000000
,
00000000
10010000
00000000
01100000
00000000
10010000
00000000
00000000
,
10000000
01000000
00010000
01000000
00100000
00010000
00100000
00001000
,
00010000
00000100
00000010
00001000
00000010
00000001
00000010
00001000
,
00000010
00001000
00000100
00010000
00000100
00001000
00010000
00001000
,
01000000
00000000
00000000
00000000
,
00000000
00000000
00000000
00000000
,
00000000
00000000
00000000
00000000
,
00000000
00000000
00000000
00000000
,
M1M1MMMM
M1MM1MMM
MM1M1MMM
MMM1M1MM
,
MMMM11MM
00000000
M1M1MMMM
00000000
,
MMM11MMM
00000000
00000000
00000000
,
MM1MMM1M
00000000
00000000
00000000
;

//---------------dance-single - ----------------
#NOTEDATA:;
#CHARTNAME:;
#STEPSTYPE:dance-single;
#DESCRIPTION:;
#CHARTSTYLE:;
#DIFFICULTY:Medium;
#METER:8;
#RADARVALUES:0.580311,0.905666,0.456638,0.000000,0.000000,427.000000,379.000000,48.000000,0.000000,24.000000,0.000000,0.000000,0.000000,0.000000,0.580311,0.905666,0.456638,0.000000,0.000000,427.000000,379.000000,48.000000,0.000000,24.000000,0.000000,0.000000,0.000000,0.000000;
#CREDIT:;
#NOTES:
MMMM
MMMM
0000
0000
,
0000
0000
0000
0000
,
0000
0000
0000
0000
,
0000
0000
0000
0000
,
1001
0000
0000
0000
,
0000
0000
0000
0000
,
0110
0000
0000
0000
,
0000
0000
0000
0000
,
1001
0000
0000
0000
,
0000
0000
0000
0000
,
0110
0110
0110
0000
,
0000
0000
1000
0000
,
0001
0000
0100
0000
,
0010
0000
1000
0000
,
0010
0000
0100
0000
,
0001
0000
0000
0001
0000
0000
0001
0000
,
1000
0000
0001
0000
,
0010
0000
0100
0000
,
0010
0001
0100
0010
,
1000
0000
0001
0000
,
1001
0000
1000
0000
,
0001
0000
0100
0000
,
0101
0000
0001
0000
,
0101
0000
0100
0000
,
0110
0000
1010
0000
,
0101
0000
0011
0000
,
0110
0000
1100
0000
,
0110
0000
0101
0000
,
1000
1000
0001
0001
,
0100
0100
0010
0010
,
1000
0001
1000
0001
0000
0000
0000
0000
,
1000
0001
1000
0001
0000
0000
0000
0000
,
0001
1000
0001
1000
0000
0000
0000
0000
,
0000
0000
0000
0000
,
0001
1000
0001
1000
0000
0000
0000
0000
,
0001
1000
0001
1000
0000
0000
0000
0000
,
1000
0001
1000
0001
0000
0000
0000
0000
,
0000
0000
0000
0000
,
0100
0010
1000
0100
,
0010
0001
0011
0000
,
0001
0010
0100
1000
,
0001
1000
1001
0000
,
0001
0100
0010
1000
,
0100
0010
0001
0010
,
1000
0010
0001
1000
,
1001
M00M
0110
0MM0
,
1001
1000
0100
0000
,
1000
0010
1000
0000
,
0010
0100
0001
0000
,
0010
0100
0010
0000
,
0100
0010
0001
0000
,
0010
0001
0010
0000
,
0001
0000
0100
0000
,
M11M
M11M
M11M
M11M
,
0100
0010
1000
0000
,
0010
0100
0001
0000
,
1000
0001
0010
0100
,
0010
0001
1000
0000
,
0001
0100
0010
0000
,
0100
0010
1000
0000
,
0010
1000
0100
0010
,
0001
0010
0100
0010
,
0001
1000
0010
0000
,
0100
0001
0010
0000
,
0100
0010
0001
0010
,
0100
1000
0100
0010
,
0100
1000
0010
0000
,
0100
0001
0010
0000
,
0100
0010
0001
0010
,
1000
0010
0001
0100
,
0010
0100
0010
0100
0000
0000
0000
0000
,
0010
0100
0010
0100
0000
0000
0000
0000
,
0100
0010
0100
0010
0000
0000
0000
0000
,
0000
0000
0000
0000
,
0100
0010
0100
0010
0000
0000
0000
0000
,
0100
0010
0100
0010
0000
0000
0000
0000
,
0010
0100
0010
0100
0000
0000
0000
0000
,
0000
0000
0000
0000
,
1000
0000
0100
0000
,
0010
0000
0001
0000
,
1000
0010
0100
0010
,
1000
0001
0010
0100
,
0010
0001
1000
0010
,
1000
0001
0010
0100
,
0010
0001
0100
0001
,
0010
0001
0100
0010
,
1000
0010
0100
0010
,
1000
0100
0010
0100
,
1000
0001
0100
0001
,
0010
0100
0010
0001
,
1000
0010
0100
0001
,
0010
0100
0010
0001
,
1000
0010
1000
0001
,
0100
0001
0010
0100
,
1000
0100
1100
0000
,
0100
0010
0110
0000
,
0010
0001
0011
0000
,
0001
0100
0101
0000
,
0100
0010
0110
0000
,
0010
1000
1010
0000
,
1000
0001
1001
0000
,
0001
0010
0011
0000
,
0001
0001
0100
1000
,
0100
0010
1000
0010
,
1000
1000
0010
0001
,
0010
0100
0010
1000
,
0001
0001
1000
1000
,
0100
0100
0010
0010
,
0100
0010
0001
0100
,
1000
0100
0010
1000
,
0001
0000
0000
0000
,
0000
0000
0000
0000
,
0000
0000
0000
0000
,
0000
0000
0000
0000
,
1000
0000
0010
0100
0000
0010
1000
0001
,
0000
0010
0000
0001
0100
0010
0000
0100
,
0000
0010
1000
0001
0000
1000
0000
0001
,
0010
0000
0000
0000
,
0000
0000
0000
0000
,
0000
0000
0000
0000
,
0000
0000
0000
0000
,
0100
0000
0001
0100
0001
0000
1000
0010
,
1000
0000
0001
0000
1000
0001
0000
0100
,
0000
0000
0110
0000
,
0000
0110
0000
0000
0000
0000
0110
0000
,
0000
0110
0000
0110
0000
0110
0000
0000
,
0010
0000
0100
0010
0000
0100
0000
0001
,
0000
1000
0000
0100
0000
0010
0000
0100
,
1000
0010
0000
0100
0000
0001
0000
1000
,
0001
0000
0000
0000
,
0000
0000
0000
0000
,
0000
0000
0000
0000
,
0000
0000
0000
0000
,
1001
1001
0110
0110
,
1001
0000
1001
0000
,
0110
0000
MMMM
0000
,
1001
0000
0000
0000
;

//---------------dance-single - ----------------
#NOTEDATA:;
#CHARTNAME:;
#STEPSTYPE:dance-single;
#DESCRIPTION:;
#CHARTSTYLE:;
#DIFFICULTY:Easy;
#METER:6;
#RADARVALUES:0.403636,0.905666,0.494692,0.000000,0.000000,297.000000,245.000000,52.000000,0.000000,9.000000,0.000000,0.000000,0.000000,0.000000,0.403636,0.905666,0.494692,0.000000,0.000000,297.000000,245.000000,52.000000,0.000000,9.000000,0.000000,0.000000,0.000000,0.000000;
#CREDIT:;
#NOTES:
00M0
00M0
0000
0000
,
0000
0000
0000
0000
,
0000
0000
0000
0000
,
0000
0000
0000
0000
,
1001
0000
0000
0000
,
0000
0000
0000
0000
,
0110
0000
0000
0000
,
0000
0000
0000
0000
,
1001
0000
0000
0000
,
0000
0000
0000
0000
,
0010
0010
0010
0000
,
0000
0000
0000
0000
,
1000
0000
0010
0000
,
0100
0000
0001
0000
,
0010
0000
0100
0000
,
0010
0000
0000
0001
0000
0000
1000
0000
,
0001
0000
0100
0000
,
0010
0000
1000
0000
,
0010
0000
0100
0010
,
1000
0000
0001
0010
,
0100
0000
0010
0000
,
0001
0000
1000
0000
,
1001
0000
0001
0000
,
1001
0000
1000
0000
,
1001
0000
0110
0000
,
1001
0000
0110
0000
,
1001
0000
0110
0000
,
1001
0000
0110
0000
,
0100
0010
0100
0010
,
0100
0010
0100
0010
,
1001
0000
0000
0000
,
1100
0000
0000
0000
,
0011
0000
0000
0000
,
0000
0000
0000
0000
,
0101
0000
0000
0000
,
1100
0000
0000
0000
,
1001
0000
0000
0000
,
0000
0000
0000
0000
,
1000
0000
0010
0000
,
0100
0010
0100
0000
,
0010
0000
1000
0000
,
0001
0010
0100
0000
,
0010
0000
0001
0000
,
1000
0001
1000
0000
,
0001
0000
0100
0000
,
10M1
0000
M110
0000
,
0001
0100
0001
0000
,
0100
0000
0010
0000
,
1000
0010
1000
0000
,
0010
0000
0100
0000
,
0010
0100
0010
0000
,
0100
0000
0010
0000
,
1000
0000
0000
0000
,
00M1
00M1
00M1
00M1
,
00M1
1000
0001
0000
,
0100
0000
0001
0000
,
0010
0100
1000
0000
,
0100
0000
1000
0000
,
0010
0100
0001
0000
,
0010
0000
0100
0000
,
1000
0100
1000
0100
,
0010
0001
0010
0000
,
0001
1000
0001
0000
,
0100
0000
0001
0000
,
0010
0100
0010
0000
,
0100
0000
1000
0000
,
0100
1000
0100
0000
,
1000
0000
0010
0000
,
0100
0010
0100
0010
,
1000
0001
0010
0000
,
1001
0000
0000
0000
,
0101
0000
0000
0000
,
0011
0000
0000
0000
,
0000
0000
0000
0000
,
1001
0000
0000
0000
,
1100
0000
0000
0000
,
1010
0000
0000
0000
,
0000
0000
0000
0000
,
0010
0000
0000
0000
,
0000
0000
0000
0000
,
0100
0000
0010
1000
,
0000
1000
0010
0000
,
0100
0000
0100
0001
,
0000
0001
0100
0000
,
0001
0000
0001
1000
,
0000
1000
0001
0000
,
0001
0000
0001
0010
,
0000
0010
0100
0000
,
0100
0000
0100
1000
,
0000
1000
0010
0000
,
0010
0000
0010
0100
,
0000
0100
0001
0000
,
0001
0000
0001
1000
,
0000
1000
0001
0000
,
1001
0000
0001
0000
,
0100
0000
0010
0000
,
1000
0000
0010
0000
,
0100
0000
0001
0000
,
0011
0000
0001
0000
,
0010
0000
0100
0000
,
0010
0000
0001
0000
,
1000
0000
0010
0000
,
0110
0000
0010
0000
,
1000
0000
0001
0000
,
0101
0000
0001
0000
,
1000
0000
0100
0000
,
0110
0000
0110
0000
,
1001
0000
1001
0000
,
0001
0000
1000
0000
,
0010
0000
0100
0000
,
1001
0000
0000
0000
,
0000
0000
0000
0000
,
0000
0000
0000
0000
,
0000
0000
0000
0000
,
1001
0000
1010
0000
,
1001
0000
0011
0000
,
1001
0000
0101
0000
,
1001
0000
0000
0000
,
0000
0000
0000
0000
,
0000
0000
0000
0000
,
0000
0000
0000
0000
,
0010
0000
0100
0000
,
0010
0000
1000
0000
,
0000
0000
0001
0000
,
0000
0001
0000
0000
0000
0000
0001
0000
,
0000
0001
0000
0001
0000
0001
0000
0000
,
1000
0000
0001
0000
,
0100
0000
0010
0000
,
1000
0000
0010
0000
,
1001
0000
0000
0000
,
0000
0000
0000
0000
,
0000
0000
0000
0000
,
0000
0000
0000
0000
,
1001
1001
1001
1001
,
1001
0000
1001
0000
,
1001
0000
0000
0000
,
1001
0000
0000
0000
;

//---------------dance-single - ----------------
#NOTEDATA:;
#CHARTNAME:;
#STEPSTYPE:dance-single;
#DESCRIPTION:;
#CHARTSTYLE:;
#DIFFICULTY:Beginner;
#METER:3;
#RADARVALUES:0.184830,0.452833,0.171239,0.000000,0.000000,136.000000,118.000000,18.000000,0.000000,0.000000,0.000000,0.000000,0.000000,0.000000,0.184830,0.452833,0.171239,0.000000,0.000000,136.000000,118.000000,18.000000,0.000000,0.000000,0.000000,0.000000,0.000000,0.000000;
#CREDIT:;
#NOTES:
// measure 0
0000
0000
0000
0000
,  // measure 1
0000
0000
0000
0000
,  // measure 2
0000
0000
0000
0000
,  // measure 3
0000
0000
0000
0000
,  // measure 4
1000
0000
0000
0000
,  // measure 5
0000
0000
0000
0000
,  // measure 6
0001
0000
0000
0000
,  // measure 7
0000
0000
0000
0000
,  // measure 8
1000
0000
0000
0000
,  // measure 9
0000
0000
0000
0000
,  // measure 10
0001
1000
0001
0000
,  // measure 11
0000
0000
0000
0000
,  // measure 12
0100
0000
0000
0000
,  // measure 13
0000
0000
0000
0000
,  // measure 14
0010
0000
0000
0000
,  // measure 15
1000
0000
0000
0000
,  // measure 16
0100
0000
0000
0000
,  // measure 17
0000
0000
0000
0000
,  // measure 18
1000
0000
0000
0000
,  // measure 19
0001
0000
0000
0000
,  // measure 20
0100
0000
0000
0000
,  // measure 21
0000
0000
0000
0000
,  // measure 22
0010
0000
0000
0000
,  // measure 23
1000
0000
0000
0000
,  // measure 24
0001
0000
0000
0000
,  // measure 25
1000
0000
0000
0000
,  // measure 26
0010
0000
0000
0000
,  // measure 27
0100
0000
0000
0000
,  // measure 28
0001
0000
0001
0000
,  // measure 29
0001
0000
0001
0000
,  // measure 30
1001
0000
0000
0000
,  // measure 31
0110
0000
0000
0000
,  // measure 32
1001
0000
0000
0000
,  // measure 33
0000
0000
0000
0000
,  // measure 34
0110
0000
0000
0000
,  // measure 35
1001
0000
0000
0000
,  // measure 36
0110
0000
0000
0000
,  // measure 37
0000
0000
0000
0000
,  // measure 38
0100
0000
0000
0000
,  // measure 39
0010
0000
0000
0000
,  // measure 40
0001
0000
0000
0000
,  // measure 41
1000
0000
0000
0000
,  // measure 42
0010
0000
0000
0000
,  // measure 43
0100
0000
0000
0000
,  // measure 44
0001
0000
0000
0000
,  // measure 45
1001
0000
1001
0000
,  // measure 46
0001
0000
0000
0000
,  // measure 47
1000
0000
0000
0000
,  // measure 48
0010
0000
0000
0000
,  // measure 49
0100
0000
0000
0000
,  // measure 50
0010
0000
0000
0000
,  // measure 51
1000
0000
0000
0000
,  // measure 52
0001
0000
0000
0000
,  // measure 53
0100
0100
0100
0100
,  // measure 54
0100
0000
0000
0000
,  // measure 55
0010
0000
0000
0000
,  // measure 56
1000
0000
0000
0000
,  // measure 57
0001
0000
0000
0000
,  // measure 58
1000
0000
0000
0000
,  // measure 59
0010
0000
0000
0000
,  // measure 60
0100
0000
0000
0000
,  // measure 61
0010
0000
0000
0000
,  // measure 62
1000
0000
1000
0000
,  // measure 63
1000
0000
0000
0000
,  // measure 64
0001
0000
0001
0000
,  // measure 65
0001
0000
0000
0000
,  // measure 66
0100
0000
0100
0000
,  // measure 67
0100
0000
0000
0000
,  // measure 68
0010
0000
0010
0000
,  // measure 69
0010
0000
0000
0000
,  // measure 70
1001
0000
0000
0000
,  // measure 71
0110
0000
0000
0000
,  // measure 72
1001
0000
0000
0000
,  // measure 73
0000
0000
0000
0000
,  // measure 74
0110
0000
0000
0000
,  // measure 75
1001
0000
0000
0000
,  // measure 76
0110
0000
0000
0000
,  // measure 77
0000
0000
0000
0000
,  // measure 78
0000
0000
0000
0000
,  // measure 79
0000
0000
0000
0000
,  // measure 80
1000
0000
0000
0000
,  // measure 81
0000
0000
0000
0000
,  // measure 82
0001
0000
0000
0000
,  // measure 83
0000
0000
0000
0000
,  // measure 84
0100
0000
0000
0000
,  // measure 85
0000
0000
0000
0000
,  // measure 86
0010
0000
0000
0000
,  // measure 87
0000
0000
0000
0000
,  // measure 88
1000
0000
0000
0000
,  // measure 89
0000
0000
0000
0000
,  // measure 90
0010
0000
0000
0000
,  // measure 91
0000
0000
0000
0000
,  // measure 92
0100
0000
0000
0000
,  // measure 93
0000
0000
0000
0000
,  // measure 94
0001
0000
0000
0000
,  // measure 95
1000
0000
0000
0000
,  // measure 96
0010
0000
0000
0000
,  // measure 97
0100
0000
0000
0000
,  // measure 98
0001
0000
0000
0000
,  // measure 99
0010
0000
0000
0000
,  // measure 100
0100
0000
0000
0000
,  // measure 101
1000
0000
0000
0000
,  // measure 102
0100
0000
0000
0000
,  // measure 103
1000
0000
0000
0000
,  // measure 104
0001
0000
0000
0000
,  // measure 105
0100
0000
0000
0000
,  // measure 106
0010
0000
0000
0000
,  // measure 107
1000
0000
0000
0000
,  // measure 108
0001
0000
0000
0000
,  // measure 109
0100
0000
0000
0000
,  // measure 110
1001
0000
0000
0000
,  // measure 111
0000
0000
0000
0000
,  // measure 112
0000
0000
0000
0000
,  // measure 113
0000
0000
0000
0000
,  // measure 114
0010
0000
0000
0000
,  // measure 115
0100
0000
0000
0000
,  // measure 116
0001
0000
0000
0000
,  // measure 117
1001
0000
0000
0000
,  // measure 118
0000
0000
0000
0000
,  // measure 119
0000
0000
0000
0000
,  // measure 120
0000
0000
0000
0000
,  // measure 121
1000
0000
0000
0000
,  // measure 122
1000
0000
0000
0000
,  // measure 123
0000
0000
0010
0000
,  // measure 124
0000
0000
0000
0000
,  // measure 125
0010
0000
0000
0000
,  // measure 126
0100
0000
0000
0000
,  // measure 127
0000
0000
0000
0000
,  // measure 128
0010
0000
0000
0000
,  // measure 129
1001
0000
0000
0000
,  // measure 130
0000
0000
0000
0000
,  // measure 131
0000
0000
0000
0000
,  // measure 132
0000
0000
0000
0000
,  // measure 133
0010
0100
0010
0100
,  // measure 134
0010
0000
0100
0000
,  // measure 135
0010
0000
0000
0000
,  // measure 136
1001
0000
0000
0000
;
