#VERSION:0.83;
#TITLE:THE DEEP STRIKER;
#SUBTITLE:;
#ARTIST:L.E.D.-G;
#TITLETRANSLIT:;
#SUBTITLETRANSLIT:;
#ARTISTTRANSLIT:;
#GENRE:;
#ORIGIN:;
#CREDIT:;
#BANNER:banner.png;
#BACKGROUND:background.png;
#PREVIEWVID:;
#JACKET:jacket.png;
#CDIMAGE:;
#DISCIMAGE:;
#LYRICSPATH:;
#CDTITLE:;
#MUSIC:THE DEEP STRIKER.ogg;
#OFFSET:-0.100000;
#SAMPLESTART:19.501965;
#SAMPLELENGTH:9.710981;
#SELECTABLE:YES;
#BPMS:0.000=173.000;
#STOPS:;
#DELAYS:;
#WARPS:;
#TIMESIGNATURES:0.000=4=4;
#TICKCOUNTS:0.000=4;
#COMBOS:0.000=1;
#SPEEDS:0.000=1.000=0.000=0;
#SCROLLS:0.000=1.000;
#FAKES:;
#LABELS:0.000=Song Start;
#BGCHANGES:;
#KEYSOUNDS:;
#ATTACKS:
;

//---------------dance-single - ----------------
#NOTEDATA:;
#CHARTNAME:;
#STEPSTYPE:dance-single;
#DESCRIPTION:;
#CHARTSTYLE:;
#DIFFICULTY:Hard;
#METER:9;
#RADARVALUES:0.636954,0.830151,0.246336,0.213491,1.096194,543.000000,513.000000,30.000000,26.000000,16.000000,0.000000,0.000000,0.000000,0.000000,0.636954,0.830151,0.246336,0.213491,1.096194,543.000000,513.000000,30.000000,26.000000,16.000000,0.000000,0.000000,0.000000,0.000000;
#CREDIT:;
#NOTES:
0000
0000
0000
0000
,
0000
0000
0000
0000
,
0000
0000
0000
0000
,
0000
0000
0000
0000
,
1001
0001
0010
0100
,
1000
0001
0010
0001
,
1000
1000
0010
0100
,
0001
0001
0010
0001
,
1002
0013
2001
3010
,
1002
0103
2001
3100
,
1001
0000
0001
0100
0000
0100
0010
0000
0010
1000
0000
1000
,
0001
0010
0001
0010
0001
0010
0002
0000
0000
2003
0000
0000
,
0020
0000
0000
0000
,
3030
0000
0000
MMMM
,
0001
1000
0001
0100
0000
0001
0010
0000
0010
0001
0000
0001
,
1000
0010
1000
0100
0000
1000
0010
0000
0100
0001
0000
0010
,
0100
0010
0001
1000
0000
0001
0100
0000
0001
1000
0000
0100
,
0010
0100
1000
0010
0000
0100
0010
0000
0010
0100
0001
0010
,
0100
0010
0001
1000
0000
0001
0100
0000
0010
1000
0000
0100
,
1000
0001
0100
0010
0000
0100
0001
0000
0010
0200
0000
0000
,
0310
0011
0010
1010
,
0010
0000
0000
0110
0000
0000
1001
0000
1000
0000
0001
0010
,
0100
0010
0001
1000
0000
0010
1000
0000
0010
0100
0000
0010
,
1000
0001
0010
0100
0000
0010
0001
0000
0001
0200
0000
0000
,
0310
1000
0010
0100
0000
0010
1000
0000
0001
0010
0000
0100
,
0010
0001
0010
0001
0000
1000
0001
0000
0001
0200
0300
0200
,
0310
0100
0001
0100
0000
0010
1000
0000
0100
0010
0000
0100
,
1000
0001
0100
0010
0000
1000
0001
0000
0000
MMMM
0000
0000
,
1000
0010
0100
0001
0000
0000
0010
0100
1000
0001
0000
0000
,
1000
0000
0100
0010
0000
0010
0001
0000
0000
MMMM
0000
0000
,
1001
0000
0000
0000
0000
0001
0100
0000
0010
0100
0000
0010
,
0000
0000
1000
0000
0000
0010
1000
0000
1000
0002
0000
0000
,
0000
0000
0000
0003
0000
0010
0100
0000
0100
1000
0000
0010
,
0000
0000
0100
0000
0000
0010
0100
0000
0010
1000
0100
0010
,
0000
0000
0000
0000
0000
0100
0010
0000
0010
0100
0000
1000
,
0000
0000
0001
0000
0000
1000
1001
0000
0000
0120
0000
0000
,
0000
0000
0000
0030
0000
0100
0010
0000
0100
0001
0000
1000
,
0000
0000
0001
0000
0000
1000
0010
0000
0100
0001
0000
0010
,
0100
0000
0100
1000
0000
1000
0001
0000
0001
0100
0000
0100
,
0010
0000
0100
0001
0000
0001
1000
0000
1000
0020
0000
0000
,
1030
0000
1000
0001
0000
0001
0010
0000
0010
0100
0000
0010
,
0011
0000
1100
0000
0011
0000
2002
0000
0000
3003
0000
0000
,
1001
0000
0000
0101
0000
0010
1000
0000
0000
1100
0000
0100
,
0010
0000
0000
0011
0000
0010
0100
0000
0000
1100
0000
1000
,
0001
0000
1000
0100
0000
0010
0001
0000
0010
0100
0000
0010
,
0001
1000
0001
1000
0001
1000
0010
1000
0001
0010
0100
1000
,
0002
0000
0000
0000
,
0000
0000
0000
0000
,
0003
0000
0000
0000
,
0000
0000
0000
0000
,
0000
0000
0000
0000
,
0000
0000
0000
0000
,
0000
0000
0000
0000
,
0000
0000
0000
0000
,
1001
0100
0020
0230
,
0301
0010
0100
0010
,
0001
1000
0200
2300
,
3010
0100
0001
1000
,
0011
0000
0000
0000
0000
1000
0100
0000
1000
0001
0000
0001
,
1000
0000
0000
0000
0000
0010
1000
0000
0010
0100
0000
0100
,
0001
0000
0000
0000
0000
1000
1001
0000
0000
0000
0000
0001
,
0100
0010
1000
0001
0010
0100
0010
0100
1000
0010
0100
0001
,
1000
0000
0000
0000
,
0000
0000
0000
MMMM
,
0001
0100
0010
1000
0001
0010
0100
0000
0100
0010
0000
0010
,
0100
1000
0010
0100
0001
0010
0100
0010
0001
1000
0010
0100
,
0001
0100
0001
0100
0010
1000
0010
0000
1000
0001
0000
0001
,
0010
1000
0010
0001
0100
0010
1000
0100
0001
0100
0010
0001
,
1000
0000
1000
0000
0001
1000
0010
0000
0010
0100
0000
0100
,
0010
1000
0010
0100
0001
1000
0100
0010
0100
1000
0001
0100
,
0010
0010
1001
0100
,
1001
0000
1000
0100
0001
0100
0010
0000
0010
0000
0010
0100
,
1000
0001
0100
0001
0010
0100
0010
0000
0001
1000
0000
1000
,
0010
0100
0001
0010
0001
1000
0010
0100
0001
0010
0100
0010
,
0001
1000
0010
1000
0001
0010
0100
0000
0100
0010
0000
0010
,
0100
0001
0100
1000
0010
0100
0001
0010
1000
0010
0001
0010
,
0100
0010
0001
1000
0010
0100
0010
0000
0100
0010
0000
0010
,
0100
0010
0001
1000
0010
0100
0001
0010
0100
0010
0001
1000
,
0010
0000
1001
0000
,
0010
0100
0010
1000
0001
0010
0100
0000
0100
0000
0010
0001
,
1000
0100
0010
0001
1000
0100
0020
0000
0130
2000
0000
3001
,
1000
0100
0010
0001
1000
0100
0020
0000
0130
0010
0100
1000
,
0001
0100
0001
1000
0010
1000
0001
1000
0001
0010
0100
0010
,
0100
1000
0100
0020
0000
0030
1001
0000
0110
0000
0001
1000
,
0020
0030
0000
0000
;

//---------------dance-single - ----------------
#NOTEDATA:;
#CHARTNAME:;
#STEPSTYPE:dance-single;
#DESCRIPTION:;
#CHARTSTYLE:;
#DIFFICULTY:Challenge;
#METER:11;
#RADARVALUES:0.764814,0.864741,0.229913,0.057478,1.482120,652.000000,624.000000,28.000000,7.000000,15.000000,0.000000,12.000000,0.000000,0.000000,0.764814,0.864741,0.229913,0.057478,1.482120,652.000000,624.000000,28.000000,7.000000,15.000000,0.000000,12.000000,0.000000,0.000000;
#CREDIT:;
#NOTES:
0000
0000
0000
0000
,
0000
0000
0000
0000
,
0000
0000
0000
0000
,
0000
0000
0000
0000
,
1002
1003
0100
0010
,
0001
0010
0100
0010
,
0001
1000
0010
1000
0000
0001
1000
0000
1000
0001
0000
0010
,
0001
1000
0001
0100
0000
0001
1000
0000
1000
0001
0000
0001
,
0010
1000
0010
0001
0000
0100
0010
0000
1000
0010
0000
1000
,
0010
0001
0010
0100
0000
0010
1000
0000
1000
0010
0000
0000
,
0100
0000
0010
1000
0000
0001
0100
0000
0001
0010
0000
0100
,
1000
0010
0100
0001
0010
0100
4000
0000
3000
0004
0000
0003
,
0440
0000
0000
0000
,
0000
0000
0000
0000
0000
0000
0000
0000
0330
MMMM
0000
0000
,
1000
0001
0010
0100
0000
0010
0001
0000
0100
0010
0000
1000
,
0001
0010
0001
1000
0000
0100
1100
0000
1000
1010
0000
0010
,
0100
0010
1000
0001
0000
0010
0001
0000
0100
0010
0000
1000
,
0001
0010
0100
0010
0000
0100
1000
0000
0100
0010
0001
1000
,
0010
0100
0001
1000
0000
0001
0010
0000
0100
1000
0000
0100
,
1000
0001
0100
0001
0000
1000
1001
0000
1000
0040
0000
0030
,
0110
0101
0011
0110
,
1100
0000
0000
0011
0000
0000
1001
0000
0001
0000
0001
1000
,
0010
1000
0001
0010
0000
0100
0010
0000
0100
1000
0000
0100
,
1000
0010
0100
0001
0000
1000
0001
0000
0010
0400
0000
0000
,
1300
0010
1000
0001
0000
1000
0010
0000
0100
0001
0000
0010
,
0100
0010
0001
1000
0000
0010
1000
0000
0001
4000
3000
0004
,
0103
1000
0100
0010
0000
0100
0001
0000
0010
0100
0000
0010
,
0001
0100
0010
1000
0000
0100
1000
0000
0010
MM0M
0000
0000
,
1000
0010
0100
0001
0000
1000
0001
0000
0010
0100
0000
0010
,
0001
0100
0001
1000
0000
0001
1000
0000
0000
MMMM
0000
0000
,
0101
0000
0000
0000
0000
0001
0100
0000
0010
1000
0000
0100
,
0000
0000
1000
0000
0000
0100
0010
0000
0010
0200
0000
0000
,
0000
0000
0000
0000
0000
0310
0100
0000
0010
0001
0000
1000
,
0000
0000
0001
0000
0000
1000
0010
0000
1000
0100
0010
0100
,
0000
0000
0000
0000
0000
0010
0100
0000
0010
0001
0000
1000
,
0000
0000
0001
0000
0000
0100
0101
0000
0000
1010
0000
0000
,
0000
0000
0000
0000
0000
1000
0010
0000
0100
0001
0000
0010
,
0000
0000
0100
0000
0000
0010
0001
0000
0001
0010
0100
1000
,
0001
0000
0001
1000
0000
1000
0010
0000
0010
0100
0000
0100
,
0001
0000
0001
0010
0000
0010
0100
0000
0100
1000
0000
1000
,
0001
0000
0001
0100
0000
0100
0010
0000
1000
0001
0000
0001
,
0011
0000
0110
0000
1100
0000
2002
0000
0000
3003
0000
0000
,
0001
0100
0001
0100
0000
0010
1000
0000
0100
0010
0000
0100
,
1000
0001
1000
0001
0000
0100
0001
0000
0010
0100
0000
0010
,
0001
0100
0010
1000
0000
0010
1000
0001
0010
0100
0000
0010
,
0001
0100
0010
1000
0001
0010
0100
1000
0004
0400
0000
0000
,
0303
0000
0000
0000
,
0000
0000
0000
0000
,
0000
0000
0000
0000
,
0000
0000
0000
0000
,
0010
0000
0010
0000
0100
0001
0010
0000
0010
0000
0010
0001
,
1000
0001
0100
0001
1000
0010
1000
0001
0010
0100
1000
0001
,
0010
0100
0010
0001
0010
0100
1000
0000
1000
0001
0000
0001
,
0100
0010
1000
0001
0010
0100
0020
0000
0000
0000
0000
0000
,
0130
1000
0010
0100
0010
1000
0100
0000
1000
0010
0000
0010
,
0100
0001
1000
0100
1000
0010
0100
0001
0010
0100
1000
0001
,
0100
0001
0010
0100
0010
0001
1000
0000
1000
0001
0000
0001
,
0010
0100
0010
0001
0100
0010
1000
0100
0010
0100
1000
0001
,
0100
0000
0000
0000
0000
0001
0001
0000
1000
1000
0000
0001
,
1001
0000
0000
0000
0000
1000
1000
0000
0001
0001
0000
1000
,
1001
0000
0000
0000
0000
0001
1001
0000
0000
0000
0000
1000
,
1001
0000
0000
0000
0001
0000
0000
0000
0100
0000
0000
0000
0010
0000
0000
0100
0000
0000
0010
0000
0000
0100
0000
0000
0010
0000
0000
0000
1000
0000
0000
0000
0010
0000
0000
0000
0100
0000
0000
0001
0000
0000
0100
0000
0000
0001
0000
0000
,
0101
0000
0000
0000
,
0000
0000
0000
MMMM
,
0001
0100
0010
1000
0100
0001
0100
0000
0010
0100
0000
0100
,
0010
0001
0010
0001
0100
0001
0100
0010
1000
0001
0010
0100
,
1000
0001
0100
0010
1000
0100
0001
0000
0001
0100
0000
0100
,
0010
0010
0100
1000
0010
0100
0001
0001
1000
0100
0010
0001
,
1000
0000
1000
0000
1000
0001
0010
0000
0010
0000
0010
0100
,
0010
0001
0100
0010
1000
0001
0010
0100
0010
0001
1000
0010
,
0100
0010
1000
0010
0100
0010
1000
0000
1000
0001
0000
0001
,
0010
0000
0000
0000
0000
0000
0000
0000
0100
0000
0000
0000
1000
0000
0000
0001
0000
0000
1000
0000
0000
0001
0000
0000
1000
0000
0000
0000
0000
0000
0000
0000
1000
0000
0000
0000
0000
0000
0000
0000
1000
0000
0000
0000
0001
0000
0000
0000
,
0010
0100
0010
0001
0100
1000
0100
0000
0100
0100
0000
0010
,
0100
0001
1000
0100
0010
0100
1000
0001
0010
0100
0010
0001
,
1000
0001
0100
0001
1000
0010
0100
0000
0010
0010
0000
0010
,
0100
0100
0010
1000
0001
0010
0100
0100
0010
0001
1000
0100
,
0010
0000
0100
0010
0001
1000
0010
0000
1000
1000
0000
0100
,
1000
1000
0100
1000
0001
0010
0100
0010
0001
1000
0010
1000
,
0100
0010
0100
1000
0100
0010
0100
0000
0010
0010
0000
0010
,
0001
0000
0000
0000
0100
0000
0000
0000
0010
0000
0000
0000
1000
0000
0000
0001
0000
0000
1000
0000
0000
0001
0000
0000
0100
0000
0000
0000
0000
0000
0000
0000
0100
0000
0000
0000
0000
0000
0000
0000
0100
0000
0000
0000
0010
0000
0000
0000
,
1000
0100
0001
0100
1000
0100
0001
0000
0100
0010
0000
0010
,
0100
1000
0100
0001
0100
1000
0100
0000
0010
0100
0010
0100
,
0010
0001
0010
1000
0010
0001
0100
1000
0100
0001
0100
1000
,
0100
0010
1000
4004
0000
3003
0011
0000
1100
0000
0001
1000
,
0220
0330
0000
0000
;

//---------------dance-single - ----------------
#NOTEDATA:;
#CHARTNAME:;
#STEPSTYPE:dance-single;
#DESCRIPTION:;
#CHARTSTYLE:;
#DIFFICULTY:Easy;
#METER:5;
#RADARVALUES:0.341351,0.551792,0.418771,0.090323,0.008211,291.000000,240.000000,51.000000,11.000000,0.000000,0.000000,0.000000,0.000000,0.000000,0.341351,0.551792,0.418771,0.090323,0.008211,291.000000,240.000000,51.000000,11.000000,0.000000,0.000000,0.000000,0.000000,0.000000;
#CREDIT:;
#NOTES:
0000
0000
0000
0000
,
0000
0000
0000
0000
,
0000
0000
0000
0000
,
0000
0000
0000
0000
,
1001
0001
0010
0100
,
1000
0001
0010
0100
,
0010
0010
0001
0001
,
1000
1000
0100
0100
,
1001
0000
0110
0000
,
1001
0000
0110
0000
,
1001
1001
1001
1001
,
1001
0110
0002
2003
,
3010
0000
0000
0000
,
0000
0000
0000
0000
,
1000
0001
0010
0010
,
0001
1000
1100
1100
,
1000
0010
0100
0100
,
0010
1000
0002
2003
,
3100
1000
0010
0100
,
0001
0010
0100
0011
,
0001
0100
0001
1000
,
0100
1000
1001
1001
,
0001
0100
0001
1000
,
0100
0010
0001
1100
,
0100
1000
0010
0100
,
0001
1000
0010
1001
,
0001
1000
0010
1000
,
0100
0010
0100
0000
,
0010
0001
0100
1000
,
0100
0010
1000
1001
,
1001
0000
0001
1000
,
0010
1000
0100
0100
,
0000
0000
1000
0100
,
1000
0010
0100
0001
,
0000
0000
0010
0001
,
1000
0100
0110
1001
,
0000
0000
1000
0001
,
0100
0001
0010
0100
,
0010
0010
0001
0001
,
1000
1000
0100
0100
,
1000
1000
0001
0001
,
2002
0000
3003
0000
,
0110
0010
1000
0010
,
0110
0100
0001
0010
,
0110
0100
0110
0010
,
0110
1001
0110
1001
,
0220
0000
0000
0000
,
0000
0000
0000
0000
,
0330
0000
0000
0000
,
0000
0000
0000
0000
,
0000
0000
0000
0000
,
0000
0000
0000
0000
,
0000
0000
0000
0000
,
0000
0000
0000
0000
,
1001
0000
1000
0000
,
0001
0000
0100
0000
,
0010
0000
1000
0000
,
0010
0000
0100
0000
,
1001
0000
0000
0000
,
0110
0000
0000
0000
,
1001
0000
0110
0000
,
1001
0110
1001
0110
,
1001
0000
0000
0000
,
0000
0000
0000
0000
,
0001
1000
0010
0010
,
1000
0100
1000
0001
,
0100
0001
0010
0010
,
0100
0010
0001
1000
,
0001
0100
0001
1000
,
0100
0100
1000
0010
,
0110
0000
1001
0000
,
0110
1001
0110
1001
,
0101
0001
0100
0100
,
0001
1000
0100
0010
,
0100
1000
0010
0010
,
1000
1000
0001
0010
,
0100
0010
0001
0001
,
0010
0001
0100
0010
,
1000
0001
0100
0010
,
1000
0001
0200
0000
,
0300
0010
2000
0000
,
3010
0100
0002
0000
,
1003
0100
0010
0100
,
1000
0000
0000
1001
0000
0000
0001
0000
1000
0000
0010
0000
,
0110
0000
0000
0000
;

//---------------dance-single - ----------------
#NOTEDATA:;
#CHARTNAME:;
#STEPSTYPE:dance-single;
#DESCRIPTION:;
#CHARTSTYLE:;
#DIFFICULTY:Medium;
#METER:7;
#RADARVALUES:0.438712,0.657203,0.279181,0.172435,0.340764,374.000000,340.000000,34.000000,21.000000,0.000000,0.000000,0.000000,0.000000,0.000000,0.438712,0.657203,0.279181,0.172435,0.340764,374.000000,340.000000,34.000000,21.000000,0.000000,0.000000,0.000000,0.000000,0.000000;
#CREDIT:;
#NOTES:
0000
0000
0000
0000
,
0000
0000
0000
0000
,
0000
0000
0000
0000
,
0000
0000
0000
0000
,
1001
1000
0100
0010
,
0001
1000
0100
0010
,
0100
1000
0100
0001
,
0100
1000
0100
0010
,
1001
0010
1001
0100
,
1001
0010
1001
0100
,
1001
0110
1001
0110
,
0001
0000
1000
0001
0000
0001
0020
0000
0000
0230
0000
0000
,
0320
0000
0000
0000
,
0030
0000
0000
1001
,
1000
0001
0010
0001
,
0100
0000
0000
0010
0000
0100
0010
0000
0100
0001
0000
0001
,
1000
0001
0010
0100
,
0010
0000
0000
0001
0000
0000
1000
0000
0001
0010
0100
1000
,
0001
1000
0010
1000
,
0100
0010
0100
2000
,
3010
1010
1000
0011
,
0001
0000
1000
0001
0000
0001
0010
0000
0010
0100
0000
0000
,
0010
0001
0100
0010
,
1000
0001
0010
2100
,
3010
0100
0001
0010
,
0100
0000
0000
0010
0000
0000
0001
0000
0000
2000
3000
0002
,
0103
0010
1000
0100
,
0001
0100
0010
1001
,
0001
0100
0001
1000
,
0100
1000
0001
0110
,
1001
1000
0010
0100
,
0010
1000
1010
0202
,
0000
0303
0001
0100
,
0010
0001
1001
0202
,
0303
0000
0001
0100
,
0010
1000
1001
0220
,
0330
0000
0010
1000
,
1010
0010
0110
1001
,
0001
1000
0010
1000
,
0100
1000
0010
0100
,
0001
1000
0010
0100
,
1001
0000
0001
0000
0001
0000
2000
0000
0000
3000
0000
0000
,
0001
0000
0100
0001
0000
0000
0010
0000
1000
0010
0000
0000
,
0100
0000
0001
1000
0000
0000
0010
0000
0100
0001
0000
0000
,
1000
0000
0001
0100
0000
0010
1000
0000
0100
0010
0000
0100
,
1000
0000
0010
0100
0000
0001
0020
0000
0000
0230
0000
0000
,
1300
0000
0000
0000
,
0000
0000
0000
0000
,
0000
0000
0000
0000
,
0000
0000
0000
0000
,
0000
0000
0000
0000
,
0000
0000
0000
0000
,
0000
0000
0000
0000
,
0000
0000
0000
0000
,
1001
0001
1000
1000
,
0010
0100
0010
1000
,
0010
0100
0001
0001
,
0100
0010
1000
0001
,
1001
0000
0000
0000
0000
0010
0100
0000
0010
0100
0000
0010
,
0100
0000
0000
0000
0000
0010
1000
0000
0001
0100
0000
0010
,
1000
0000
0000
0000
0000
0010
1000
0000
0000
0000
0000
0010
,
1000
0000
1000
0001
0000
0001
0010
0000
0010
0200
0000
0000
,
1300
0000
0000
0000
,
0000
0000
0000
1001
,
0001
0100
0010
1000
,
0010
0000
1000
0001
0000
0100
0010
0000
1000
0001
0000
0100
,
0010
1000
0010
0100
,
0001
0000
0001
0010
0000
0010
0100
0000
0100
1000
0000
1000
,
0100
1000
0010
0100
,
0001
0000
0001
0100
0000
0100
0010
0000
0010
1000
0000
1000
,
0001
0000
1001
0000
,
0110
0000
0000
0001
0000
0000
0100
0000
0100
0000
0100
0000
,
0010
1000
0010
1000
,
0001
0000
0001
1000
0000
1000
0010
0000
0010
0100
0000
0100
,
0001
1000
0100
0100
,
1000
0000
1000
0100
0000
0100
0010
0000
0010
0001
0000
0001
,
0010
0100
0010
0001
,
1000
0000
1000
0001
0000
0001
0100
0000
0100
0010
0000
0010
,
1000
0000
0101
0000
,
0001
0000
1000
0001
1000
0001
0100
0000
0100
0000
0100
0000
,
0010
1000
0010
1000
0010
1000
0002
0000
0000
0000
0000
0000
,
0013
0001
0010
0001
0010
0001
2000
0000
0000
0000
0000
0000
,
3001
0100
0001
0100
0000
0000
0010
1000
0010
1000
0000
0000
,
0001
1000
0010
0200
0000
0300
0110
0000
1010
0000
0001
1000
,
0020
0030
0000
0000
;

//---------------dance-single - ----------------
#NOTEDATA:;
#CHARTNAME:;
#STEPSTYPE:dance-single;
#DESCRIPTION:;
#CHARTSTYLE:;
#DIFFICULTY:Beginner;
#METER:2;
#RADARVALUES:0.129033,0.241409,0.073901,0.000000,0.000000,110.000000,101.000000,9.000000,0.000000,0.000000,0.000000,0.000000,0.000000,0.000000,0.129033,0.241409,0.073901,0.000000,0.000000,110.000000,101.000000,9.000000,0.000000,0.000000,0.000000,0.000000,0.000000,0.000000;
#CREDIT:;
#NOTES:
0000
0000
0000
0000
,
0000
0000
0000
0000
,
0000
0000
0000
0000
,
0000
0000
0000
0000
,
1000
0000
0000
0000
,
0000
0000
0000
0000
,
0001
0000
0000
0000
,
0000
0000
0000
0000
,
0100
0000
0000
0000
,
0010
0000
0000
0000
,
1000
0000
0001
0000
,
0100
0000
0010
0000
,
1001
0000
0000
0000
,
0000
0000
0000
0000
,
1000
0000
0000
0000
,
0010
0000
0000
0000
,
0100
0000
0000
0000
,
0001
0000
1000
0000
,
0001
0000
0000
0000
,
0010
0000
0000
0000
,
0100
0000
0010
0000
,
0001
0000
1000
0000
,
0001
0000
0000
0000
,
1000
0000
0000
0000
,
0010
0000
0000
0000
,
0100
0000
0000
0000
,
0001
0000
0000
0000
,
1000
0000
0000
0000
,
0010
0000
0000
0000
,
0100
0000
0010
0000
,
1001
0000
0000
0000
,
1000
0000
0000
0000
,
0001
0000
0000
0000
,
0100
0000
0010
0000
,
0100
0000
0000
0000
,
0001
0000
1000
1000
,
0000
0000
0001
0000
,
1000
0000
0000
0000
,
0010
0000
0000
0000
,
0100
0000
0000
0000
,
0001
0000
0000
0000
,
1001
0000
0000
0000
,
1000
0000
0000
0000
,
0100
0000
0000
0000
,
1000
0000
0001
0000
,
0100
0000
0010
0000
,
1001
0000
0000
0000
,
0000
0000
0000
0000
,
0000
0000
0000
0000
,
0000
0000
0000
0000
,
0000
0000
0000
0000
,
0000
0000
0000
0000
,
0000
0000
0000
0000
,
0000
0000
0000
0000
,
1000
0000
0000
0000
,
0001
0000
0000
0000
,
0100
0000
0000
0000
,
0010
0000
0000
0000
,
1001
0000
0000
0000
,
1000
0000
0000
0000
,
0001
0000
1000
0000
,
0010
0000
0100
0000
,
1001
0000
0000
0000
,
0000
0000
0000
0000
,
1001
0000
0001
0000
,
1000
0000
0000
0000
,
0010
0000
0100
0000
,
0001
0000
0000
0000
,
1000
0000
0001
0000
,
1000
0000
0000
0000
,
0010
0000
0010
0000
,
0100
0100
0100
0000
,
0010
0000
1000
0000
,
0100
0000
0000
0000
,
0010
0000
0001
0000
,
0100
0000
0000
0000
,
0010
0000
1000
0000
,
0001
0000
0000
0000
,
1000
0000
0001
0000
,
0010
0010
0010
0000
,
0001
0001
0001
0000
,
1000
1000
1000
0000
,
0010
0000
0100
0000
,
0001
0000
1001
0000
,
0110
0000
0000
0000
;

//---------------dance-double - ----------------
#NOTEDATA:;
#CHARTNAME:;
#STEPSTYPE:dance-double;
#DESCRIPTION:;
#CHARTSTYLE:;
#DIFFICULTY:Challenge;
#METER:9;
#RADARVALUES:0.647511,0.862175,0.312025,0.114957,1.100300,552.000000,514.000000,38.000000,14.000000,0.000000,0.000000,0.000000,0.000000,0.000000,0.647511,0.862175,0.312025,0.114957,1.100300,552.000000,514.000000,38.000000,14.000000,0.000000,0.000000,0.000000,0.000000,0.000000;
#CREDIT:;
#NOTES:
// measure 0
00000000
00000000
00000000
00000000
,  // measure 1
00000000
00000000
00000000
00000000
,  // measure 2
00000000
00000000
00000000
00000000
,  // measure 3
00000000
00000000
00000000
00000000
,  // measure 4
10000000
10000000
01000000
01000000
,  // measure 5
00100000
00100000
00010000
00010000
,  // measure 6
00100000
00001000
00020000
00030100
,  // measure 7
00001000
00000010
00000200
00000301
,  // measure 8
00001001
00000010
00001001
00000100
,  // measure 9
00001001
00000010
00001001
00000100
,  // measure 10
00000101
00000110
00001010
00001100
,  // measure 11
00000100
00010000
00001000
00100000
01000000
00100000
00020000
00000000
00000000
20030000
00000000
00000000
,  // measure 12
00200000
00000000
00000000
00000000
,  // measure 13
00000000
00000000
00000000
30300000
,  // measure 14
00010000
01000000
00010000
00100000
00000000
00100000
00001000
00000000
00001000
00010000
00000000
00010000
,  // measure 15
00000100
00001000
00000010
00000100
00000000
00000001
00000011
00000000
00000000
00001100
00000000
00001000
,  // measure 16
00000001
00000100
00000001
00000010
00000000
00000100
00000010
00000000
00000001
00000100
00000000
00000010
,  // measure 17
00001000
00000100
00010000
00001000
00000000
00010000
00001000
00000000
00001000
01000000
10000000
01000000
,  // measure 18
00100000
10000000
00010000
00100000
00000000
01000000
00100000
00000000
00100000
00010000
00000000
00010000
,  // measure 19
00000100
00001000
00000010
00000100
00000000
00000001
00000010
00000000
00000010
00000200
00000000
00000000
,  // measure 20
00000310
00001100
00000001
00001010
,  // measure 21
00010010
00000000
00000000
00010100
00000000
00000000
00011000
00000000
00000000
00101000
00000000
00100000
,  // measure 22
00001000
01000000
00100000
10000000
00000000
01000000
10000000
00000000
01000000
00100000
00000000
00100000
,  // measure 23
00010000
01000000
00001000
00010000
00000000
00000010
00001000
00000000
00000010
00000200
00000000
00000000
,  // measure 24
00000301
00000010
00000100
00000010
00000000
00000001
00000100
00000000
00000010
00001000
00000000
00000100
,  // measure 25
00010000
00000100
01000000
00100000
00000000
10000000
00010000
00000000
00100000
02000000
03000000
02000000
,  // measure 26
03100000
00001000
00010000
00000100
00000000
00001000
00000010
00000000
00000100
00000001
00000000
00000010
,  // measure 27
00000001
00000100
00000010
00001000
00000000
00000100
00010000
00000000
00001000
00011000
00000000
00000000
,  // measure 28
00001000
00100000
00001000
01000000
00000000
00100000
10000000
00000000
00010000
00100000
00000000
01000000
,  // measure 29
00100000
00000000
00100000
00001000
00000000
00010000
00011000
00000000
00000000
00010100
00000000
00000000
,  // measure 30
00001100
00000000
00000000
00000000
00000000
00001000
00000010
00000000
00000100
00000001
00000000
00001000
,  // measure 31
00000000
00000000
00000001
00000000
00000000
00000010
00000001
00000000
00001000
00000200
00000000
00000000
,  // measure 32
00000000
00000000
00000000
00000000
00000000
00001300
00000010
00000000
00000010
00010000
00000000
00001000
,  // measure 33
00000000
00000000
00001000
00010000
00000000
00010000
00000100
00000000
00010000
00001000
01000000
00100000
,  // measure 34
00000000
00000000
00000000
00000000
00000000
01000000
00100000
00000000
10000000
00010000
00000000
00100000
,  // measure 35
00000000
00000000
01000000
00000000
00000000
00100000
00110000
00000000
00000000
11000000
00000000
00000000
,  // measure 36
10010000
00000000
00000000
00000000
00000000
10000000
00010000
00000000
00010000
00100000
00000000
00001000
,  // measure 37
00000000
00000000
00010000
00000000
00000000
00000100
00001000
00000000
00000001
00000010
00000000
00000001
,  // measure 38
00000100
00000000
00000000
00000000
00000000
00000010
00000100
00000000
00000010
00001000
00000000
00000100
,  // measure 39
00000000
00000000
00001000
00000000
00000000
00000100
00001000
00000000
00000100
00010000
00001000
00100000
,  // measure 40
00000000
00000000
00000000
00000000
00000000
00100000
01000000
00000000
01000000
00100000
00010000
10000000
,  // measure 41
10100000
00000000
00100000
00000000
10100000
00000000
01010000
00000000
00000000
00000000
00000000
00000000
,  // measure 42
10010000
00000000
10000000
01000000
00000000
01000000
00100000
00000000
00100000
00010000
00000000
00010000
,  // measure 43
01000000
00000000
01000000
00001000
00000000
00001000
00010000
00000000
00010000
00000100
00000000
00000100
,  // measure 44
00001000
00000000
00001000
00000010
00000000
00000010
00000100
00000000
00000100
00000001
00000000
00000001
,  // measure 45
00000010
00000001
00000100
00000010
00001000
00000100
00010000
00001000
00100000
00020000
00000000
00000000
,  // measure 46
01030000
00000000
00000000
00000000
,  // measure 47
00000000
00000000
00000000
00000000
,  // measure 48
00000000
00000000
00000000
00000000
,  // measure 49
00000000
00000000
00000000
00000000
,  // measure 50
00000000
00000000
00000000
00000000
,  // measure 51
00000000
00000000
00000000
00000000
,  // measure 52
00000000
00000000
00000000
00000000
,  // measure 53
00000000
00000000
00000000
00000000
,  // measure 54
10010000
10000000
00100000
00100000
,  // measure 55
01000000
00010000
00100000
00001000
,  // measure 56
00010000
00000100
00001000
00001000
,  // measure 57
00000100
00001000
00000010
00000100
,  // measure 58
00000101
00000000
00000000
00000000
00000000
00000001
00000100
00000000
00000100
00000010
00000000
00000010
,  // measure 59
00001000
00000000
00000000
00000000
00000000
00000100
00001000
00000000
00001000
00000100
00000000
00000100
,  // measure 60
00010100
00000000
00000000
00000000
00000000
00000100
00010100
00000000
00000000
00000000
00000000
00000100
,  // measure 61
00010000
00001000
00100000
00010000
01000000
00100000
10000000
01000000
00010000
01000000
00100000
00010000
,  // measure 62
00100000
00000000
00000000
00000000
,  // measure 63
00000000
00000000
00000000
00000000
,  // measure 64
10000000
00010000
00100000
00010000
01000000
00001000
00010000
00000000
00010000
00001000
00000000
00001000
,  // measure 65
00010000
00000100
00001000
00000010
00000100
00000001
00000010
00000100
00000010
00000001
00000100
00000010
,  // measure 66
00001000
00000010
00001000
00000100
00010000
00001000
00100000
00000000
00100000
00010000
00000000
00010000
,  // measure 67
01000000
10000000
01000000
00010000
00100000
00001000
00010000
00000100
00001000
00000001
00000010
00000100
,  // measure 68
00001000
00000000
00001000
00000000
00001000
00000010
00000100
00000000
00000100
00000000
00000100
00000010
,  // measure 69
00001000
00000001
00000010
00000001
00000100
00000010
00001000
00000100
00010000
00001000
01000000
00100000
,  // measure 70
10000000
01000000
00010000
01000000
00100000
00010000
01000000
00000000
01000000
00100000
00000000
00100000
,  // measure 71
01000000
00010000
00100000
00001000
00010000
00000010
00000200
00000000
00000000
00000000
00000000
00000000
,  // measure 72
00000310
00001000
00000100
00001000
00000010
00000100
00000010
00000000
00000100
00000001
00000000
00000001
,  // measure 73
00001000
00000010
00001000
00000100
00010000
00001000
00100000
01000000
00100000
00010000
01000000
00100000
,  // measure 74
10000000
00010000
00100000
01000000
00100000
00010000
01000000
00000000
00100000
10000000
00000000
00010000
,  // measure 75
01000000
10000000
01000000
00010000
00100000
00001000
00010000
00000100
00001000
00000010
00000100
00000001
,  // measure 76
00000010
00000000
00000100
00000010
00000001
00000100
00000010
00000000
00001000
00000010
00000000
00000010
,  // measure 77
00000100
00000010
00001000
00000100
00010000
00001000
00100000
00010000
01000000
00100000
10000000
01000000
,  // measure 78
01100000
00000000
10010000
00000000
,  // measure 79
01100000
00000000
01000000
00100000
10000000
00010000
00110000
00000000
00010000
00100000
01000000
10000000
,  // measure 80
00010000
00100000
00001000
00010000
00000100
00001000
00000020
00000000
00000130
00000010
00000000
00000100
,  // measure 81
00000010
00001000
00000100
00010000
00001000
01000000
00200000
00000000
01300000
00100000
10000000
01000000
,  // measure 82
00100000
00001000
00010000
00000100
00001000
00000010
00010000
00001000
00100000
00010000
01000000
00100000
,  // measure 83
10000000
01000000
00100000
00110000
00000000
00000000
00110000
00000000
00001010
00000000
00000010
00010000
,  // measure 84
00001000
00000000
00000000
00000000
;
