#VERSION:0.83;
#TITLE:Sweet Little Chocolate;
#SUBTITLE:;
#ARTIST:uma;
#TITLETRANSLIT:;
#SUBTITLETRANSLIT:;
#ARTISTTRANSLIT:;
#GENRE:;
#ORIGIN:;
#CREDIT:;
#BANNER:banner.png;
#BACKGROUND:background.png;
#PREVIEWVID:;
#JACKET:jacket.png;
#CDIMAGE:;
#DISCIMAGE:;
#LYRICSPATH:;
#CDTITLE:;
#MUSIC:Sweet Little Chocolate.ogg;
#OFFSET:-0.001000;
#SAMPLESTART:24.006668;
#SAMPLELENGTH:11.646374;
#SELECTABLE:YES;
#BPMS:0.000=170.010;
#STOPS:;
#DELAYS:;
#WARPS:;
#TIMESIGNATURES:0.000=4=4;
#TICKCOUNTS:0.000=4;
#COMBOS:0.000=1;
#SPEEDS:0.000=1.000=0.000=0;
#SCROLLS:0.000=1.000;
#FAKES:;
#LABELS:0.000=Song Start;
#BGCHANGES:;
#KEYSOUNDS:;
#ATTACKS:
;

//---------------dance-single - ----------------
#NOTEDATA:;
#CHARTNAME:;
#STEPSTYPE:dance-single;
#DESCRIPTION:;
#CHARTSTYLE:;
#DIFFICULTY:Hard;
#METER:7;
#RADARVALUES:0.434664,0.594041,0.196025,0.536938,0.213071,357.000000,334.000000,23.000000,63.000000,0.000000,0.000000,2.000000,0.000000,0.000000,0.434664,0.594041,0.196025,0.536938,0.213071,357.000000,334.000000,23.000000,63.000000,0.000000,0.000000,2.000000,0.000000,0.000000;
#CREDIT:;
#NOTES:
0000
0000
0000
0000
,
0000
0000
0000
0000
,
0000
0000
0000
0000
,
0000
0000
0000
0000
,
0000
0000
0000
0000
,
0000
0000
0000
0000
,
0000
0000
0000
0000
,
0000
0000
0000
0000
,
0000
0000
0000
0000
,
0020
0000
0000
0000
0000
0130
0002
0000
,
2003
0000
3100
1000
0020
0000
0230
0000
,
0302
0000
2003
3200
,
0320
0000
0230
0000
0310
0001
2000
0000
,
3020
0000
0000
0000
0000
0000
0130
0001
,
2000
0000
3002
0000
2000
0000
0000
3003
,
0002
0000
0000
0203
0000
0000
0320
0000
,
2030
0000
3200
0310
,
1001
0000
0000
1000
0000
0000
0001
0000
0100
0000
0000
0001
0000
0000
1000
0000
,
0100
0000
0000
0000
1000
0000
0000
0000
0100
0000
0000
1000
0000
0000
0010
0000
,
0100
0000
0000
0000
0010
0000
0000
0000
0100
0000
0000
0001
0000
0000
0010
0000
,
0100
0000
0000
0010
0000
0000
0001
0000
2000
0000
0000
0000
3000
0000
0001
0000
,
0100
0000
0000
0100
0000
0000
0001
0000
1000
0000
0000
1000
0000
0000
0100
0000
,
1000
0000
0000
0000
0010
0000
0000
0000
0100
0000
0000
0010
0000
0000
0100
0000
,
0001
0000
0000
0000
1000
0000
0000
0000
0010
0000
0000
0100
0000
0000
0001
0000
,
1000
0000
0000
0100
0000
0000
0001
0000
0200
0000
0000
0000
0300
0000
0000
0000
,
0110
0000
0000
0011
0000
0000
0100
0000
1100
0000
0000
0000
1001
0000
0000
0000
,
0100
0000
0001
0000
0100
0000
0001
0010
,
0100
0010
0001
0100
,
0010
0000
0000
1000
0000
0000
0100
0000
2000
0000
0000
0000
3000
0000
0100
0000
,
1000
0000
0000
1000
0000
0000
0001
0000
0100
0000
0000
0100
0000
0000
0001
0000
,
0010
0000
0000
0000
0100
0000
0000
0000
0010
0000
0000
0001
0000
0000
0100
0000
,
0010
0000
0000
0000
1000
0000
0000
0000
0010
0000
0000
0100
0000
0000
0010
0000
,
1001
0000
0000
0101
0000
0000
0100
0000
0210
0000
0000
0000
0300
0000
0000
0000
,
0001
1000
0010
0000
1000
0001
0010
0000
,
0001
1000
0010
0000
1000
0001
0010
0000
,
0001
1000
0010
0000
1000
0001
0010
0000
,
0001
1000
0010
0000
1000
0001
0010
0000
,
0000
0000
1001
0000
0001
1000
0100
0000
,
1000
0001
0100
0000
0001
1000
0100
0000
,
1000
0001
0100
0000
0001
1000
0100
0000
,
1000
0001
0100
0000
0001
1000
0100
0000
,
0020
0000
0000
0000
0000
0130
2000
0000
,
3010
0000
0100
0010
1000
0000
0001
0000
,
2000
0000
3200
2300
,
3020
0000
0230
0000
0310
1000
0001
0000
,
0020
0000
0000
0000
0000
0000
0130
0010
,
0002
0023
0032
0000
,
2003
0000
0000
3002
0000
0000
0203
0000
,
0320
0000
0000
0000
0200
0000
0000
0330
,
1001
0000
1000
0000
0000
1000
0000
0000
1000
0000
0000
1000
0000
0000
1000
0000
,
0000
0000
0001
0000
0000
0001
0000
0000
0001
0000
0000
0001
0000
0000
0001
0000
,
0000
0000
0100
0000
0000
0100
0000
0000
0100
0000
0000
0100
0000
0000
0100
0000
,
0000
0000
0010
0000
0000
0010
0000
0000
0010
0000
0000
0010
0000
0000
0010
0000
,
0000
0000
1000
0000
0000
0010
0000
0000
0100
0000
0000
0001
0000
0000
1000
0000
,
0000
0000
0001
0000
0000
0010
0000
0000
0100
0000
0000
1000
0000
0000
0100
0000
,
0000
0000
1000
0000
0000
0010
0000
0000
0100
0000
0000
0001
0000
0000
1000
0000
,
0001
0000
0000
0010
0000
0000
0001
0000
0100
0000
0000
0010
0000
0000
1000
0000
,
0002
0000
0000
0000
0000
1003
0020
0000
,
0230
0000
0310
0100
0002
0000
2003
0000
,
3200
0000
2300
3020
,
0230
0000
0302
0000
1003
0100
0020
0000
,
0230
0000
0000
0000
0000
0000
0310
0001
,
2000
3002
2003
0000
,
3020
0000
0000
2030
0000
0000
3200
0000
,
2300
0000
0020
3030
,
0404
0000
0303
1010
,
1001
0000
0000
1000
0000
0000
0001
0000
0010
0000
0000
0001
0000
0000
0100
0000
,
0010
0000
0000
0000
1000
0000
0000
0000
0100
0000
0000
1000
0000
0000
0001
0000
,
0100
0000
0000
0000
0001
0000
0000
0000
0010
0000
0000
0001
0000
0000
1000
0000
,
0100
0000
0000
1000
0000
0000
0010
0000
0200
0000
0000
0000
0300
0000
0010
0000
,
1000
0000
0000
0001
0000
0000
0010
0000
0100
0000
0000
0010
0000
0000
0001
0000
,
0100
0000
0000
0000
0001
0000
0000
0000
0010
0000
0000
0001
0000
0000
1000
0000
,
0100
0000
0000
0000
0010
0000
0000
0000
0100
0000
0000
1000
0000
0000
0010
0000
,
0100
0000
0000
0001
0000
0000
1000
0000
0200
0000
0000
0000
0300
0000
0000
0000
,
1001
0000
0000
1010
0000
0000
0001
0000
0011
0000
0000
0000
1001
0000
0000
0000
,
1000
0000
0001
0000
0010
0000
0001
1000
,
0010
0100
0010
1000
,
0010
0000
0000
0100
0000
0000
0001
0000
2000
0000
0000
0000
3000
0000
0100
0000
,
1000
0000
0000
0010
0000
0000
0100
0000
0001
0000
0000
0010
0000
0000
0100
0000
,
0010
0000
0000
0000
0001
0000
0000
0000
0100
0000
0000
0001
0000
0000
0100
0000
,
0010
0000
0000
0000
1000
0000
0000
0000
0001
0000
0000
0010
0000
0000
0001
0000
,
1001
0000
0000
1010
0000
0000
0101
0000
0011
0000
0000
0000
0110
0000
0000
0000
,
1001
0000
0000
0000
;

//---------------dance-single - X----------------
#NOTEDATA:;
#CHARTNAME:;
#STEPSTYPE:dance-single;
#DESCRIPTION:X;
#CHARTSTYLE:;
#DIFFICULTY:Edit;
#METER:9;
#RADARVALUES:0.620949,1.204914,0.213071,0.767054,0.639212,510.000000,485.000000,25.000000,90.000000,60.000000,0.000000,0.000000,0.000000,0.000000,0.620949,1.204914,0.213071,0.767054,0.639212,510.000000,485.000000,25.000000,90.000000,60.000000,0.000000,0.000000,0.000000,0.000000;
#CREDIT:;
#OFFSET:-0.001000;
#BPMS:0.000000=340.019989
,8.000000=85.004997
,24.000000=170.009995
,132.000000=340.019989
,134.000000=170.009995
,173.000000=42.502499
,174.000000=85.004997
,190.000000=170.009995
;
#STOPS:121.000000=0.176460
,122.500000=0.176460
,124.000000=0.176460
,125.500000=0.176460
,127.000000=0.176460
,128.500000=0.176460
,130.000000=0.176460
,131.500000=0.176460
,134.000000=0.176460
,135.500000=0.176460
,137.000000=0.176460
,138.500000=0.176460
,140.000000=0.176460
,141.500000=0.176460
,143.000000=0.176460
,144.500000=0.176460
;
#DELAYS:;
#WARPS:;
#TIMESIGNATURES:0.000000=4=4
;
#TICKCOUNTS:0.000000=4
;
#COMBOS:0.000000=1
;
#SPEEDS:0.000000=1.000000=0.000000=0
;
#SCROLLS:0.000000=1.000000
;
#FAKES:;
#LABELS:0.000000=Song Start
;
#NOTES:
M000
M000
M000
M000
M000
M000
M000
M000
M000
M000
M000
M000
M000
M000
M000
M000
,
M000
M000
M000
M000
M000
M000
M000
M000
M00M
000M
000M
000M
000M
000M
000M
0000
,
2002
0000
0000
0000
,
3003
0000
0000
0000
,
0000
0000
0000
0000
,
0000
0000
0000
0000
,
0201
0000
0010
0000
0301
0020
0230
0000
,
0320
0000
0032
0203
2300
0000
3200
0000
,
0320
1030
0200
0302
,
0023
0000
2030
0000
3020
0230
2300
0000
,
3020
0000
1000
0000
0100
0000
2030
3002
,
0023
0032
0203
0310
,
0200
0000
0310
2000
0000
3001
0020
0000
,
0130
0000
0010
0000
0001
0000
1000
0000
0010
0100
0010
0100
MMM1
0000
0000
0000
,
1001
0000
1000
0010
0000
0010
0100
0000
0010
0000
0100
0001
0000
0001
0010
0000
,
0001
0000
0000
0000
1000
0000
0000
0000
0010
0000
1000
0010
0000
0010
0100
0000
,
0001
0000
0000
0000
0010
0000
0000
0000
0100
0000
0010
0001
0000
0001
0100
0000
,
0010
0000
0100
0001
0000
0010
0100
0000
2000
0000
0000
0000
3000
0000
0001
0000
,
1000
0000
0010
1000
0000
1000
0001
0000
0010
0000
0100
0010
0000
0010
0001
0000
,
1000
0000
0000
0000
0001
0000
0000
0000
0100
0000
0010
0100
0000
0100
0001
0000
,
0010
0000
0000
0000
0100
0000
0000
0000
0010
0000
0001
0010
0000
0010
0100
0000
,
1000
0000
0000
0000
0000
0000
0100
0000
0000
0010
0000
0000
0000
0000
0000
0100
0000
0000
1000
0000
0000
0000
0000
0000
0020
0000
0000
0000
0000
0000
0000
0000
0000
0000
0000
0000
0130
0000
0010
0000
0100
0000
0010
0000
0100
0000
0010
0000
,
1000
0000
0000
1010
0000
0000
0101
0000
0011
0000
MMMM
0000
1MM2
0000
0103
0000
,
0010
0000
1000
0000
0100
0000
1000
0001
,
0010
0001
0100
0001
,
0010
0000
0100
1000
0000
1000
0010
0000
0200
0000
0000
0000
0300
0000
0010
0000
,
0100
0000
0001
0010
0000
0010
0100
0000
0010
0000
0001
1000
0000
1000
0010
0000
,
0100
0000
0000
0000
0001
0000
0000
0000
0010
0000
0100
0010
0000
0010
0001
0000
,
1000
0000
0000
0000
0001
0000
0000
0000
0100
0000
0001
0100
0000
0100
0010
0000
,
1010
0000
0000
0101
0000
0000
1001
0000
0210
0000
0000
0000
0301
0000
0000
0000
,
1000
0001
0010
0100
1000
0010
0100
0001
,
0010
0100
1000
0001
0100
0010
1000
0001
,
0010
0100
0010
0001
1000
0010
0100
0001
,
0000
MMMM
0000
0000
1001
1000
0001
0010
,
0100
1000
0010
0100
0001
1000
0001
0100
,
0010
1000
0100
0010
0100
1000
0100
0010
,
0001
0010
0200
0000
1000
0000
0310
0100
,
2000
0000
3020
0000
0230
0320
2030
0000
,
0001
3020
0130
0200
,
0320
0000
2030
0000
3002
0000
0023
0032
,
0203
0320
1000
0100
,
2030
3200
2300
0000
3002
0000
0203
0000
,
0310
0000
0200
0000
0310
2000
0000
3002
,
0023
0000
0000
0000
0000
0000
0000
0000
0230
0000
0000
0000
2000
0000
3300
0000
0011
0000
0001
0000
1000
0001
0000
0001
0100
0000
0100
0010
0000
0010
1000
0000
,
0000
0000
1000
0000
0010
1000
0000
1000
0010
0000
0010
0100
0000
0100
0001
0000
0000
0000
0010
0000
0010
0001
0000
0001
1000
0000
1000
0010
0000
0010
0100
0000
,
0000
0000
0010
0000
0100
0010
0000
0010
1000
0000
1000
0001
0000
0001
0010
0000
0000
0000
0100
0000
0010
0001
0000
0001
1000
0000
0010
0100
0000
0100
0001
0000
,
0000
0000
1000
0000
0001
0010
0000
0010
0100
0000
0100
1000
0000
1000
0100
0000
0000
0000
1000
0000
0100
1000
0000
1000
0010
0000
0010
0100
0000
0100
0001
0000
,
0010
0000
0001
0100
0000
0010
1000
0000
0001
0000
0010
0100
0000
0100
1000
0000
1020
0000
0000
0000
0000
0000
0000
0000
0100
0000
0000
0000
0000
0000
0000
0000
,
1030
0200
0302
0000
0203
0000
0320
0032
,
0203
0320
2030
3001
,
0020
0032
0203
0302
,
2003
3020
0032
0000
0023
0000
1000
0000
,
0130
0000
0020
2030
3200
0000
0320
0000
,
0230
0000
1300
0000
0200
0000
1300
0020
,
0000
0130
0002
0000
1003
0001
0100
0010
,
1000
0001
1000
0001
020M
0300
0000
0000
0101
0000
1010
0000
0010
1000
0001
0010
,
0200
0000
0000
0000
M31M
0000
0000
0000
1001
0000
1000
0001
0000
0010
0100
0000
,
0010
0000
0001
0010
0000
0100
1000
0000
0100
0000
0000
0000
1000
0000
0000
0000
,
0010
0000
1000
0010
0000
0100
0001
0000
0010
0000
0000
0000
0001
0000
0000
0000
,
1000
0000
0010
1000
0000
0001
0010
0000
0100
0000
0010
0001
0000
0010
0100
0000
,
2000
0000
0000
0000
3000
0000
0001
0000
0010
0000
0001
0100
0000
0010
1000
0000
,
0001
0000
0010
0100
0000
0010
0001
0000
1000
0000
0000
0000
0010
0000
0000
0000
,
0100
0000
0010
1000
0000
0100
0010
0000
0100
0000
0000
0000
1000
0000
0000
0000
,
0001
0000
0010
0001
0000
0010
0100
0000
0010
0000
0001
0100
0000
0010
1000
0000
,
0200
0000
0000
0000
0000
0000
0000
0000
0000
0000
0000
0000
0310
0000
0100
0000
0010
0000
0100
0000
0010
0000
0100
0000
0010
0000
0000
0000
0000
0000
0000
0000
0000
0011
0000
0000
0000
0000
0000
0000
0000
0000
0010
0000
0000
0000
0000
0000
,
1001
MMMM
M21M
0310
1000
0000
0100
0000
,
0010
0000
0100
0010
0001
0000
1000
0000
,
0010
0000
0000
0000
1000
0000
0000
0000
0001
0000
0010
0001
0000
0010
0100
0000
,
0020
0000
0000
0000
0030
0000
0100
0000
0010
0000
0001
0100
0000
0010
1000
0000
,
0001
0000
1000
0100
0000
0010
0100
0000
0010
0000
0000
0000
0001
0000
0000
0000
,
0100
0000
0010
1000
0000
0001
0010
0000
0100
0000
0000
0000
0010
0000
0000
0000
,
0001
0000
1000
0010
0000
0100
0001
0000
0011
0000
0000
0110
0000
0000
1100
0000
,
1020
0000
M13M
0MM0
M11M
0000
0000
0000
;

//---------------dance-single - ----------------
#NOTEDATA:;
#CHARTNAME:;
#STEPSTYPE:dance-single;
#DESCRIPTION:;
#CHARTSTYLE:;
#DIFFICULTY:Medium;
#METER:6;
#RADARVALUES:0.410313,0.524154,0.485801,0.417618,0.076705,337.000000,280.000000,57.000000,49.000000,0.000000,0.000000,0.000000,0.000000,0.000000,0.410313,0.524154,0.485801,0.417618,0.076705,337.000000,280.000000,57.000000,49.000000,0.000000,0.000000,0.000000,0.000000,0.000000;
#CREDIT:;
#NOTES:
0000
0000
0000
0000
,
0000
0000
0000
0000
,
0000
0000
0000
0000
,
0000
0000
0000
0000
,
0000
0000
0000
0000
,
0000
0000
0000
0000
,
0000
0000
0000
0000
,
0000
0000
0000
0000
,
0000
0000
0000
0000
,
0020
0000
0000
0000
0030
0100
0002
0000
,
0013
0000
0100
0010
0001
0000
1000
0000
,
0020
0000
0130
0001
,
0010
0000
0001
0000
1000
0001
0100
0000
,
0020
0000
0000
0000
0000
0000
0130
0001
,
1000
0100
0020
0000
,
0230
0000
0000
2300
0000
0000
3020
0000
,
0230
0000
0002
0303
,
0101
0001
0011
0010
,
0011
0000
0000
0000
1010
0000
0000
0000
0010
0000
0000
1000
0000
0000
0100
0000
,
0010
0000
0000
0000
0110
0000
0000
0000
0100
0000
0000
1000
0000
0000
0010
0000
,
0100
0000
0000
0001
0000
0000
1000
0000
0002
0000
0000
0000
0003
0000
1000
0000
,
0100
1100
1000
0101
,
0011
0000
0000
0000
1010
0000
0000
0000
1000
0000
0000
0010
0000
0000
0100
0000
,
0001
0000
0000
0000
0011
0000
0000
0000
0010
0000
0000
0001
0000
0000
0100
0000
,
0010
0000
0000
1000
0000
0000
0001
0000
2000
0000
0000
0000
3000
0000
0000
0000
,
0101
0000
0000
0101
0000
0000
0001
0000
0020
0000
0000
0000
0130
0000
0010
0000
,
0001
0000
1000
0000
0010
0000
1000
0001
,
0100
0010
0100
0001
,
1000
0000
0000
0100
0000
0000
1000
0000
0020
0000
0000
0000
0030
0000
0100
0000
,
0001
0011
0010
0110
,
1001
0000
0000
0000
1010
0000
0000
0000
0100
0000
0000
0001
0000
0000
0010
0000
,
0011
0000
1100
0000
,
1001
0000
0000
0010
0000
0000
0100
0000
0020
0000
0000
0000
0030
0000
0000
0000
,
1000
0101
1000
0101
,
1000
0101
1000
0101
,
0001
1100
0001
1100
,
0001
1100
0001
1100
,
0000
1001
1000
0011
,
1000
0011
1000
0011
,
0001
1010
0001
1010
,
0001
1010
0001
1010
,
0002
0000
0000
0000
0000
0103
0020
0000
,
0230
0000
0301
0010
0200
0000
2300
0000
,
3002
0000
2003
3020
,
2030
0000
3200
0000
0310
0100
1000
0000
,
0020
0000
0000
0000
0000
0000
0130
0001
,
2000
3002
2003
0000
,
3200
0000
0000
2300
0000
0000
3020
0000
,
0230
0000
0002
0303
,
1001
0000
1000
0000
,
0010
0000
0100
0000
,
0001
0000
0010
0000
,
0001
0000
1000
0001
,
0100
0000
0010
0000
,
1000
0000
0100
0000
,
1000
0000
0010
0000
,
0100
0000
0001
0000
,
2000
0000
0000
0000
0000
3001
0100
0000
,
0001
0000
0010
0100
1000
0000
0100
0000
,
2000
0000
3001
1000
,
0010
0000
1000
0000
0001
0100
0010
0000
,
0200
0000
0000
0000
0000
0000
0310
1000
,
0001
1000
0002
0000
,
2003
0000
0000
3020
0000
0000
0230
0000
,
0302
0000
0020
0033
,
0100
1000
0010
0100
0002
0000
0003
0000
,
1001
1000
0101
0001
,
0011
1010
1000
0001
,
0011
0000
0000
0000
1100
0000
0000
0000
0100
0000
0000
1000
0000
0000
0010
0000
,
0100
0000
0000
0001
0000
0000
1000
0000
0200
0000
0000
0000
0300
0000
1000
0000
,
0010
0110
0100
0101
,
0011
0110
0010
0001
,
1001
0000
0000
0000
0101
0000
0000
0000
0001
0000
0000
0010
0000
0000
0001
0000
,
1000
0000
0000
0010
0000
0000
0100
0000
0020
0000
0000
0000
0030
0000
0000
0000
,
0110
0000
0000
0110
0000
0000
0100
0000
0002
0000
0000
0000
0013
0000
0100
0000
,
1000
0000
0100
0000
1000
0000
0010
0100
,
0001
1000
0100
1000
,
0010
0000
0000
0100
0000
0000
0001
0000
2000
0000
0000
0000
3000
0000
0001
0000
,
0100
0101
0100
0110
,
1010
0011
0010
0001
,
1001
0000
0000
0000
0101
0000
0000
0000
0001
0000
0000
0010
0000
0000
0001
0000
,
1000
0000
0000
0010
0000
0000
0100
0000
0002
0000
0000
0000
0013
0000
0000
0000
,
1100
0000
0000
0000
;

//---------------dance-single - ----------------
#NOTEDATA:;
#CHARTNAME:;
#STEPSTYPE:dance-single;
#DESCRIPTION:;
#CHARTSTYLE:;
#DIFFICULTY:Easy;
#METER:3;
#RADARVALUES:0.234986,0.384379,0.119320,0.204548,0.000000,193.000000,179.000000,14.000000,24.000000,0.000000,0.000000,0.000000,0.000000,0.000000,0.234986,0.384379,0.119320,0.204548,0.000000,193.000000,179.000000,14.000000,24.000000,0.000000,0.000000,0.000000,0.000000,0.000000;
#CREDIT:;
#NOTES:
0000
0000
0000
0000
,
0000
0000
0000
0000
,
0000
0000
0000
0000
,
0000
0000
0000
0000
,
0000
0000
0000
0000
,
0000
0000
0000
0000
,
0000
0000
0000
0000
,
0000
0000
0000
0000
,
0000
0000
0000
0000
,
0020
0000
0000
0130
,
0001
1000
0100
1000
,
0002
0000
1003
0001
,
0010
0001
1000
0010
,
0200
0000
0000
0310
,
1000
0001
2000
0000
,
3001
0000
0000
1000
0000
0000
0010
0000
,
0200
0000
0020
0330
,
1001
0000
0001
0000
,
1000
0010
0100
0000
,
0001
0000
0010
0000
,
0100
0010
0002
0003
,
1000
0000
0001
0000
,
0100
0010
0100
0000
,
0001
0000
1000
0000
,
0010
1000
0200
0300
,
1001
0000
0000
0110
,
0001
1000
0100
1000
,
0010
0100
0001
0010
,
0100
0100
0200
0300
,
0010
0000
0001
0000
,
1000
0001
0100
0000
,
1001
0000
0110
0000
,
0001
1000
0020
0030
,
0000
1000
0000
0001
,
0000
1000
0000
0001
,
0000
0100
0000
0010
,
0000
0100
0000
0010
,
0000
1001
0000
0001
,
0000
1000
0000
0001
,
0000
0100
0000
0010
,
0000
0100
0000
0010
,
2000
0000
0000
3001
,
0010
0001
0100
0010
,
2000
0000
3010
0100
,
0001
0010
0100
0010
,
0200
0000
0000
1300
,
0001
1000
0020
0000
,
1030
0000
0000
0001
0000
0000
0010
0000
,
0200
0000
0020
0330
,
1001
0000
0000
0000
,
0001
0000
0000
0000
,
1000
0000
0000
0000
,
0010
0000
0000
0000
,
0100
0000
0000
0000
,
0001
0000
0000
0000
,
0010
0000
0000
0000
,
0001
0000
1000
0000
,
0020
0000
0000
1030
,
0010
0100
0001
0010
,
0200
0000
0310
0001
,
1000
0010
1000
0001
,
0020
0000
0000
0130
,
0010
0001
0020
0000
,
0031
0000
0000
1000
0000
0000
0010
0000
,
0200
0000
0020
0330
,
2000
0000
0002
3003
,
0001
0000
1000
0000
,
0010
1000
0100
0000
,
1000
0000
0001
0000
,
0100
0001
0010
0000
,
0100
0000
0010
0000
,
0001
1000
0100
0000
,
1000
0000
0010
0000
,
0100
0001
0010
0000
,
1001
0000
0000
0110
,
1000
0000
0010
0000
,
0100
0000
0001
0000
,
0010
0001
1000
0000
,
0001
0000
1000
0000
,
0010
1000
0100
0000
,
0110
0000
1001
0000
,
0110
0001
1001
0000
,
0110
0000
0000
0000
;

//---------------dance-double - ----------------
#NOTEDATA:;
#CHARTNAME:;
#STEPSTYPE:dance-double;
#DESCRIPTION:;
#CHARTSTYLE:;
#DIFFICULTY:Challenge;
#METER:8;
#RADARVALUES:0.472408,0.698872,0.502847,0.605120,0.149149,388.000000,329.000000,59.000000,71.000000,0.000000,0.000000,2.000000,0.000000,0.000000,0.472408,0.698872,0.502847,0.605120,0.149149,388.000000,329.000000,59.000000,71.000000,0.000000,0.000000,2.000000,0.000000,0.000000;
#CREDIT:;
#NOTES:
// measure 0
00000000
00000000
00000000
00000000
,  // measure 1
00000000
00000000
00000000
00000000
,  // measure 2
00000000
00000000
00000000
00000000
,  // measure 3
00000000
00000000
00000000
00000000
,  // measure 4
00000000
00000000
00000000
00000000
,  // measure 5
00000000
00000000
00000000
00000000
,  // measure 6
00000000
00000000
00000000
00000000
,  // measure 7
00000000
00000000
00000000
00000000
,  // measure 8
00000000
00000000
00000000
00000000
,  // measure 9
02100000
00000000
00000000
00000000
00000000
03100000
20000000
00000000
,  // measure 10
30020000
00000000
00130000
00001000
00020000
00000000
00030200
00000000
,  // measure 11
00002300
00000000
00003020
00000230
,  // measure 12
00000302
00000000
00000023
00000000
00000130
00000010
00000001
00000000
,  // measure 13
00002000
00000000
00000000
00000000
00000000
00000000
00003001
00001000
,  // measure 14
00000020
00020030
00032000
00000000
,  // measure 15
02003000
00000000
00000000
03200000
00000000
00000000
20300000
00000000
,  // measure 16
31000000
00000000
00100000
00000000
00010000
00000000
00100000
00000000
00001000
00010000
00001000
00010000
00001000
00000000
00000000
00000000
,  // measure 17
01010000
00000000
00000000
01000000
00000000
00000000
00010000
00000000
00100000
00000000
00000000
00001000
00000000
00000000
00010000
00000000
,  // measure 18
00010100
00000000
00000000
00000000
00001100
00000000
00000000
00000000
00000110
00000000
00000000
00000010
00000000
00000000
00000001
00000000
,  // measure 19
00000101
00000000
00000000
00000000
00000011
00000000
00000000
00000000
00000010
00000000
00000000
00000100
00000000
00000000
00001000
00000000
,  // measure 20
00000100
00000000
00000000
00010000
00000000
00000000
00001000
00000000
02000000
00000000
00000000
00000000
03000000
00000000
00100000
00000000
,  // measure 21
10100000
00000000
00000000
10000000
00000000
00000000
00010000
00000000
00100000
00000000
00000000
00001000
00000000
00000000
00010000
00000000
,  // measure 22
00010100
00000000
00000000
00000000
00001100
00000000
00000000
00000000
00001000
00000000
00000000
00000010
00000000
00000000
00000100
00000000
,  // measure 23
00000101
00000000
00000000
00000000
00000011
00000000
00000000
00000000
00000110
00000000
00000000
00000100
00000000
00000000
00001000
00000000
,  // measure 24
00000100
00000000
00000000
00010000
00000000
00000000
00001000
00000000
00200000
00000000
00000000
00000000
00300000
00000000
00000000
00000000
,  // measure 25
01100000
00000000
00000000
00110000
00000000
00000000
00101000
00000000
00012000
00000000
00000000
00000000
01003000
00000000
00000000
00000000
,  // measure 26
00100000
00000000
10000000
00000000
00010000
00000000
00100000
00001000
,  // measure 27
00010000
00000100
00001000
00000010
,  // measure 28
00000100
00000000
00000000
00000001
00000000
00000000
00000010
00000000
00000200
00000000
00000000
00000000
00000300
00000000
00000010
00000000
,  // measure 29
00000011
00000000
00000000
00000001
00000000
00000000
00000100
00000000
00000010
00000000
00000000
00001000
00000000
00000000
00000100
00000000
,  // measure 30
00010100
00000000
00000000
00000000
00011000
00000000
00000000
00000000
00101000
00000000
00000000
00100000
00000000
00000000
00010000
00000000
,  // measure 31
01010000
01000000
10100000
10000000
,  // measure 32
10010000
00000000
00000000
00110000
00000000
00000000
00101000
00000000
00012000
00000000
00000000
00000000
00003000
00000000
00000000
00000000
,  // measure 33
00010000
00000100
00001000
00000000
00000010
00000100
00000001
00000000
,  // measure 34
00000010
00000100
00001000
00000000
00000100
00010000
00001000
00000000
,  // measure 35
00010000
00001000
01000000
00000000
00100000
10000000
01000000
00000000
,  // measure 36
00100000
01000000
10000000
00000000
01000000
00100000
00010000
00000000
,  // measure 37
00000000
00000000
00001010
00000000
00000010
00001000
00000001
00000000
,  // measure 38
00000010
00000100
00001000
00000000
00000100
00010000
00001000
00000000
,  // measure 39
00010000
00001000
01000000
00000000
00100000
10000000
01000000
00000000
,  // measure 40
00100000
01000000
10000000
00000000
01000000
00100000
00010000
00000000
,  // measure 41
00200000
00000000
00000000
00000000
00000000
00301000
00020000
00000000
,  // measure 42
00030200
00000000
00001300
00000010
00000200
00000000
00000302
00000000
,  // measure 43
00000023
00000000
00000230
00000320
,  // measure 44
00000032
00000000
00002003
00000000
00003010
00010000
00000100
00000000
,  // measure 45
00002000
00000000
00000000
00000000
00000000
00000000
00003010
00000100
,  // measure 46
00000002
00000023
00000230
00000000
,  // measure 47
00000320
00000000
00000000
00000031
00000000
00000000
00000100
00000000
,  // measure 48
00000020
00000000
00020000
00030030
,  // measure 49
00001100
00001000
00000020
00000130
,  // measure 50
00000010
00001000
00000200
00001300
,  // measure 51
00000100
00010000
00002000
01003000
,  // measure 52
00100000
10000000
02000000
03100000
,  // measure 53
01000000
10000000
00200000
01300000
,  // measure 54
00010000
00100000
00002000
00013000
,  // measure 55
00001000
00010000
00000200
00001300
,  // measure 56
00010000
00000100
00002000
00003010
,  // measure 57
00000201
00000000
00000000
00000000
00000300
00000010
00002000
00000000
,  // measure 58
00003200
00000000
00010300
00001000
02000000
00000000
03200000
00000000
,  // measure 59
20300000
00000000
30020000
00230000
,  // measure 60
02300000
00000000
03200000
00000000
00310000
01000000
00001000
00000000
,  // measure 61
00020000
00000000
00000000
00000000
00000000
00000000
00031000
01000000
,  // measure 62
00200000
20300000
32000000
00000000
,  // measure 63
03200000
00000000
00000000
00302000
00000000
00000000
00023000
00000000
,  // measure 64
00030200
00000000
00000020
00000330
,  // measure 65
00004004
00000000
00000000
00003003
,  // measure 66
00000001
00000000
00000000
00000100
00000000
00000000
00000010
00000000
00001000
00000000
00000000
00000100
00000000
00000000
00010000
00000000
,  // measure 67
00011000
00000000
00000000
00000000
00101000
00000000
00000000
00000000
01100000
00000000
00000000
01000000
00000000
00000000
10000000
00000000
,  // measure 68
10100000
00000000
00000000
00000000
01010000
00000000
00000000
00000000
00110000
00000000
00000000
00100000
00000000
00000000
00001000
00000000
,  // measure 69
00010000
00000000
00000000
00000100
00000000
00000000
00001000
00000000
00000020
00000000
00000000
00000000
00000030
00000000
00000100
00000000
,  // measure 70
00000110
00000000
00000000
00000010
00000000
00000000
00001000
00000000
00000100
00000000
00000000
00010000
00000000
00000000
00001000
00000000
,  // measure 71
00011000
00000000
00000000
00000000
01010000
00000000
00000000
00000000
01100000
00000000
00000000
00100000
00000000
00000000
10000000
00000000
,  // measure 72
11000000
00000000
00000000
00000000
01100000
00000000
00000000
00000000
00110000
00000000
00000000
00100000
00000000
00000000
00001000
00000000
,  // measure 73
00010000
00000000
00000000
00000100
00000000
00000000
00001000
00000000
00000200
00000000
00000000
00000000
00000300
00000000
00000000
00000000
,  // measure 74
00001100
00000000
00000000
00000110
00000000
00000000
00000011
00000000
00000201
00000000
00000000
00000000
00000310
00000000
00001000
00000000
,  // measure 75
00000100
00000000
00010000
00000000
00001000
00000000
00100000
00010000
,  // measure 76
01000000
00100000
10000000
00010000
,  // measure 77
01000000
00000000
00000000
00100000
00000000
00000000
10000000
00000000
02000000
00000000
00000000
00000000
03000000
00000000
10000000
00000000
,  // measure 78
01000000
00000000
00000000
00100000
00000000
00000000
00010000
00000000
00100000
00000000
00000000
00001000
00000000
00000000
00010000
00000000
,  // measure 79
00010100
00000000
00000000
00000000
00011000
00000000
00000000
00000000
01001000
00000000
00000000
00001000
00000000
00000000
00010000
00000000
,  // measure 80
00011000
00000000
00000000
00000000
00010010
00000000
00000000
00000000
00000101
00000000
00000000
00000001
00000000
00000000
00000010
00000000
,  // measure 81
00000110
00000000
00000000
00001100
00000000
00000000
00010100
00000000
00012000
00000000
00000000
00000000
01003000
00000000
00000000
00000000
,  // measure 82
00011000
00000000
00000000
00000000
;

//---------------dance-single - ----------------
#NOTEDATA:;
#CHARTNAME:;
#STEPSTYPE:dance-single;
#DESCRIPTION:;
#CHARTSTYLE:;
#DIFFICULTY:Beginner;
#METER:2;
#RADARVALUES:0.140018,0.314492,0.110797,0.000000,0.000000,115.000000,102.000000,13.000000,0.000000,0.000000,0.000000,0.000000,0.000000,0.000000,0.140018,0.314492,0.110797,0.000000,0.000000,115.000000,102.000000,13.000000,0.000000,0.000000,0.000000,0.000000,0.000000,0.000000;
#CREDIT:;
#NOTES:
0000
0000
0000
0000
,
0000
0000
0000
0000
,
0000
0000
0000
0000
,
0000
0000
0000
0000
,
0000
0000
0000
0000
,
0000
0000
0000
0000
,
0000
0000
0000
0000
,
0000
0000
0000
0000
,
0000
0000
0000
0000
,
0010
0000
0000
0000
,
1000
0000
1000
0000
,
0001
0000
0000
0000
,
0100
0000
0100
0000
,
0010
0000
0000
0000
,
1000
1000
1000
0000
,
0001
0000
0000
0000
,
1000
0000
0000
0000
,
0110
0000
0000
0000
,
0100
0000
0000
0000
,
0010
0000
0000
0000
,
1000
0000
0001
0000
,
1000
0000
0000
0000
,
0100
0000
0000
0000
,
1000
0000
0000
0000
,
0010
0000
0100
0000
,
1001
0000
0000
0000
,
0001
0000
0000
0000
,
1000
0000
0000
0000
,
0010
0000
0100
0000
,
0001
0000
0000
0000
,
0010
0000
0000
0000
,
0001
0000
1000
0000
,
0001
0000
0000
0000
,
0000
0100
0000
0100
,
0000
0100
0000
0100
,
0000
0100
0000
0100
,
0000
0100
0000
0100
,
0000
0010
0000
0010
,
0000
0010
0000
0010
,
0000
0010
0000
0010
,
0000
0010
0000
0010
,
1000
0000
0000
0000
,
0001
0000
0000
0000
,
0100
0000
0000
0000
,
0010
0000
1000
0000
,
0001
0000
0000
0000
,
1000
0000
0000
0000
,
0010
0000
0000
0000
,
0100
0000
0000
0000
,
1001
0000
0000
0000
,
1000
0000
0000
0000
,
0001
0000
0000
0000
,
0100
0000
0000
0000
,
0010
0000
0000
0000
,
1000
0000
0000
0000
,
0010
0000
0000
0000
,
0100
0000
0000
0000
,
1001
0000
0000
0000
,
0001
0000
0000
0000
,
0010
0000
0000
0000
,
0001
0000
0000
0000
,
1000
0000
0000
0000
,
0010
0010
0010
0000
,
0100
0000
0000
0000
,
0010
0000
0000
1001
,
0110
0000
0000
0110
,
1001
0000
1000
0000
,
0001
0000
0000
0000
,
0100
0000
0010
0000
,
1000
0000
0000
0000
,
0100
0000
0010
0000
,
0001
0000
0000
0000
,
1000
0000
0001
0000
,
0100
0000
0000
0000
,
0110
0000
0000
0000
,
0010
0000
0000
0000
,
1000
0000
0000
0000
,
0001
0000
1000
0000
,
0010
0000
1000
0000
,
0100
0000
0000
0000
,
1001
0000
0110
0000
,
1001
0000
0000
0000
,
0110
0000
0000
0000
;
