#VERSION:0.83;
#TITLE:Silly Love;
#SUBTITLE:;
#ARTIST:DÉ DÉ MOUSE;
#TITLETRANSLIT:;
#SUBTITLETRANSLIT:;
#ARTISTTRANSLIT:;
#GENRE:;
#ORIGIN:;
#CREDIT:;
#BANNER:banner.png;
#BACKGROUND:background.png;
#PREVIEWVID:;
#JACKET:jacket.png;
#CDIMAGE:;
#DISCIMAGE:;
#LYRICSPATH:;
#CDTITLE:;
#MUSIC:Silly Love.ogg;
#OFFSET:1.396000;
#SAMPLESTART:50.366707;
#SAMPLELENGTH:12.549023;
#SELECTABLE:YES;
#BPMS:0.000=153.000,
225.000=124.000,
257.000=153.000;
#STOPS:223.750=1.176;
#DELAYS:;
#WARPS:;
#TIMESIGNATURES:0.000=4=4;
#TICKCOUNTS:0.000=4;
#COMBOS:0.000=1;
#SPEEDS:0.000=1.000=0.000=0;
#SCROLLS:0.000=1.000;
#FAKES:;
#LABELS:0.000=Song Start;
#BGCHANGES:;
#KEYSOUNDS:;
#ATTACKS:
;

//---------------dance-single - ----------------
#NOTEDATA:;
#CHARTNAME:;
#STEPSTYPE:dance-single;
#DESCRIPTION:;
#CHARTSTYLE:;
#DIFFICULTY:Hard;
#METER:8;
#RADARVALUES:0.430669,0.770382,0.126314,0.151576,0.164208,358.000000,343.000000,15.000000,18.000000,0.000000,0.000000,0.000000,0.000000,0.000000,0.430669,0.770382,0.126314,0.151576,0.164208,358.000000,343.000000,15.000000,18.000000,0.000000,0.000000,0.000000,0.000000,0.000000;
#CREDIT:;
#NOTES:
0000
0000
0000
0000
,
0000
0000
0000
0000
,
0000
0000
0000
0000
,
0000
0000
0000
0000
,
0000
0000
0000
0000
,
0000
0000
0000
0000
,
0000
0000
0000
0000
,
0000
0000
0000
0000
,
0000
0000
0000
0000
,
1100
0000
1100
0000
0010
0000
0000
0100
,
0000
0010
0001
0100
0001
0000
1000
0001
,
0000
0000
0000
0200
0300
0000
0000
0010
,
0000
0010
0000
0010
0100
0000
0001
0000
,
0011
0000
0011
0000
1000
0000
0000
0001
,
0000
1000
0001
0100
0001
0000
0010
0100
,
1000
0001
1000
0001
0100
0010
0100
0010
,
1000
0001
1000
0001
1000
0001
1000
0001
0200
0000
0000
0000
0320
0000
0000
0000
,
1030
0000
0001
0010
,
0000
0000
0000
0000
0001
0010
0100
0010
,
0001
0000
1000
0010
,
0000
0000
0000
0000
1000
0100
0010
0100
,
1000
0000
0000
0000
0001
0000
0000
0000
0100
0000
0000
0100
0000
0000
0100
0000
,
0000
0000
0000
0000
0010
1000
0100
1000
,
0010
0000
0000
0000
0100
0000
0000
0000
0001
0000
0000
0001
0000
0000
0010
0000
,
0000
0000
0000
0000
0001
0100
0010
0100
,
0001
1000
0001
1000
,
0010
0000
0100
0000
0010
0100
0001
0100
,
0010
0100
0010
1000
,
0001
0000
0010
0000
0100
1000
0100
0010
,
0100
0010
0001
0001
,
1000
0000
0001
0000
1000
0010
0100
0010
,
1000
0010
1000
0010
0100
0001
0100
0001
,
0010
0001
0010
0001
0010
0001
0010
0001
0010
0000
0000
0010
0000
0000
0001
0000
,
1000
0001
0010
0001
1000
0000
0001
0100
,
0000
0000
0010
0000
0000
0000
0100
0000
0010
0000
0000
0010
0000
0000
0010
0000
,
0000
0000
0001
0000
1000
0000
0100
0000
1000
0000
0000
0001
0000
0000
0001
0000
,
0000
0000
0010
0000
0100
0000
1000
0000
0001
0000
0000
0001
0000
0000
1000
0000
,
0000
0000
0001
0000
0010
0000
0100
0000
0010
0000
0000
0010
0000
0000
0100
0000
,
0000
0000
0100
0000
0000
0000
0010
0000
0100
0000
0000
1000
0000
0000
0001
0000
,
0100
0010
1000
0100
0010
0000
0100
1000
,
0000
0001
1000
0010
0200
0000
0302
0000
,
0013
1000
0010
0100
1000
0000
0001
0100
,
0000
0000
1000
0000
0000
0000
0100
0000
0010
0000
0000
1000
0000
0000
0100
0000
,
0010
0000
0001
0000
0010
0000
1000
0000
0010
0000
0000
1000
0000
0000
0100
0000
,
0000
0000
1000
0000
0100
0000
0010
0000
0011
0000
0000
0110
0000
0000
0011
0000
,
0000
0000
0001
0000
0100
0000
1000
0000
0100
0000
0000
0010
0000
0000
1000
0000
,
0000
0001
0000
0000
0000
1000
0100
0010
,
0001
0100
0001
0100
0001
0100
0001
0100
,
0010
1000
0010
1000
0010
1000
0010
1000
0100
0000
0001
0000
0010
0000
0100
0000
,
0010
0000
0000
2002
,
0000
0000
3003
0000
,
2000
0000
3000
0220
,
0000
0000
0000
0000
0000
0000
0330
0000
1000
0000
0000
1000
0000
0000
0001
0000
,
0200
0000
0300
2002
,
0000
0000
3003
0000
,
0002
0000
0000
0000
0000
0000
0000
0000
0003
0000
0000
0000
0220
0000
0000
0330
,
0000
0000
1001
0000
0001
0000
1000
0100
,
1000
0000
0010
0000
0100
0000
0001
0100
,
1000
0100
0010
0000
1000
0000
0001
0010
,
0001
0000
1000
0000
0001
0000
1000
0100
,
0001
0100
1000
0000
1010
0000
1000
0010
,
0100
0000
0001
0000
0101
0000
0001
0100
,
1000
0100
0010
0000
0110
0000
0100
0001
,
1000
0000
0100
0100
0100
0100
0000
0000
,
0020
0000
0000
0000
0031
0000
1000
0000
0010
0000
1000
0000
0001
0000
0000
0001
,
0000
0000
1000
0000
0000
0000
1000
0000
0010
0000
0100
0000
0001
0000
0000
0001
,
0000
0000
0010
0000
0000
0000
0100
0000
0010
0000
0001
0000
0010
0000
0000
0010
,
0000
0000
0001
0000
0000
0000
1000
0000
0001
0000
0100
0000
0001
0000
0000
0010
,
0000
0000
0100
0000
0000
0000
0010
0000
0100
0000
1000
0000
0100
0000
0000
0001
,
0000
0000
0100
0000
0000
0000
0010
0000
0100
0000
1000
0000
0010
0000
0000
0001
,
0000
0010
0100
0001
0100
0001
1000
0010
,
1000
0000
0010
0000
1000
0001
1000
0001
1000
0001
1000
0001
1000
0001
1000
0001
,
1000
0001
1000
0001
0200
0000
0000
0000
0000
0000
0000
0000
0000
0000
0000
0000
,
0000
0000
0000
0300
0000
0000
0000
0000
0000
0000
0000
0000
0000
0000
0000
0000
;

//---------------dance-single - ----------------
#NOTEDATA:;
#CHARTNAME:;
#STEPSTYPE:dance-single;
#DESCRIPTION:;
#CHARTSTYLE:;
#DIFFICULTY:Challenge;
#METER:9;
#RADARVALUES:0.573825,0.770382,0.185260,0.168418,0.488413,477.000000,455.000000,22.000000,20.000000,0.000000,0.000000,7.000000,0.000000,0.000000,0.573825,0.770382,0.185260,0.168418,0.488413,477.000000,455.000000,22.000000,20.000000,0.000000,0.000000,7.000000,0.000000,0.000000;
#CREDIT:;
#NOTES:
0000
0000
0000
0000
,
0000
0000
0000
0000
,
0000
0000
0000
0000
,
0000
0000
0000
0000
,
0000
0000
0000
0000
,
0000
0000
0000
0000
,
0000
0000
0000
0000
,
0000
0000
0000
0000
,
0000
0000
0000
0000
,
1000
0000
0100
0000
0011
0000
0000
1100
,
0000
0100
1000
0001
1000
0000
0010
0100
,
0000
0000
0000
0002
0003
0000
0000
1010
,
0000
1010
0000
1000
0011
0000
1100
0000
,
0001
0000
0001
0000
1010
0000
0000
1100
,
0000
0001
0010
0100
0010
0000
0001
1000
,
0010
0010
0100
0100
0001
0001
1000
1000
,
0001
0100
0001
0100
0001
0100
0001
0100
0004
4000
0000
0000
0000
0000
3003
0000
,
0110
0000
0000
0000
0000
0000
0100
0000
0010
0000
0000
0010
0000
0000
1000
0000
,
0000
0000
0000
0000
0000
0000
0000
0000
0001
0010
0100
0000
0100
0010
0001
0000
,
0000
0000
0000
0000
0000
0000
1000
0000
0010
0000
0000
0100
0000
0000
0001
0000
,
0000
0000
0000
0000
0000
0000
0000
0000
1000
0100
0010
0000
0010
0100
1000
0000
,
0001
0000
0000
0000
1000
0000
0000
0000
0010
0000
0000
0010
0000
0000
0100
0000
,
0000
0000
0000
0000
0000
0000
0000
0000
0010
1000
0100
0000
0100
1000
0010
0000
,
0100
0000
0001
0000
0010
0000
0100
0000
0010
0000
0000
0010
0000
0000
0001
0000
,
0000
0000
0000
0000
0000
0000
0000
0000
1000
0001
0010
0000
0010
0001
1000
0000
,
1001
0001
0100
0010
,
1000
0000
0000
0000
0100
0000
0000
0000
0010
0100
1000
0000
1000
0100
0010
0000
,
0100
1000
0001
0100
,
0010
0000
0000
0000
1000
0000
0000
0000
0001
0010
0100
0000
0100
0010
0001
0000
,
1000
0001
0010
0010
,
0001
0000
0000
0000
1000
0000
0000
0000
0010
0100
0001
0000
1000
0001
0010
0000
,
0100
0010
0001
1000
0010
0100
0001
0010
,
0100
0010
0100
0010
0100
0010
0100
0010
0100
1000
0010
0100
0001
1000
0100
1000
,
0001
0000
0010
0000
0100
0000
1000
0000
0001
0000
0000
1000
0000
0000
0100
0000
,
0000
0000
0010
0000
0000
0000
0100
0000
1000
0001
0100
0001
1000
0100
0010
0001
,
1000
0000
0001
0000
0010
0000
0001
0000
0100
0000
0000
0010
0000
0000
1000
0000
,
0000
0000
0001
0000
0010
0000
1000
0000
0010
0100
1000
0010
0100
0001
0010
0100
,
0010
0000
0001
0000
0100
0000
0010
0000
1000
0000
0000
0001
0000
0000
0010
0000
,
0000
0000
0100
0000
0000
0000
0100
0000
0010
0100
1000
0001
0100
0010
1000
0001
,
0010
0000
0001
0000
1000
0000
0010
0000
1000
0000
0000
0100
0000
0000
0010
0000
,
0000
0000
0100
0000
1000
0000
0010
0000
0100
0001
0100
0010
1000
0001
0100
0010
,
1000
0100
0001
0100
1000
0010
0100
0001
,
1000
0000
0100
0000
0010
0000
0100
0000
1000
0000
0000
0100
0000
0000
0010
0000
,
0100
1000
0010
0001
0010
0100
0001
1000
,
0100
0000
1000
0000
0001
0000
0010
0000
0110
0000
0000
1100
0000
0000
0011
0000
,
0010
0001
0100
0010
1000
0100
0010
0100
,
1000
0000
0001
0000
0100
0000
0010
0000
1000
0000
0000
0001
0000
0000
0010
0000
,
0100
0100
1000
1000
0010
0010
0100
0100
,
0001
0100
0001
0100
0001
0100
0001
0100
0001
0100
0010
1000
0100
0010
0100
1000
,
0001
0000
0000
2020
,
0000
0000
0000
0000
0000
0000
0000
0000
0000
3030
0000
0000
1010
0000
0000
1000
0001
1000
0001
1000
0000
0001
0000
0000
,
0200
0000
0300
2002
,
0000
0000
0000
0000
0000
0000
3003
0000
0100
0000
0000
0100
0000
0000
0100
0000
,
2002
0000
3003
0220
,
0000
0000
0000
0000
0030
0000
0000
0000
0310
0000
0100
0001
0010
0100
0010
0200
,
2000
0000
0000
0000
0000
0000
0000
0000
3300
0000
0000
0000
0022
0000
0000
0030
,
0040
0000
0000
0033
1100
0000
0100
0000
1000
0000
0100
0000
0010
0000
0000
0010
,
0000
0000
0010
0000
0000
0000
0100
0000
1000
0000
0001
0000
0100
0000
0001
0001
,
0000
1000
1000
0000
0000
0000
0001
0000
0010
0000
1000
0000
0010
0000
0000
0100
,
0000
0000
0000
1000
0000
0000
0000
0000
0000
0001
0000
0000
0100
0000
0000
0010
0000
0000
1000
0000
1000
0000
1000
0000
,
1001
0000
0000
0000
0001
0100
0001
0100
0001
0000
0000
0000
0010
0000
0000
0000
0001
0000
0000
0000
0100
0000
0000
0000
0010
0000
0000
0000
0000
0000
1000
0000
,
0000
0000
0000
0000
0100
0000
0000
0000
0000
0000
0000
0000
0010
0000
0000
0000
0100
0000
0000
0000
1000
0000
0001
1000
0001
0000
0000
0000
1000
0000
0000
0000
,
1000
0000
1000
0000
0000
0000
0001
0000
0010
0000
1000
0000
0010
0000
0000
0100
,
0000
1000
0010
0010
0010
0010
0000
0000
,
4004
0000
0000
3003
0100
0010
0100
0001
0100
0010
1000
0100
0010
0000
0000
0100
,
0000
0000
2000
0000
0000
0000
3001
1000
0010
1000
0100
0010
0100
0000
0000
1000
,
0000
0000
0002
0000
0000
0000
0103
0001
0100
0010
1000
0100
0010
0000
0000
0100
,
0000
0000
0020
0000
0000
0000
0031
0010
0001
0100
0010
1000
0100
0000
0000
0100
,
0000
0000
0200
0000
0000
0000
1300
0001
0010
0001
0100
0010
1000
0000
0000
0001
,
0000
0000
0020
0000
0030
0000
0100
0010
0100
1000
0001
0100
0010
0000
0000
0010
,
0000
0020
0130
0001
0100
0010
1000
0100
,
0010
0000
0100
0000
1000
0001
0100
0010
1000
0100
0010
0100
1000
0010
0100
0001
,
1000
0100
0010
0001
4000
0004
0000
0000
0000
0000
0000
0000
0000
0000
0000
0000
,
0000
0000
0000
3003
0000
0000
0000
0000
0000
0000
0000
0000
0000
0000
0000
0000
;

//---------------dance-single - ----------------
#NOTEDATA:;
#CHARTNAME:;
#STEPSTYPE:dance-single;
#DESCRIPTION:;
#CHARTSTYLE:;
#DIFFICULTY:Easy;
#METER:3;
#RADARVALUES:0.222553,0.308416,0.067367,0.159997,0.000000,185.000000,177.000000,8.000000,19.000000,0.000000,0.000000,0.000000,0.000000,0.000000,0.222553,0.308416,0.067367,0.159997,0.000000,185.000000,177.000000,8.000000,19.000000,0.000000,0.000000,0.000000,0.000000,0.000000;
#CREDIT:;
#NOTES:
0000
0000
0000
0000
,
0000
0000
0000
0000
,
0000
0000
0000
0000
,
0000
0000
0000
0000
,
0000
0000
0000
0000
,
0000
0000
0000
0000
,
0000
0000
0000
0000
,
0000
0000
0000
0000
,
0000
0000
0000
0000
,
1000
1000
0001
0000
,
0100
0000
0010
0000
,
0100
0000
0001
0000
,
0010
0001
0100
0100
,
0010
0010
0010
0000
,
1000
0000
0001
0000
,
0100
0000
0010
0000
,
1000
0001
0200
0300
,
1001
0000
0000
0000
,
0000
0000
0010
1000
,
0100
0000
0000
0000
,
0000
0000
0010
0001
,
0100
0000
0000
0000
,
0000
0000
0010
1000
,
0001
0000
0000
0000
,
0000
0000
0010
0001
,
1001
0001
1000
0001
,
1000
0001
0100
0100
,
0001
1000
0001
1000
,
0001
1000
0010
0010
,
1000
0001
1000
1000
,
0001
1000
0010
0010
,
1000
0001
1000
0001
,
0100
0100
0010
1000
,
1001
0001
0010
0001
,
0100
0010
2000
0000
,
3001
1000
0100
1000
,
0010
0100
0020
0000
,
0130
0001
0010
0001
,
1000
0100
0020
0000
,
0130
0010
0001
1000
,
0001
0100
0000
0010
,
1000
0001
0010
0001
,
1000
0100
0020
0000
,
0130
0010
0001
1000
,
0001
0000
0100
0000
2002
0000
0000
3003
,
0001
1000
0010
1000
,
0010
0100
0002
0000
,
0013
0001
0100
0001
,
1000
0100
0010
0100
,
1001
0000
0000
0020
,
0000
0000
0030
0000
,
1001
0000
0000
0200
,
0000
0000
0300
0000
,
0110
0000
0000
2000
,
0000
0000
3000
0000
,
0110
0000
0000
0001
,
0000
1000
0000
0001
,
0000
0100
0000
0010
,
1000
0010
0000
1000
,
0000
0001
0000
0010
,
0001
0100
0000
0010
,
0000
1000
0000
0001
,
1000
0001
0000
0010
,
0000
0001
0001
0000
,
2000
3010
1000
0200
,
0300
0010
0001
2000
,
3000
0001
1000
0020
,
0030
0100
0001
0020
,
0030
0100
0010
0002
,
0003
0010
0001
0020
,
0030
0001
0010
0100
,
1000
0001
1000
0010
,
0100
0002
0000
0000
,
0000
0003
0000
0000
;

//---------------dance-single - ----------------
#NOTEDATA:;
#CHARTNAME:;
#STEPSTYPE:dance-single;
#DESCRIPTION:;
#CHARTSTYLE:;
#DIFFICULTY:Medium;
#METER:5;
#RADARVALUES:0.289920,0.400256,0.092630,0.134735,0.050525,241.000000,230.000000,11.000000,16.000000,0.000000,0.000000,0.000000,0.000000,0.000000,0.289920,0.400256,0.092630,0.134735,0.050525,241.000000,230.000000,11.000000,16.000000,0.000000,0.000000,0.000000,0.000000,0.000000;
#CREDIT:;
#NOTES:
0000
0000
0000
0000
,
0000
0000
0000
0000
,
0000
0000
0000
0000
,
0000
0000
0000
0000
,
0000
0000
0000
0000
,
0000
0000
0000
0000
,
0000
0000
0000
0000
,
0000
0000
0000
0000
,
0000
0000
0000
0000
,
1000
0000
1000
0000
0001
0000
0000
1000
,
0000
0000
0010
0000
0100
0000
0001
0010
,
0000
0000
0000
0100
0000
0000
0000
0010
,
0000
0001
0000
1000
0001
0000
1000
0000
,
0010
0000
0010
0000
0010
0000
0000
0100
,
0000
0000
0010
0000
1000
0000
0001
0010
,
0000
0000
0000
0100
0000
0000
0000
0010
,
0000
0001
0000
0100
0010
0000
1000
0000
,
1001
0000
0001
1000
,
0000
0000
0100
1000
,
0010
0000
0100
0001
,
0000
0000
0100
0001
,
1000
0000
0100
1000
,
0000
0000
0100
1000
,
0001
0000
0100
0001
,
0000
0000
0010
0001
,
1001
0001
1000
0001
,
1000
0001
1000
1000
,
0010
0100
0010
0100
,
0010
0100
0010
0010
,
0100
0010
1000
1000
,
0001
1000
0010
1000
,
0100
0100
0010
0010
,
0001
0010
0100
0100
,
1001
1000
0010
1000
,
0100
0000
0000
0000
0010
0000
0000
0000
0100
0000
0000
1000
0000
0000
0010
0000
,
0000
0100
0010
1000
,
0001
0000
0000
0000
0010
0000
0000
0000
0100
0000
0000
0010
0000
0000
0001
0000
,
0000
0010
0001
1000
,
0010
0000
0000
0000
0100
0000
0000
0000
0001
0000
0000
0100
0000
0000
0010
0000
,
0000
0100
0010
1000
,
0001
0000
1000
0000
0000
0100
1000
0010
,
0100
0010
1000
0001
,
0010
0000
0000
0000
0100
0000
0000
0000
0010
0000
0000
0001
0000
0000
1000
0000
,
0000
0001
0010
0001
,
1000
0000
0000
0000
0100
0000
0000
0000
1000
0000
0000
1000
0000
0000
0001
0000
,
0000
0100
0010
1000
,
0010
0000
0000
0000
1000
0000
0000
0000
0001
0000
0000
0010
0000
0000
0100
0000
,
0000
0010
0001
0010
,
0001
1000
0010
0100
,
1001
0000
0000
0220
,
0000
0000
0330
0000
,
2002
0000
3003
0220
,
0000
0000
0330
0000
,
2002
0000
3003
0220
,
0000
0000
0330
0000
,
2002
0000
0000
0000
0000
0000
0000
0000
3003
0000
0000
0000
0220
0000
0000
0330
,
0000
0010
1000
0010
,
0100
0000
0001
0000
1000
0000
0001
0010
,
0100
1000
0001
0000
1000
0000
0001
0000
,
0100
0000
0001
0000
0010
0000
0100
0010
,
0001
0010
0100
0000
0010
0000
0001
0000
,
1000
0000
0010
0000
0100
0000
1000
0100
,
0010
1000
0001
0000
1000
0000
0100
0000
,
0001
0000
0100
0010
0100
0010
0000
0000
,
0200
0000
0000
0000
1300
0000
0000
0000
0010
0000
0000
0000
0100
0000
0000
0010
,
0000
0000
1000
0000
0000
0000
0000
0000
0001
0000
0000
0000
1000
0000
0000
0100
,
0000
0000
1000
0000
0000
0000
0000
0000
0100
0000
0000
0000
0010
0000
0000
0001
,
0000
0000
0010
0000
0000
0000
0000
0000
0001
0000
0000
0000
1000
0000
0000
0010
,
0000
0000
0100
0000
0000
0000
0000
0000
0010
0000
0000
0000
0100
0000
0000
0001
,
0000
0000
0010
0000
0000
0000
0000
0000
0100
0000
0000
0000
0010
0000
0000
0001
,
0000
1000
0001
0000
0100
0000
0010
0000
,
1000
0000
0001
0100
0010
1000
0001
0100
,
0010
1000
0020
0000
0000
0000
0000
0000
,
0000
0030
0000
0000
0000
0000
0000
0000
;

//---------------dance-single - ----------------
#NOTEDATA:;
#CHARTNAME:;
#STEPSTYPE:dance-single;
#DESCRIPTION:;
#CHARTSTYLE:;
#DIFFICULTY:Beginner;
#METER:1;
#RADARVALUES:0.087818,0.152103,0.058946,0.000000,0.000000,73.000000,66.000000,7.000000,0.000000,0.000000,0.000000,0.000000,0.000000,0.000000,0.087818,0.152103,0.058946,0.000000,0.000000,73.000000,66.000000,7.000000,0.000000,0.000000,0.000000,0.000000,0.000000,0.000000;
#CREDIT:;
#NOTES:
0000
0000
0000
0000
,
0000
0000
0000
0000
,
0000
0000
0000
0000
,
0000
0000
0000
0000
,
0000
0000
0000
0000
,
0000
0000
0000
0000
,
0000
0000
0000
0000
,
0000
0000
0000
0000
,
0000
0000
0000
0000
,
1000
0000
0000
0000
,
0001
0000
0000
0000
,
0100
0000
0000
0000
,
0010
0000
0010
0000
,
0100
0000
0000
0000
,
0001
0000
0000
0000
,
1000
0000
0000
0000
,
0001
0000
0000
0000
,
0110
0000
0000
0000
,
0000
0000
1000
0000
,
0000
0000
0000
0000
,
0000
0000
0001
0000
,
0000
0000
0000
0000
,
0000
0000
0010
0000
,
0000
0000
0000
0000
,
0000
0000
0100
0000
,
0010
0000
0000
0000
,
0000
0000
0001
0000
,
1000
0000
0000
0000
,
0000
0000
0010
0000
,
1000
0000
0000
0000
,
0000
0000
0001
0000
,
0010
0000
0000
0000
,
0001
0000
0000
0000
,
1001
0000
0000
0000
,
1000
0000
0000
0000
,
0010
0000
0000
0000
,
1000
0000
0000
0000
,
0100
0000
0000
0000
,
1000
0000
0000
0000
,
0001
0000
0000
0000
,
1001
0000
0000
0000
,
0110
0000
0000
0000
,
0010
0000
0000
0000
,
0100
0000
0000
0000
,
0001
0000
0001
0000
,
1000
0000
0000
0000
,
0010
0000
0000
0000
,
1000
0000
0000
0000
,
0100
0000
0000
0000
,
1000
0000
0000
1001
,
0000
0000
0000
0000
,
0001
0000
0000
1001
,
0000
0000
0000
0000
,
0010
0000
0000
0110
,
0000
0000
0000
0000
,
0100
0000
0000
0000
,
0000
0010
0000
0000
,
0000
1000
0000
1000
,
0000
0001
0000
0000
,
0000
0100
0000
0100
,
0000
0010
0000
0000
,
0000
1000
0000
1000
,
0000
0010
0000
0000
,
0000
0100
0000
0000
,
0000
0010
0000
0000
,
0000
1000
0000
0000
,
0000
0001
0000
0000
,
0000
0010
0000
0000
,
0000
0100
0000
0000
,
0000
0010
0000
0000
,
0000
0001
0000
0000
,
0000
1000
0000
0000
,
0000
0010
0000
0000
;

//---------------dance-double - ----------------
#NOTEDATA:;
#CHARTNAME:;
#STEPSTYPE:dance-double;
#DESCRIPTION:;
#CHARTSTYLE:;
#DIFFICULTY:Challenge;
#METER:7;
#RADARVALUES:0.412625,0.523860,0.168418,0.126314,0.105261,343.000000,323.000000,20.000000,15.000000,0.000000,0.000000,0.000000,0.000000,0.000000,0.412625,0.523860,0.168418,0.126314,0.105261,343.000000,323.000000,20.000000,15.000000,0.000000,0.000000,0.000000,0.000000,0.000000;
#CREDIT:;
#NOTES:
// measure 0
00000000
00000000
00000000
00000000
,  // measure 1
00000000
00000000
00000000
00000000
,  // measure 2
00000000
00000000
00000000
00000000
,  // measure 3
00000000
00000000
00000000
00000000
,  // measure 4
00000000
00000000
00000000
00000000
,  // measure 5
00000000
00000000
00000000
00000000
,  // measure 6
00000000
00000000
00000000
00000000
,  // measure 7
00000000
00000000
00000000
00000000
,  // measure 8
00000000
00000000
00000000
00000000
,  // measure 9
01000000
00000000
01000000
00000000
10010000
00000000
00000000
00100000
,  // measure 10
00000000
00001000
00010000
00000100
00001000
00000000
00000010
00000100
,  // measure 11
00000000
00000000
00000000
00000002
00000003
00000000
00000000
00000100
,  // measure 12
00000000
00000010
00000000
00000100
00000010
00000000
00000110
00000000
,  // measure 13
00001000
00000000
00000100
00000000
00001000
00000000
00000000
00000010
,  // measure 14
00000000
00010000
00001000
00100000
00010000
00000000
01000000
00100000
,  // measure 15
10000000
10000000
00010000
00010000
,  // measure 16
00100000
00001000
00010000
00000100
00002000
00000000
00003001
00000000
,  // measure 17
00000101
00000000
00000010
00001001
,  // measure 18
00000000
00000000
00000000
00000000
00000001
00001000
00000010
00010000
,  // measure 19
00001000
00000000
00010000
00011000
,  // measure 20
00000000
00000000
00000000
00000000
00001000
00100000
00010000
01000000
,  // measure 21
00100000
00000000
10000000
10010000
,  // measure 22
00000000
00000000
00000000
00000000
00100000
00010000
00100000
00001000
,  // measure 23
00010000
00000000
00001000
00011000
,  // measure 24
00000000
00000000
00000000
00000000
00010000
00000010
00001000
00000100
,  // measure 25
00000010
00000001
00000100
00000010
,  // measure 26
00001000
00000000
00000100
00000000
00010000
00001000
00100000
00001000
,  // measure 27
01000000
00010000
00100000
00010000
,  // measure 28
10000000
00000000
01000000
00000000
00100000
00001000
00010000
00000010
,  // measure 29
00000100
00000001
00001000
00001000
,  // measure 30
00000001
00000000
00000010
00000000
00000100
00001000
00000100
00010000
,  // measure 31
00001000
00100000
00001000
00000000
00010000
00100000
00010000
00000000
,  // measure 32
01000000
00000000
00100000
00000000
10000000
00000000
00010000
00000000
00100000
00000000
00000000
00100000
00000000
00000000
00100000
00000000
,  // measure 33
00001000
00010000
00000100
00001000
00000010
00000000
00000010
00000100
,  // measure 34
00000000
00000000
00000100
00000000
00000010
00000000
00001000
00000000
00000100
00000000
00000000
00010000
00000000
00000000
00001000
00000000
,  // measure 35
00000000
00010000
00001000
01000000
00100000
00000000
00100000
01000000
,  // measure 36
00000000
00000000
00100000
00000000
10000000
00000000
01000000
00000000
00100000
00000000
00000000
00001000
00000000
00000000
00010000
00000000
,  // measure 37
00000100
00001000
00000010
00000100
00000001
00000000
00000001
00001000
,  // measure 38
00000000
00000000
00000100
00000000
00000000
00000000
00001000
00000000
00000001
00000000
00000000
00000001
00000000
00000000
00000100
00000000
,  // measure 39
00000010
00001000
00000100
00010000
00001000
00000000
00001000
01000000
,  // measure 40
00000000
00100000
10000000
00010000
00000000
00100000
01000000
10000000
,  // measure 41
00010000
00000000
00100000
00000000
00001000
00000000
00010000
00000000
00000100
00000000
00000000
00001000
00000000
00000000
00000100
00000000
,  // measure 42
00000000
00000000
00000010
00000000
00000000
00000000
00000010
00000000
00000100
00000000
00000000
00000010
00000000
00000000
00000001
00000000
,  // measure 43
00000000
00000000
00000100
00000000
00000010
00000000
00001000
00000000
00000100
00000000
00000000
00010000
00000000
00000000
00001000
00000000
,  // measure 44
00000000
00000000
00010000
00000000
00001000
00000000
01000000
00000000
01100000
00000000
00000000
10100000
00000000
00000000
01010000
00000000
,  // measure 45
00000000
00000000
00010000
00000000
00100000
00000000
00001000
00000000
00010000
00000000
00000000
00010000
00000000
00000000
00000010
00000000
,  // measure 46
00000000
00000100
00000000
00000000
00000000
00000100
00000010
00001000
,  // measure 47
00000001
00000000
00001000
00000000
00000100
00000000
00010000
00000000
00001000
00000000
00000000
01000000
00000000
00000000
00100000
00000000
,  // measure 48
00000000
10000000
01000000
00100000
00010000
00001000
00000010
00000001
,  // measure 49
00001000
00000000
00000000
00002200
,  // measure 50
00000000
00000000
00003300
00000000
,  // measure 51
00020000
00000000
00030000
00202000
,  // measure 52
00000000
00000000
00000000
00000000
00003000
00000000
00000000
00000000
00301000
00000000
00000000
01000000
00000000
00000000
00100000
00000000
,  // measure 53
20100000
00000000
30000000
00220000
,  // measure 54
00000000
00000000
00000000
00000000
00330000
00100000
01000000
10000000
,  // measure 55
10020000
00000000
00000000
00000000
00000000
00000000
00000000
00000000
00030000
00000000
00000000
00000000
00202000
00000000
00000000
00303000
,  // measure 56
00000000
00000000
00000000
00000000
00010000
00000000
00000100
00000000
00001000
00000000
00000010
00000000
00000100
00000000
00000000
00000100
,  // measure 57
00000000
00000000
00000100
00000000
00000000
00000000
00000010
00000000
00001000
00000000
00000100
00000000
00010000
00000000
00001000
00010000
,  // measure 58
00000000
00010000
00001000
00000000
00000000
00000000
00010000
00000000
00001000
00000000
01000000
00000000
00100000
00000000
00000000
00100000
,  // measure 59
00000000
00100000
00000000
01000000
00000000
01000000
00100000
10000000
,  // measure 60
01000000
00000000
00010000
00000000
01000000
00000000
00100000
00000000
00001000
00000000
00010000
00000000
00000100
00000000
00000000
00000100
,  // measure 61
00000000
00000000
00001000
00000000
00000000
00000000
00000001
00000000
00001000
00000000
00000001
00000000
00001000
00000000
00000001
00000100
,  // measure 62
00000000
00000001
00000100
00000000
00000001
00000000
00000100
00000000
00000010
00000000
00001000
00000000
00000100
00000000
00000000
00010000
,  // measure 63
00000000
00001000
01000000
01000000
01000000
01000000
00000000
00000000
,  // measure 64
00200000
00000000
00000000
00000000
10300000
00000000
00000000
00000000
11000000
00000000
00000000
00000000
00100000
00000000
00000000
00001000
,  // measure 65
00000000
00000000
00010000
00000000
00000100
00000000
00000000
00000000
00001100
00000000
00000000
00000000
00001000
00000000
00000000
00000010
,  // measure 66
00000000
00000000
00000100
00000000
00000001
00000000
00000000
00000000
00000011
00000000
00000000
00000000
00000010
00000000
00000000
00000100
,  // measure 67
00000000
00000000
00001000
00000000
00000100
00000000
00000000
00000000
00010100
00000000
00000000
00000000
00001000
00000000
00000000
00100000
,  // measure 68
00000000
00000000
01000000
00000000
10000000
00000000
01000000
00000000
10000000
00000000
00010000
00000000
01000000
00000000
00000000
01000000
,  // measure 69
00000000
00000000
01000000
00000000
00000000
00000000
00100000
00000000
10000000
00000000
00010000
00000000
00100000
00000000
00000000
00100000
,  // measure 70
00000000
00100000
00001000
00010000
00000100
00001000
00000010
00001000
,  // measure 71
00000100
00010000
00001000
00100000
01000000
10000000
00100000
01000000
,  // measure 72
00010000
00100000
00002000
00000000
00000000
00000000
00000000
00000000
,  // measure 73
00000000
00000000
00000000
00003000
00000000
00000000
00000000
00000000
00000000
00000000
00000000
00000000
00000000
00000000
00000000
00000000
;
