#VERSION:0.83;
#TITLE:Show Your Hand;
#SUBTITLE:;
#ARTIST:Odyssey;
#TITLETRANSLIT:;
#SUBTITLETRANSLIT:;
#ARTISTTRANSLIT:;
#GENRE:;
#ORIGIN:;
#CREDIT:;
#BANNER:banner.png;
#BACKGROUND:background.png;
#PREVIEWVID:;
#JACKET:jacket.png;
#CDIMAGE:;
#DISCIMAGE:;
#LYRICSPATH:;
#CDTITLE:;
#MUSIC:Show Your Hand.ogg;
#OFFSET:-0.200000;
#SAMPLESTART:65.946457;
#SAMPLELENGTH:12.387100;
#SELECTABLE:YES;
#BPMS:0.000=155.000;
#STOPS:;
#DELAYS:;
#WARPS:;
#TIMESIGNATURES:0.000=4=4;
#TICKCOUNTS:0.000=4;
#COMBOS:0.000=1;
#SPEEDS:0.000=1.000=0.000=0;
#SCROLLS:0.000=1.000;
#FAKES:;
#LABELS:0.000=Song Start;
#BGCHANGES:;
#KEYSOUNDS:;
#ATTACKS:
;

//---------------dance-single - ----------------
#NOTEDATA:;
#CHARTNAME:;
#STEPSTYPE:dance-single;
#DESCRIPTION:;
#CHARTSTYLE:;
#DIFFICULTY:Hard;
#METER:8;
#RADARVALUES:0.516940,0.604552,0.149734,0.149734,0.228761,435.000000,417.000000,18.000000,18.000000,0.000000,0.000000,0.000000,0.000000,0.000000,0.516940,0.604552,0.149734,0.149734,0.228761,435.000000,417.000000,18.000000,18.000000,0.000000,0.000000,0.000000,0.000000,0.000000;
#CREDIT:;
#NOTES:
0000
0000
0000
0000
,
0000
0000
0000
0000
,
0000
0000
0000
0000
,
0000
0000
0000
0000
,
0000
0000
1000
0001
,
0010
0010
0001
1000
,
0100
0100
0010
0100
,
1000
0000
0000
0000
1000
0000
0000
0000
0100
0000
0010
0000
0000
0001
0000
0000
,
0100
0000
0000
0010
0000
0000
1000
0000
0001
0000
0010
0000
0001
0000
0000
0000
,
1000
0100
1000
0000
0001
1000
0010
0000
,
0100
0001
0010
0000
0100
0010
0100
0000
,
0010
0001
0010
0000
0001
0100
1000
0100
,
0010
1000
0001
0010
0100
0010
0100
0000
,
0010
0001
0010
0000
0001
1000
0010
0000
,
0100
0010
1000
0000
0001
1000
0001
0000
,
0100
0010
0100
0000
0010
1000
0001
0010
,
0100
0010
0001
1000
2002
0000
0000
0000
,
0000
0000
0000
0000
,
0000
0000
0000
0000
3003
0000
0000
0000
1000
0010
0000
0100
0000
0001
0010
0000
,
0001
0000
1000
0000
0001
0000
1000
0000
0001
0100
0000
0010
0000
1000
0100
0000
,
0010
0000
0100
0000
1000
0000
0010
0000
0100
0001
0000
0010
0000
0100
0010
0000
,
0001
0000
1000
0000
0001
0000
1000
0000
0010
1000
0010
0000
0100
0000
0000
0000
,
0001
0010
0001
0000
1000
0000
0000
0000
0001
0010
0000
0100
0000
0010
0001
0000
,
1000
0000
0010
0000
1000
0000
0010
0000
0100
0001
0000
0010
0000
0100
0010
0000
,
0001
0000
1000
0000
0010
0000
1000
0000
0001
1000
0000
0100
0000
0010
0100
0000
,
0010
0000
0001
0000
0010
0000
0001
0000
0100
0010
1000
0000
0001
0000
0000
0000
,
0010
0100
1000
0000
0001
0000
0000
0000
1000
0000
0000
0000
0010
0000
0000
0000
,
0100
0001
0010
0001
1000
0000
0001
0000
,
0100
0000
0001
0010
,
1000
0010
0001
0100
0001
0000
1000
0000
,
0100
0000
1000
0010
,
0100
0010
1000
0001
0010
0000
0100
0000
,
0010
0000
0100
1000
,
0100
0001
0100
0010
0001
0000
1000
0000
,
0010
0000
0000
0000
0100
1000
0100
0001
,
0010
0100
1000
0000
,
0100
1000
0010
0100
0001
0000
0000
0001
,
0010
0001
1000
0010
0200
0000
0000
0010
,
0310
0000
0000
0000
0010
0100
0001
0010
,
0100
0000
0010
0000
0001
0000
0000
1000
,
0001
0100
0001
0010
0100
0000
0000
0010
,
0001
1000
0100
1000
0010
0100
0010
0100
,
0010
0000
1001
0110
,
1001
0001
0010
0001
0101
0000
1010
0000
,
0101
0000
0001
1000
1100
0000
0110
0000
,
0100
1000
0010
0100
0002
0000
1000
0000
,
0100
0013
0011
0110
,
1100
0100
1000
0010
1010
0000
0110
0000
,
0101
0000
0001
1000
0010
0000
0100
0000
,
0010
1000
0100
0020
0200
0000
0000
0000
,
0000
0000
0000
0000
0330
0000
0000
0000
0001
1000
0000
0010
0000
0100
0001
0000
,
1000
0000
0001
0000
1000
0000
0001
0000
0010
0100
0000
1000
0000
0010
0100
0000
,
0001
0000
1000
0000
0100
0000
0010
0000
0100
1000
0000
0010
0000
0100
0001
0000
,
1000
0000
0010
0000
1000
0000
0010
0000
1000
0001
1000
0000
0010
0000
0000
0000
,
0100
0001
0100
0000
0001
0000
0000
0000
0010
0001
0000
0100
0000
0010
1000
0000
,
0100
0000
0010
0000
0100
0000
0010
0000
0100
1000
0000
0010
0000
0100
0001
0000
,
0010
0000
0001
0000
0100
0000
0001
0000
1000
0100
0000
0010
0000
0100
1000
0000
,
0010
0000
0100
0000
0010
0000
0100
0000
0001
1000
0010
0000
0100
0000
0000
0000
,
0010
1000
0100
0000
0010
0000
0000
0000
0100
0000
0000
0100
0000
0000
0200
0000
,
0000
0000
0000
0000
1300
0000
0100
0000
0010
0000
0100
0000
0000
0010
0001
0000
,
0100
0000
0001
0000
0010
0000
0001
0000
1000
0000
0000
0000
0001
0100
0000
0100
,
0000
0010
1000
0010
1000
0100
0001
0100
,
1000
0000
0010
0000
1000
0000
0001
0000
0000
0000
0010
0000
0000
0010
0000
0000
,
0020
0000
0000
0032
0023
2030
3020
0032
,
0013
0100
1000
0001
0000
0100
0010
1000
,
0001
0010
0100
0010
0002
0000
1003
0020
,
0000
0200
0000
0330
1001
0000
0001
0000
,
0010
0010
0001
1000
,
0010
0010
0100
1000
,
0100
0000
0000
0000
0100
0000
0000
0000
0001
0000
0010
0000
0000
0001
0000
0000
,
1000
0000
0000
0010
0000
0000
0100
0000
1001
0000
0000
0000
0001
0000
0000
0000
,
0010
0010
0100
0010
,
0001
0001
1000
0001
,
0100
0000
0000
0000
0100
0000
0000
0000
0010
0000
1000
0000
0000
0010
0000
0000
,
0100
0000
0000
0001
0000
0000
0010
0000
2002
0000
0000
0000
0000
0000
0000
0000
,
0000
0000
0000
0000
,
0000
0000
3003
0000
;

//---------------dance-single - ----------------
#NOTEDATA:;
#CHARTNAME:;
#STEPSTYPE:dance-single;
#DESCRIPTION:;
#CHARTSTYLE:;
#DIFFICULTY:Challenge;
#METER:11;
#RADARVALUES:0.755801,0.954556,0.307787,0.324424,0.786105,636.000000,599.000000,37.000000,39.000000,30.000000,0.000000,5.000000,0.000000,0.000000,0.755801,0.954556,0.307787,0.324424,0.786105,636.000000,599.000000,37.000000,39.000000,30.000000,0.000000,5.000000,0.000000,0.000000;
#CREDIT:;
#NOTES:
// measure 0
0000
0000
0000
0000
,  // measure 1
0000
0000
0000
0000
,  // measure 2
0000
0000
0000
0000
,  // measure 3
0000
0000
0000
0000
,  // measure 4
0000
0000
1000
1010
,  // measure 5
0100
0001
0010
0000
0100
0000
1100
0000
,  // measure 6
0100
1000
0010
0000
0100
0000
1001
0000
,  // measure 7
1000
0000
0010
0000
0100
0000
0000
0000
0010
0000
1000
0000
0000
0100
0000
0000
,  // measure 8
0001
0000
0000
0100
0000
0000
0010
0000
0001
0000
1000
0000
0001
0000
1000
0000
,  // measure 9
0001
1000
0001
1000
0001
0100
0001
0100
,  // measure 10
0001
0100
0001
1000
0001
0010
0001
0010
,  // measure 11
0001
1000
0001
1000
0001
0100
0010
0100
,  // measure 12
0010
0100
0001
1000
0100
0010
0100
0010
,  // measure 13
0100
0010
0100
0010
0100
1000
0100
1000
,  // measure 14
0100
1000
0001
0100
0001
0010
0001
0010
,  // measure 15
0001
1000
0001
1000
0001
0010
0100
0010
,  // measure 16
0001
0000
0010
0000
0100
0000
1000
0000
0002
0000
0000
0000
0000
0203
0000
0000
,  // measure 17
0000
0000
0000
0020
0000
0000
0000
0000
0000
0000
0000
0000
0000
0000
0000
0000
,  // measure 18
0000
0000
0330
0000
0000
0000
0000
0000
0001
1000
0000
0010
0000
1000
0001
0000
,  // measure 19
0010
0001
0100
0001
0010
0100
1000
0010
0100
0001
0000
0010
0000
0100
0010
0000
,  // measure 20
0001
0100
0001
0100
0010
1000
0010
1000
0001
1000
0000
0100
0000
0010
0100
0000
,  // measure 21
0010
0001
0100
0010
1000
0001
0010
0100
1000
0100
0010
0001
1000
0010
0100
0001
,  // measure 22
1000
0100
0010
0001
1000
0010
1000
0100
0010
0100
0000
1000
0000
0010
0100
0000
,  // measure 23
0001
1000
0100
0010
0100
1000
0010
0100
0001
0010
0000
0001
0000
0100
0010
0000
,  // measure 24
1000
0010
1000
0010
0100
0010
0100
0010
1000
0001
0000
0010
0000
0100
0010
0000
,  // measure 25
0001
0100
0001
1000
0100
0010
0100
1000
0001
0010
0100
1000
0001
0100
0001
1000
,  // measure 26
0001
0010
0100
1000
0001
0010
0001
1000
0001
0000
1000
0000
0010
0000
0100
0000
,  // measure 27
0001
0000
0010
0001
0010
0000
0001
0000
1000
0000
0010
0000
0100
0000
0001
0000
,  // measure 28
0010
0000
0100
1000
0100
0000
1000
0000
0001
0000
0100
0000
0001
0000
0010
0000
,  // measure 29
0100
0000
0010
0001
0010
0000
0001
0000
1000
0000
0010
0000
0100
0000
0001
0000
,  // measure 30
0010
0000
0100
0010
0001
0000
1000
0000
0001
0000
1000
0000
0100
1000
0010
0000
,  // measure 31
0100
0001
0010
0000
0200
0000
0000
0000
0310
0000
0001
0000
1000
0010
0100
0000
,  // measure 32
0001
0010
0100
0000
0020
0000
0000
0000
0031
0000
1000
0000
0010
1000
0100
0000
,  // measure 33
0010
0001
1000
0000
0002
0000
0000
0000
0103
0000
0001
0000
0010
0100
1000
0000
,  // measure 34
0100
0010
0001
0000
2000
0000
0000
0000
3100
0000
0010
0000
0001
0000
0010
0000
,  // measure 35
0200
0000
0320
0000
0031
0000
0000
0001
,  // measure 36
1000
0010
0001
0010
1010
0000
0000
1000
,  // measure 37
0100
0001
0100
1000
0002
0000
0000
0103
,  // measure 38
0101
0000
0000
0000
0100
0100
0010
1000
,  // measure 39
0200
0000
0320
0000
0130
0000
0000
0010
,  // measure 40
0100
1000
0010
0100
0101
0000
0000
0001
,  // measure 41
1000
0100
0010
0100
2000
3002
2003
3002
,  // measure 42
2000
3003
1M1M
M1M1
,  // measure 43
MM11
0001
0010
0100
1100
0000
0011
0000
,  // measure 44
1100
0000
0001
0100
0110
0000
1010
0000
,  // measure 45
0010
0100
0001
1000
2001
0000
0100
0000
,  // measure 46
0010
3001
M1M1
MM11
,  // measure 47
M11M
0100
1000
0010
0110
0000
0101
0000
,  // measure 48
0011
0000
0010
0100
1100
0000
0011
0000
,  // measure 49
0001
0000
0100
0000
0010
0000
00M0
2000
000M
0000
0002
0000
0000
0000
0000
0000
,  // measure 50
0000
0000
0000
0000
0000
0000
3003
0000
1MM0
0001
0000
0010
M00M
0100
0010
0000
,  // measure 51
01MM
1000
0010
0100
0001
0010
0100
0010
0001
1000
0000
0010
0000
1000
0010
0000
,  // measure 52
0100
0001
0100
0001
0010
0100
0010
0100
0010
0001
0000
1000
0000
0010
0100
0000
,  // measure 53
0001
0100
0001
0100
0010
1000
0001
0010
0001
0010
0100
1000
0001
0100
0010
1000
,  // measure 54
0001
0010
0100
1000
0001
0100
0001
0010
M10M
0010
0000
0001
M0M0
0100
0010
0000
,  // measure 55
1M0M
0010
0100
0001
0010
0100
0010
0001
1000
0001
0000
0100
0000
0001
0010
0000
,  // measure 56
0100
0010
0100
0010
0001
1000
0001
1000
0001
0100
0000
0010
0000
1000
0100
0000
,  // measure 57
0010
0100
1000
0010
0100
0001
0010
0001
1000
0100
0010
0001
1000
0010
0100
0001
,  // measure 58
1000
0100
0010
0001
0010
0001
0100
0001
0200
0000
0300
0200
0000
0300
0200
0000
,  // measure 59
0000
0000
0000
0000
0310
1000
0010
0100
0001
0000
1001
0000
0000
0001
0010
0000
,  // measure 60
0100
0010
0001
1000
0010
0100
0001
0020
0000
0000
0000
0000
0130
2000
3000
2000
,  // measure 61
0000
3000
0001
0000
1000
0100
0010
0001
1000
0010
1000
0010
0100
0001
0010
0100
,  // measure 62
1000
0100
1000
0100
0010
0001
0100
0010
0000
0000
0200
0000
0300
0200
0000
0300
,  // measure 63
0200
0000
0000
0340
4030
3004
0043
0430
,  // measure 64
0320
0000
0230
0000
2300
0000
3002
0000
0003
0000
0100
0001
0010
0001
1000
0100
,  // measure 65
0010
0100
1000
0010
0100
0001
0010
0100
0020
0000
0000
0000
0032
0000
02M3
0000
,  // measure 66
000M
0000
0320
0000
0M00
0000
0000
0030
10M1
0000
0001
0000
0000
0010
0000
0000
,  // measure 67
0001
0000
0010
0100
0000
0100
1000
0010
0000
0000
0100
0000
0000
0001
0000
0000
,  // measure 68
0010
0000
0100
1000
0000
0100
1000
0001
1000
0000
0010
0000
0000
0100
0000
0000
,  // measure 69
0001
0000
1000
0100
0000
0100
1000
0001
1000
0000
1010
0000
0000
0101
0000
0000
,  // measure 70
0011
0000
0000
0110
0000
0000
1100
0000
1001
0000
0001
0000
0000
1000
0000
0000
,  // measure 71
0010
0000
0100
0001
0000
0010
0100
1000
0000
0000
0100
0000
0000
1000
0000
0000
,  // measure 72
0010
0000
0100
0001
0000
0001
0010
0100
0000
0000
0010
0000
0000
0001
0000
0000
,  // measure 73
1000
0000
0010
1000
0000
0010
0100
0001
0000
0000
1001
0000
0000
1010
0000
0000
,  // measure 74
0101
0000
0000
0011
0000
0000
0110
0000
2002
0000
0000
0000
0000
0000
0000
0000
,  // measure 75
0000
0000
0000
0000
,  // measure 76
0000
0000
3003
0000
;

//---------------dance-single - ----------------
#NOTEDATA:;
#CHARTNAME:;
#STEPSTYPE:dance-single;
#DESCRIPTION:;
#CHARTSTYLE:;
#DIFFICULTY:Medium;
#METER:6;
#RADARVALUES:0.440884,0.509096,0.307787,0.108141,0.004159,371.000000,334.000000,37.000000,13.000000,0.000000,0.000000,0.000000,0.000000,0.000000,0.440884,0.509096,0.307787,0.108141,0.004159,371.000000,334.000000,37.000000,13.000000,0.000000,0.000000,0.000000,0.000000,0.000000;
#CREDIT:;
#NOTES:
0000
0000
0000
0000
,
0000
0000
0000
0000
,
0000
0000
0000
0000
,
0000
0000
0000
0000
,
0000
0000
1000
0010
,
1000
1000
0001
0100
,
0001
0001
0010
0100
,
0010
0010
0100
0010
,
0001
0000
1000
0000
0001
0100
0001
0000
,
0100
0000
0010
0000
1000
0010
1000
0000
,
0010
0000
0100
0000
0001
1000
0010
0000
,
1000
0001
0100
0000
0001
1000
0100
0000
,
0010
0100
1000
0000
0100
1000
0010
0000
,
0100
0000
0010
0000
1000
0001
0010
0000
,
0100
0000
0010
0000
0001
0100
0010
0000
,
0100
0010
1000
0000
0001
0010
0100
0000
,
0010
0001
1000
0000
0220
0000
0000
0000
,
0000
0000
0000
0000
,
0000
0330
0110
1001
,
0001
1000
0010
0000
1010
0000
1010
0000
,
1000
0010
0100
0000
0101
0000
0011
0000
,
0010
0100
1000
0000
0100
0100
0010
0000
,
0100
0100
1000
0000
1100
0000
0110
0000
,
0100
1000
0010
0000
0110
0000
0110
0000
,
0010
0100
0001
0000
1001
0000
1001
0000
,
0001
0010
0100
0000
0010
0010
0001
0000
,
0010
0010
0100
0000
1000
0000
0100
0000
,
1000
0010
0100
0001
1000
0000
0001
0000
,
0100
0000
0001
0010
,
0100
0010
0001
1000
0010
0000
1000
0000
,
0100
0000
1000
0010
,
0100
0010
1000
0001
0010
0000
0100
0000
,
0010
0000
0100
1000
,
0100
1000
0010
0100
0001
0000
0010
0000
,
0100
0000
0000
0000
0010
0001
1000
0100
,
0010
0000
0100
0000
1000
0000
0000
0001
,
0100
0010
0100
0001
0100
0000
0000
0010
,
0100
1000
0100
0010
0200
0000
0000
0301
,
1000
0000
0000
0000
0100
0010
0001
1000
,
0001
0000
0010
0000
0010
0000
0000
0001
,
0010
0001
0100
0010
1000
0000
0000
0010
,
1000
0100
0010
0001
0010
0100
0010
0200
,
0020
0330
0110
0110
,
0110
0100
1100
1100
,
1100
1000
1010
1010
,
1000
0010
0100
0001
0020
0000
0000
0000
,
0000
0030
0011
0011
,
0011
0010
0110
0110
,
0110
0100
1100
1000
,
0001
1000
0010
0100
0002
0000
0000
0000
,
0000
0003
1001
0110
,
1001
1000
0001
0000
0100
0000
0001
0000
,
0100
0010
1000
0000
0100
0000
0010
0000
,
0100
1000
0001
0000
1000
0010
0100
0000
,
0010
0100
0001
0000
0101
0000
1010
0000
,
1100
0100
0010
0000
0100
0000
1000
0000
,
0010
0100
0001
0000
1000
0000
0001
0000
,
0010
0001
0100
0000
0010
0010
0100
0000
,
0100
0100
0001
0000
1000
0000
0001
0000
,
0010
0000
0001
0100
0010
1000
0000
0000
,
0001
1000
0100
1000
0010
0000
1000
0000
,
0001
0000
0010
0000
0001
0100
0001
0100
,
0010
0000
1000
0000
0010
0000
1000
0000
0000
0000
0010
0000
0000
1000
0000
0000
,
0002
0000
0000
1003
0100
0001
0100
1000
,
0010
0100
0001
1000
0000
0001
0010
0100
,
0010
0001
1000
0010
0200
0000
0310
2000
,
0000
0002
0000
3003
1001
0000
0001
0000
,
1000
1000
0001
0100
,
0010
0010
0100
0001
,
1000
1000
0100
1000
,
0010
0100
1001
0001
,
0010
0010
0001
1000
,
0100
0100
1000
0010
,
0100
0100
0010
0100
,
0001
1000
0220
0000
,
0000
0000
0000
0000
,
0000
0000
0330
0000
;

//---------------dance-single - ----------------
#NOTEDATA:;
#CHARTNAME:;
#STEPSTYPE:dance-single;
#DESCRIPTION:;
#CHARTSTYLE:;
#DIFFICULTY:Easy;
#METER:4;
#RADARVALUES:0.312541,0.402827,0.183008,0.091504,0.000000,263.000000,241.000000,22.000000,11.000000,0.000000,0.000000,0.000000,0.000000,0.000000,0.312541,0.402827,0.183008,0.091504,0.000000,263.000000,241.000000,22.000000,11.000000,0.000000,0.000000,0.000000,0.000000,0.000000;
#CREDIT:;
#NOTES:
0000
0000
0000
0000
,
0000
0000
0000
0000
,
0000
0000
0000
0000
,
0000
0000
0000
0000
,
0000
0000
1000
0000
,
0001
0000
0100
0000
,
0001
0000
0010
0000
,
0001
0000
1000
0000
,
0001
0000
1000
0010
,
1000
0010
0100
0001
,
0100
0001
0010
0001
,
1000
0001
0100
0010
,
0100
0010
1000
0001
,
1000
0001
0100
0010
,
0100
0010
1000
0010
,
0100
0001
0010
0100
,
1000
0100
2002
0000
,
0000
0000
0000
0000
,
3003
0000
1001
0001
,
2000
3000
1010
0010
,
0200
0310
1010
0100
,
0002
0000
0003
0000
1000
0001
0100
0000
,
0010
0100
0001
0000
1001
0000
0001
0000
,
0200
0300
1010
0100
,
0002
0013
0110
0100
,
0020
0000
0030
0000
0001
0010
0100
0000
,
0010
0100
1000
0000
0001
0000
1000
0000
,
0010
1000
0010
0100
,
0100
0000
0010
1000
,
0100
0001
0100
0010
,
0001
0000
1000
0001
,
0100
0010
0100
0100
,
0100
0000
0010
1000
,
0100
0010
0100
1000
,
0001
0000
1000
0100
,
0010
0010
0010
0000
,
0100
1000
1001
0000
,
0001
0100
0000
0000
,
1000
0000
0001
0010
,
0100
0010
0001
0000
,
1000
0001
0100
0000
,
0001
1000
0010
0010
,
0010
0000
1001
1001
,
1001
0001
0100
0100
,
0100
0001
0100
0010
,
1000
0100
0020
0000
,
0000
0030
0110
0110
,
0110
0100
1000
1000
,
1000
0001
0100
0001
,
0010
0100
0010
0000
,
0000
0000
0110
1001
,
0110
0000
0100
0010
,
1000
0001
1000
0100
,
0010
0000
0000
0000
1000
0100
0010
0000
,
0100
1000
0001
0000
1001
0000
0101
0000
,
1010
0000
1000
0010
,
0100
0001
0100
0001
,
1000
0000
0000
0000
0001
1000
0010
0000
,
0100
0001
0010
0000
0100
0000
0100
0000
,
0100
0000
0010
0000
0001
0010
0000
0000
,
0001
1000
0010
0000
,
0100
0001
1000
0100
,
0010
0100
0000
1000
,
0002
0000
0003
0100
0001
0010
0001
0010
,
0100
1000
0000
0100
,
1000
0000
0010
0000
0100
0000
0010
1000
,
0000
0002
0000
0000
0013
0000
0001
0000
,
1000
0000
0001
0100
,
0010
0000
0100
0001
,
1000
0000
0100
1000
,
0010
0100
1001
0001
,
1000
0000
0010
1000
,
0100
0000
0010
0100
,
1000
0000
0001
0100
,
0010
1000
1001
0000
;

//---------------dance-single - ----------------
#NOTEDATA:;
#CHARTNAME:;
#STEPSTYPE:dance-single;
#DESCRIPTION:;
#CHARTSTYLE:;
#DIFFICULTY:Beginner;
#METER:2;
#RADARVALUES:0.118837,0.216907,0.058230,0.000000,0.000000,100.000000,93.000000,7.000000,0.000000,0.000000,0.000000,0.000000,0.000000,0.000000,0.118837,0.216907,0.058230,0.000000,0.000000,100.000000,93.000000,7.000000,0.000000,0.000000,0.000000,0.000000,0.000000,0.000000;
#CREDIT:;
#NOTES:
0000
0000
0000
0000
,
0000
0000
0000
0000
,
0000
0000
0000
0000
,
0000
0000
0000
0000
,
0000
0000
1000
0000
,
0000
0000
0001
0000
,
0000
0000
1000
0000
,
0000
0000
0001
0000
,
0000
0000
0010
0000
,
0000
0000
0001
0000
,
0000
0000
0100
0000
,
0100
0000
0010
0000
,
0010
0000
1000
0000
,
0000
0000
0100
0000
,
0000
0000
0010
0000
,
0010
0000
0001
0000
,
0001
0000
1001
0000
,
0000
0000
0000
0000
,
0000
0000
0010
0000
,
0000
0000
1000
0000
,
0000
0000
0001
0000
,
0000
0000
0110
0000
,
1001
0000
0010
0000
,
0000
0000
1000
0000
,
0000
0000
0010
0000
,
0000
0000
0110
0000
,
1001
0000
0001
0000
,
0000
0000
1000
0000
,
0000
0000
0010
0000
,
0000
0000
1000
0000
,
0000
0000
0100
0000
,
0000
0000
1000
0000
,
0000
0000
0001
0000
,
0000
0000
0100
0000
,
0000
0000
0010
0000
,
0010
0000
0010
0000
,
0000
0000
1000
0000
,
0000
0000
0001
0000
,
0000
0000
1000
0000
,
0001
0000
1000
0000
,
0000
0000
0010
0000
,
0000
0000
0100
0100
,
0100
0000
0010
0010
,
0010
0000
1000
0000
,
0000
0000
0001
0000
,
0000
0000
0100
0000
,
0000
0000
0001
0001
,
0001
0000
1000
0000
,
0000
0000
0010
0000
,
0100
0000
0001
0000
,
0000
0000
1000
1000
,
1000
0000
0001
0000
,
0000
0000
0100
0000
,
0000
0000
0010
0000
,
1000
0000
0001
0001
,
0001
0000
0010
0000
,
0000
0000
0001
0000
,
0000
0000
0100
0000
,
0010
0000
1000
0000
,
0000
0000
0001
0000
,
0000
0000
0100
0000
,
0000
0000
0010
0000
,
0100
0000
0001
0000
,
0000
0000
1000
0000
,
0000
0000
0010
0000
,
0000
0000
1000
0000
,
0000
0000
1001
0000
,
0000
0000
0001
0000
,
0000
0000
0100
0000
,
0000
0000
0010
0000
,
0000
0000
1000
0000
,
0000
0000
0100
0000
,
0000
0000
1000
0000
,
0000
0000
0001
0000
,
1000
0000
1001
0000
;

//---------------dance-double - ----------------
#NOTEDATA:;
#CHARTNAME:;
#STEPSTYPE:dance-double;
#DESCRIPTION:;
#CHARTSTYLE:;
#DIFFICULTY:Challenge;
#METER:8;
#RADARVALUES:0.496737,0.619733,0.232920,0.257876,0.237079,418.000000,390.000000,28.000000,31.000000,24.000000,0.000000,0.000000,0.000000,0.000000,0.496737,0.619733,0.232920,0.257876,0.237079,418.000000,390.000000,28.000000,31.000000,24.000000,0.000000,0.000000,0.000000,0.000000;
#CREDIT:;
#NOTES:
00000000
00000000
00000000
00000000
,
00000000
00000000
00000000
00000000
,
00000000
00000000
00000000
00000000
,
00000000
00000000
00000000
00000000
,
00000000
00000000
00000000
00000000
,
00000000
00000000
00000000
00000000
,
00000000
00000000
00000000
00000000
,
00000000
00000000
00000000
00000000
,
00000000
00000000
10100000
00100000
,
01000000
00010000
00100000
00001000
,
00010000
00000100
00001000
00001000
,
00000001
00000001
00000100
00000010
,
00001000
00000100
00010100
00000100
,
00010000
00001000
00100000
01000000
,
00100000
00010000
01000000
01000000
,
00100000
00100000
01000000
00010000
,
00100000
00000000
00000000
00000000
00001000
00000000
00000000
00000000
00020000
00000000
00000000
00000000
00000000
00002000
00030000
00000000
,
00000000
00000000
00000000
00020000
00000000
00000000
00000000
00000000
00000000
00000000
00000000
00000000
00000000
00000000
00000000
00000000
,
00000000
00000000
00000000
00000000
00033000
00000000
00000000
00000000
00001000
00000100
00000000
00000010
00000000
00000001
00000100
00000000
,
00000010
00000000
00001000
00000000
00000100
00000000
00010000
00000000
00001000
00100000
00000000
00010000
00000000
01000000
00100000
00000000
,
10000000
00000000
00010000
00000000
00100000
00000000
00010000
00000000
01000000
00010000
00000000
00100000
00000000
00001000
00010000
00000000
,
00000100
00000000
00001000
00000000
00000010
00000000
00000100
00000000
00000001
00000010
00000001
00000000
00000100
00000000
00000010
00000000
,
00001000
00000010
00001000
00000000
00000010
00000000
00000100
00000000
00000001
00001000
00000000
00000010
00000000
00001000
00000100
00000000
,
00010000
00000000
00001000
00000000
00100000
00000000
00001000
00000000
00010000
00001000
00000000
01000000
00000000
00100000
10000000
00000000
,
00010000
00000000
00100000
00000000
10000000
00000000
00100000
00000000
00010000
01000000
00000000
00010000
00000000
00100000
00001000
00000000
,
00010000
00000000
00000100
00000000
00001000
00000000
00000010
00000000
00000100
00000001
00000100
00000000
00000001
00000000
00000010
00000000
,
00000100
00001000
00000100
00000000
00001000
00000000
00000100
00000000
00010000
00000000
00000000
00000000
00001000
00000000
00000000
00000000
,
01000000
00100000
10000000
00010000
00200000
00000000
00302000
00000000
,
00013000
00000000
00010000
00000100
,
00001000
00000010
00000100
00000001
00000020
00000000
00000230
00000000
,
00001300
00000000
00001100
00001000
,
00000100
00010000
00001000
00100000
02000000
00000000
23000000
00000000
,
30100000
00000000
01000000
00010000
,
00100000
00001000
00010000
00000100
00002000
00000000
00003020
00000000
,
00000130
00000000
00000000
00000000
00000010
00010000
00001000
01000000
,
00010000
00000000
00100000
00000000
00101000
00000000
00000000
00100000
,
00001000
00010000
00000100
00001000
00000010
00000000
00000000
00000100
,
00000010
00001000
00000001
00000010
00000200
00000000
00000000
00001000
,
00001300
00000000
00000000
00000000
00000100
00010000
00001000
00100000
,
00110000
00000000
11000000
00000000
00110000
00000000
00000000
01000000
,
00010000
00100000
00001000
00010000
00010100
00000000
00000000
00000100
,
00001000
00000010
00000100
00000001
00000020
00000230
00000320
00000230
,
00000020
00000330
0MM00110
MM001100
,
0M01M100
00000100
00010000
00001000
01001000
00000000
01010000
00000000
,
01100000
00000000
01000000
00010000
00110000
00000000
11000000
00000000
,
10000000
01000000
00100000
00010000
02000000
00000000
00010000
00000000
,
00001000
03010000
01010M0M
001100MM
,
001M10M0
00100000
00001000
00010000
00010100
00000000
00001100
00000000
,
00000110
00000000
00000010
00000001
00000101
00000000
00001010
00000000
,
00000010
00000000
00010000
00000000
00001000
00000000
00000000
02000000
00000000
00000000
00200000
00000000
00000000
00000000
00000000
00000000
,
00000000
00000000
00000000
00000000
00000000
00000000
03300000
00000000
0100MM00
00010000
00000000
00100000
000000MM
00001000
00010000
00000000
,
0000M10M
00000000
00001000
00000000
00000010
00000000
00000100
00000000
00000001
00000010
00000000
00000100
00000000
00000010
00000001
00000000
,
00001000
00000000
00000010
00000000
00000001
00000000
00000010
00000000
00001000
00000010
00000000
00001000
00000000
00000100
00010000
00000000
,
00001000
00000000
00100000
00000000
00010000
00000000
01000000
00000000
00100000
10000000
00100000
00000000
01000000
00000000
00010000
00000000
,
00100000
01000000
00100000
00000000
01000000
00000000
10000000
00000000
000100MM
00100000
00000000
01000000
0000MM00
10000000
00100000
00000000
,
0100M00M
00000000
00010000
00000000
00100000
00000000
00001000
00000000
00010000
00000100
00000000
00001000
00000000
00000010
00000100
00000000
,
00000001
00000000
00000010
00000000
00001000
00000000
00000010
00000000
00000001
00000100
00000000
00000010
00000000
00001000
00000100
00000000
,
00001000
00000000
00000100
00000000
00010000
00000000
00001000
00000000
01000000
00010000
01000000
00000000
00100000
00000000
10000000
00000000
,
01000000
10000000
01000000
00000000
00100000
00000000
00010000
00000000
10000000
00000000
00000000
00010000
00000000
00000000
00200000
00000000
,
00000000
00000000
00000000
00000000
00310000
00000000
00100000
00000000
00001000
00000000
00011000
00000000
00000000
00010000
00000100
00000000
,
00001000
00000000
00000010
00000000
00000100
00000000
00000001
00000020
00000000
00000000
00000000
00000000
00000130
00001000
00000000
00000001
,
00000000
00000100
00000010
00001000
00000100
00010000
00001000
00100000
,
01000000
00000000
10000000
00000000
00100000
00000000
01000000
00000000
00000000
00000000
00010000
00000000
00000000
00100000
00000000
00000000
,
00002000
00000000
00000000
00023000
00030200
00020300
00032000
00203000
,
00301000
01000000
00100000
10000000
00000000
01000000
00100000
00010000
,
00100000
00001000
00010000
00000100
00002000
00000000
00003010
00000200
,
00000000
00000002
00000000
00000303
00001010
00000000
00000010
00000000
,
00001000
00000100
00010000
00001000
,
00100000
01000000
10000000
00100000
,
01000000
00000000
00000000
00000000
00010000
00000000
00000000
00000000
00100000
00000000
00001000
00000000
00000000
00010000
00000000
00000000
,
00000010
00000000
00000000
00000100
00000000
00000000
00000001
00000000
00001001
00000000
00000000
00000000
00000001
00000000
00000000
00000000
,
00000010
00000001
00000100
00000010
,
00001000
00000100
00010000
00001000
,
00100000
00000000
00000000
00000000
00010000
00000000
00000000
00000000
01000000
00000000
00100000
00000000
00000000
10000000
00000000
00000000
,
00010000
00000000
00000000
00100000
00000000
00000000
00001000
00000000
00011000
00000000
00000000
00000000
00000000
00000000
00000000
00000000
;
