#VERSION:0.83;
#TITLE:SPEED ROCKER;
#SUBTITLE:;
#ARTIST:AJURIKA;
#TITLETRANSLIT:;
#SUBTITLETRANSLIT:;
#ARTISTTRANSLIT:;
#GENRE:;
#ORIGIN:;
#CREDIT:;
#BANNER:;
#BACKGROUND:;
#PREVIEWVID:;
#JACKET:jacket.png;
#CDIMAGE:;
#DISCIMAGE:;
#LYRICSPATH:;
#CDTITLE:;
#MUSIC:SPEED ROCKER.mp3;
#OFFSET:-2.359999;
#SAMPLESTART:81.788162;
#SAMPLELENGTH:13.241379;
#SELECTABLE:YES;
#BPMS:0.000=145.000;
#STOPS:;
#DELAYS:;
#WARPS:;
#TIMESIGNATURES:0.000=4=4;
#TICKCOUNTS:0.000=4;
#COMBOS:0.000=1;
#SPEEDS:0.000=1.000=0.000=0;
#SCROLLS:0.000=1.000;
#FAKES:;
#LABELS:0.000=Song Start;
#BGCHANGES:;
#KEYSOUNDS:;
#ATTACKS:
;

//---------------dance-single - ----------------
#NOTEDATA:;
#CHARTNAME:;
#STEPSTYPE:dance-single;
#DESCRIPTION:;
#CHARTSTYLE:;
#DIFFICULTY:Hard;
#METER:7;
#RADARVALUES:0.391472,0.505408,0.000000,0.210793,0.210793,312.000000,312.000000,0.000000,24.000000,0.000000,0.000000,0.000000,0.000000,0.000000,0.391472,0.505408,0.000000,0.210793,0.210793,312.000000,312.000000,0.000000,24.000000,0.000000,0.000000,0.000000,0.000000,0.000000;
#CREDIT:;
#NOTES:
0001
1000
0001
1000
,
0001
0100
0001
0010
,
0100
1000
0100
1000
,
0100
0010
0100
1000
,
0001
1000
0001
1000
,
0010
0100
0010
1000
,
0010
0100
0010
0100
,
0002
0000
0003
0000
,
1000
0100
1000
0000
0010
0000
0100
0000
,
0001
0010
0100
0000
0010
0000
0001
0000
,
1000
0010
1000
0000
0010
0000
0100
0000
,
0001
1000
0000
0010
0100
0000
0001
1000
0000
0001
0000
1000
0001
0010
0000
0000
,
0100
0010
0100
0000
0010
0000
0001
0000
,
0100
0010
1000
0000
0001
0000
1000
0000
,
0001
0010
0001
0000
0010
0000
0100
0000
,
1000
0100
0010
0001
1000
0100
0001
0100
,
1000
0010
1000
0000
0010
0000
0100
0000
,
0001
0010
0100
0000
0010
0000
0001
0000
,
1000
0001
1000
0000
0001
0000
0100
0000
,
0010
1000
0000
1000
0010
0000
0010
0100
0000
0100
0000
0100
0001
1000
0000
0000
,
0001
0010
0001
0000
1000
0000
0010
0000
,
0100
0001
0010
0000
0100
0000
0010
0000
,
0001
1000
0001
0000
0100
0000
0010
0000
,
1000
0100
0010
0001
0010
1000
0010
0001
,
2000
0001
0000
0001
,
0000
0010
0000
0010
,
3020
0100
0000
0100
,
0230
0001
0000
0001
,
0302
0010
0000
0010
,
0000
0010
0000
0010
,
0023
0100
0000
0100
,
0000
0000
0100
0000
0130
0010
0001
1000
,
0020
0000
0000
0200
0000
0000
0000
0000
,
0330
0100
0010
1000
0001
0010
0100
0010
,
0002
0000
0000
2000
0000
0000
3003
0000
,
2000
0000
0000
0020
0000
3000
1030
0010
,
0200
0000
0000
0000
,
0300
0010
0100
0010
1000
0001
0010
0100
,
0010
0000
0001
2000
0000
0000
0000
0000
0000
0000
0000
0000
0000
0000
0000
0000
,
0000
0000
0000
0000
3020
0230
0302
2003
,
3001
0000
1000
0000
0010
0000
0100
0001
,
0010
0000
0100
0000
0010
0000
0100
1000
,
0010
0000
0100
0000
0001
0000
1000
0001
,
0100
0000
0000
0000
0001
0000
0000
0000
1000
0000
0001
1000
0000
0000
0000
0000
,
0001
0000
0000
0100
0000
0000
0010
0000
0000
1000
0000
0000
0010
0000
0000
0000
,
0100
0000
0000
0010
0000
0000
1000
0000
0000
0001
0000
0000
0010
0000
0000
0000
,
0001
0001
0001
0001
,
2000
0000
0000
3010
0000
0000
0200
0000
0000
0301
0000
0000
0010
0000
0100
0000
,
1000
0000
0000
1000
0000
0000
0001
0000
0000
1000
0000
0000
0001
0000
0100
0000
,
0010
0000
0000
0010
0000
0000
0100
0000
0000
0001
0000
0000
1000
0000
0100
0000
,
0000
1000
0000
0000
0010
0000
0000
0100
0000
0001
0000
0000
0100
0000
0010
0000
,
1000
0000
0000
0001
0000
0000
0010
0000
0000
0100
0000
0000
0010
0000
0001
0000
,
1000
0000
0000
1000
0000
0000
0001
0000
0000
0010
0000
0000
0100
0000
0010
0000
,
0001
0000
0000
0001
0000
0000
0010
0000
0000
0100
0000
0000
0010
0000
0001
0000
,
0000
1000
0000
0000
0001
0000
0000
0100
0000
0010
0000
0000
0100
0000
0010
0000
,
1000
0000
0000
0001
0000
0000
0100
0000
0000
0010
0000
0000
1000
0000
0010
0000
,
0200
0000
0000
0000
,
0310
0000
0000
1000
0000
0000
0010
0000
0000
0100
0000
0000
0001
0000
1000
0000
,
0001
0000
0000
0001
0000
0000
1000
0000
0000
1000
0000
0000
0001
0000
0000
0000
,
2000
0000
0000
3020
0000
0000
0230
0000
,
0301
0000
0000
1000
0000
0000
0010
0000
0000
0001
0000
0000
0010
0000
0100
0000
,
0010
0000
0000
1000
0000
0000
0100
0000
0000
0001
0000
0000
0100
0000
0010
0000
,
0001
1000
0001
1000
0010
0100
0010
0100
,
0001
0000
1000
0000
0010
0000
0100
0000
0001
0000
1000
0000
0010
0100
0010
0100
;

//---------------dance-single - ----------------
#NOTEDATA:;
#CHARTNAME:;
#STEPSTYPE:dance-single;
#DESCRIPTION:;
#CHARTSTYLE:;
#DIFFICULTY:Challenge;
#METER:11;
#RADARVALUES:0.757850,1.011146,0.114179,0.193227,1.220840,604.000000,591.000000,13.000000,22.000000,20.000000,0.000000,0.000000,0.000000,0.000000,0.757850,1.011146,0.114179,0.193227,1.220840,604.000000,591.000000,13.000000,22.000000,20.000000,0.000000,0.000000,0.000000,0.000000;
#CREDIT:;
#NOTES:
1000
0000
0001
0000
0100
0000
0001
0010
0000
0001
0000
1000
0000
0010
1000
0000
,
0001
0000
1000
0000
0100
0000
0010
0000
0100
0000
1000
0010
0000
0100
0000
0010
,
1000
0000
0001
0000
0010
0000
0001
1000
0000
0010
0000
0100
0000
0010
0000
0100
,
0001
1000
0001
0000
0010
0000
0100
0000
0010
0000
0001
1000
0000
0010
0000
1000
,
0001
0000
1000
0000
0010
0000
1000
0100
0000
1000
0000
0001
0000
0100
0001
0000
,
1000
0000
0001
0000
0010
0000
0100
0000
0010
0000
0001
0100
0000
0010
0000
0100
,
0001
0000
1000
0000
0100
0000
1000
0001
0000
0100
0000
0010
0000
0100
0000
0010
,
2000
0000
3000
0000
,
0001
0000
1000
0000
1100
0000
0100
0010
0000
0100
0000
1000
0000
0000
0010
0000
,
0100
0010
0100
0010
1000
0001
1000
0001
0010
0100
0010
0100
0010
0001
0010
0001
,
1000
0000
0001
0000
0011
0000
0001
0100
0000
0001
0000
1000
0000
0000
0001
0000
,
100M
0M10
0000
01M0
M001
0000
001M
M100
0000
100M
0000
M100
001M
0M01
0000
0000
,
1000
0000
0001
0000
0101
0000
0001
0100
0000
0010
0000
0100
0000
0000
0001
0000
,
0010
0000
0001
0000
1001
0000
1000
0001
0000
0100
0000
0001
0000
0000
0010
0000
,
0100
0000
1000
0000
1010
0000
1000
0010
0000
0100
0000
0001
0000
0000
1000
0000
,
0001
0010
0100
1000
0001
0010
0100
1000
0001
1000
0010
1000
0001
0010
0100
1000
,
0001
0000
0010
0000
0011
0000
0001
0010
0000
0100
0000
0010
0000
0000
0100
0000
,
1000
0001
1000
0001
0100
0010
0100
0010
1000
0010
1000
0010
0100
0001
0100
0001
,
0010
0000
0001
0000
0101
0000
0001
0100
0000
0010
0000
0100
0000
0000
0010
0000
,
M100
00M1
0000
M010
010M
0000
010M
M010
0000
0M01
0000
M010
010M
10M0
0000
0000
,
0001
0000
0010
0000
0011
0000
0010
0001
0000
1000
0000
0001
0000
0000
0100
0000
,
0010
0000
1000
0000
1100
0000
0100
0010
0000
0001
0000
0010
0000
0000
0100
0000
,
1000
0000
0010
0000
0110
0000
0100
0001
0000
0010
0000
0001
0000
0000
0010
0000
,
0001
0010
0100
1000
0001
0010
0100
1000
0100
0010
0100
1000
0001
0010
0100
1000
,
0001
0000
0100
0001
0000
0100
0000
0001
0000
0100
0001
0100
0000
0001
0000
0100
,
0001
0000
0100
0001
0000
0100
0000
0001
0000
0100
0001
0100
0000
0001
0000
0100
,
0010
0000
0100
0010
0000
0100
0000
0010
0000
0100
0010
0100
0000
0010
0000
0100
,
0001
0000
0100
0001
0000
0100
0000
0001
0000
0100
0001
0100
0000
0001
0000
1000
,
0001
0000
1000
0001
0000
1000
0000
0001
0000
1000
0001
1000
0000
0001
0000
1000
,
0001
0000
1000
0001
0000
1000
0000
0001
0000
1000
0001
1000
0000
0001
0000
1000
,
0100
0000
1000
0100
0000
1000
0000
0100
0000
1000
0100
1000
0000
0100
0000
1000
,
0100
0000
1000
0100
0000
1000
0000
0100
1000
0100
0010
0001
0010
0100
0010
0001
,
2000
0000
0000
0020
0000
0000
0000
3030
,
0100
0010
1000
0001
0010
0100
0010
0001
1000
0010
0100
0001
0010
0100
0010
0001
,
2000
0000
0000
0002
0000
0000
0000
3003
,
0020
0000
0000
0000
0000
0000
0200
0000
0000
0000
0330
0000
0100
0010
0100
0010
,
2000
0000
0000
0000
,
3000
0100
0010
0001
0100
0010
1000
0010
0100
0001
1000
0100
1000
0001
0010
0100
,
0010
0000
0010
0200
0000
0000
0000
0000
0000
0000
0000
0000
0000
0000
0000
0000
,
0000
0000
0000
0000
0000
0000
0000
0000
0320
0032
0203
2300
3200
0320
2030
3002
,
0013
0000
0000
0010
0000
0000
0100
0000
0000
0100
0000
0000
0010
0000
0001
0000
,
1000
0000
0000
1000
0000
0000
0001
0000
0000
0001
0000
0000
0100
0000
0010
0000
,
1010
0000
0000
0010
0000
0000
0100
0000
0000
0100
0000
0000
0010
0000
1000
0000
,
0001
0000
0000
1000
0000
0000
0001
0000
1000
0000
0010
0010
0000
0000
1000
0000
,
0010
0100
0010
0100
0010
0100
0010
0100
,
0001
1000
0001
1000
0001
1000
0001
1000
,
0001
0100
0000
0100
0000
0100
0000
0100
0000
0100
0000
0100
0000
0100
0000
0100
,
0001
0000
0000
0100
0000
0000
1000
0000
0000
0010
0000
0000
0001
0000
1000
0000
,
1001
0000
1000
0001
0000
0001
0010
0000
0010
0001
0000
0001
1000
0000
0001
0000
,
0100
0000
0010
1000
0000
1000
0010
0000
0010
0100
0000
0100
0001
0000
0010
0000
,
0100
0010
0000
0010
0001
0000
0001
1000
0000
1000
0000
0000
0001
0000
1000
0000
,
0100
0000
0010
0001
0000
0010
0100
0000
1000
0010
0000
0100
0001
0000
1000
0000
,
0001
0000
0100
0001
0000
0001
0010
0000
0010
0001
0000
0001
1000
0000
0100
0000
,
0010
0000
0100
1000
0000
1000
0010
0000
0010
0100
0000
0100
0001
0000
1000
0000
,
0010
1000
0000
1000
0001
0000
0001
0010
0000
0010
0000
0000
0001
0000
1000
0000
,
0010
0000
0100
0001
0000
1000
0010
0000
1000
0100
0000
0010
0001
0000
1000
0000
,
2020
0000
0000
0000
0000
0000
0000
0000
0000
0000
0000
0000
3030
0000
1000
0001
,
0100
0010
0100
0001
1000
0100
0010
0100
1000
0010
0100
0001
0100
0010
1000
0001
,
1000
0010
0000
0100
0001
0000
0010
0100
0000
0010
0001
0010
0000
0001
0000
0000
,
2000
0000
0000
3002
0000
0000
2003
0000
,
3010
0000
1000
0010
0000
0100
0001
0000
0010
0100
0000
1000
0010
0100
0001
0010
,
0100
0000
0010
0001
0000
0010
0100
0000
0100
1000
0000
0100
1000
0010
0100
0001
,
1000
0001
0100
0010
1000
0100
0010
0100
1000
0010
0100
0001
1000
0100
0010
0001
,
1000
0000
0000
0010
0000
0000
1000
0000
0000
0010
0000
0000
0100
0000
0010
0000
0100
0000
0010
0000
0100
0000
0010
0000
0100
0000
0000
0001
0000
0000
1000
0000
0000
0100
0000
0000
0010
0000
0100
0000
0010
0000
0100
0000
0010
0000
0100
0000
;

//---------------dance-double - ----------------
#NOTEDATA:;
#CHARTNAME:;
#STEPSTYPE:dance-double;
#DESCRIPTION:;
#CHARTSTYLE:;
#DIFFICULTY:Challenge;
#METER:8;
#RADARVALUES:0.429113,0.505408,0.008783,0.324972,0.254708,342.000000,341.000000,1.000000,37.000000,0.000000,0.000000,0.000000,0.000000,0.000000,0.429113,0.505408,0.008783,0.324972,0.254708,342.000000,341.000000,1.000000,37.000000,0.000000,0.000000,0.000000,0.000000,0.000000;
#CREDIT:;
#NOTES:
// measure 0
10000000
00010000
10000000
00000000
00010000
00000000
00100000
00000000
,  // measure 1
01000000
00100000
01000000
00000000
00100000
00000000
00001000
00000000
,  // measure 2
00010000
00000100
00010000
00000000
00000100
00000000
00001000
00000000
,  // measure 3
00000010
00000100
00000001
00000010
00001000
00000010
00000001
00001000
,  // measure 4
00000010
00010000
00000010
00000000
00001000
00000000
00000001
00000000
,  // measure 5
00001000
00000100
00001000
00000000
00000100
00000000
00010000
00000000
,  // measure 6
00001000
00100000
00001000
00000000
00010000
00000000
00001000
00000000
,  // measure 7
02020000
00000000
03030000
00000000
,  // measure 8
00100000
10000000
02000000
00000000
00100000
00000000
13000000
00000000
,  // measure 9
00010000
00100000
01000000
10000000
00010000
00100000
01000000
10000000
,  // measure 10
00010000
00100000
00002000
00000000
00010000
00000000
00103000
00000000
,  // measure 11
00001000
00010000
00000000
00010000
00000100
00000000
00000100
00001000
00000000
00000010
00000000
00000100
00000001
00000010
00000000
00000000
,  // measure 12
00000100
00000010
00000002
00000000
00000100
00000000
00001003
00000000
,  // measure 13
00000100
00010000
00002000
00000000
00100000
00000000
00013000
00000000
,  // measure 14
00001000
00100000
02000000
00000000
10000000
00000000
03100000
00000000
,  // measure 15
01000000
00100000
00010000
01000000
00001000
00010000
00000010
00000100
,  // measure 16
00000001
00000010
00000200
00000000
00001000
00000000
00001300
00000000
,  // measure 17
00000100
00000010
00001000
00000001
00000100
00000010
00001000
00000001
,  // measure 18
00001000
00000100
00002000
00000000
00000001
00000000
00003001
00000000
,  // measure 19
00001000
00000100
00000000
00000100
00010000
00000000
00010000
00001000
00000000
00001000
00000000
00001000
00010000
01000000
00000000
00000000
,  // measure 20
01000000
10000000
00200000
00000000
10000000
00000000
01300000
00000000
,  // measure 21
00100000
01000000
00020000
00000000
00100000
00000000
10030000
00000000
,  // measure 22
10000000
00010000
00200000
00000000
00001000
00000000
00310000
00000000
,  // measure 23
00100000
00001000
00010000
00000100
00001000
00000010
00000001
00000010
,  // measure 24
00000200
00000010
00000000
00000301
,  // measure 25
00002000
00000100
00000000
00003010
,  // measure 26
00000200
00000010
00000000
00000301
,  // measure 27
00002000
00000100
00000000
00003010
,  // measure 28
00020000
00001000
00000000
00030100
,  // measure 29
00020000
00001000
00000000
00030010
,  // measure 30
00000200
00000001
00000000
00000310
,  // measure 31
00000100
00000000
00000010
00000000
00000100
00000010
00001000
00000100
,  // measure 32
00020000
00000000
00000000
00000200
00000000
00000000
00000000
00030300
,  // measure 33
00000100
00010000
00001000
00100000
00010000
01000000
00100000
10000000
,  // measure 34
00020000
00000000
00000000
02000000
00000000
00000000
00000000
03030000
,  // measure 35
00200000
00000000
00000000
02000000
00000000
03300000
01000000
00010000
,  // measure 36
00200000
00000000
00000000
00000000
,  // measure 37
00300000
00010000
00100000
01000000
10000000
00010000
01000000
00001000
,  // measure 38
00010000
00000000
00001000
00020000
00000000
00000000
00000000
00000000
00000000
00000000
00000000
00000000
00000000
00000000
00000000
00000000
,  // measure 39
00000000
00000000
00000000
00000000
00000000
00000000
00000000
00000000
00030100
00001000
00000100
00001000
00000001
00000010
00000001
00000010
,  // measure 40
00000001
00001000
00000100
00000010
,  // measure 41
00000100
00001000
00000010
00000100
,  // measure 42
00000001
00001000
00000100
00010000
,  // measure 43
00001000
00000000
00000000
00000000
00100000
00000000
00000000
00000000
01000000
00000000
10000000
00100000
00000000
00000000
00000000
00000000
,  // measure 44
02000000
00000000
03100000
00000000
00010000
00100000
01000000
00000000
,  // measure 45
20000000
00000000
30010000
00000000
00100000
00001000
00010000
00000000
,  // measure 46
00000100
00001000
00000000
00000010
00000000
00000100
00000000
00000001
00000000
00000010
00000000
00000100
00000000
00000010
00000000
00000001
,  // measure 47
00000200
00000000
00000000
00000320
00000000
00000000
00002030
00000000
00000000
00003200
00000000
00000000
00010300
00000000
00001000
00000000
,  // measure 48
01000000
00000000
00000000
01000000
00000000
00000000
00100000
00000000
00000000
00100000
00000000
00000000
01000000
00000000
00010000
00000000
,  // measure 49
00100000
00000000
00000000
00100000
00000000
00000000
00001000
00000000
00000000
00001000
00000000
00000000
00010000
00000000
00000100
00000000
,  // measure 50
00000000
00001000
00000000
00000000
00000010
00000000
00000000
00000100
00000000
00000001
00000000
00000000
00000100
00000000
00000001
00000000
,  // measure 51
00000010
00000000
00000000
00000100
00000000
00000000
00001000
00000000
00000000
00000100
00000000
00000000
00010000
00000000
00001000
00000000
,  // measure 52
01000000
00000000
00000000
01000000
00000000
00000000
00100000
00000000
00000000
10000000
00000000
00000000
00010000
00000000
00100000
00000000
,  // measure 53
01000000
00000000
00000000
01000000
00000000
00000000
00100000
00000000
00000000
00001000
00000000
00000000
00010000
00000000
00000100
00000000
,  // measure 54
00000000
00010000
00000000
00000000
00001000
00000000
00000000
00100000
00000000
01000000
00000000
00000000
00100000
00000000
01000000
00000000
,  // measure 55
10000000
00000000
00000000
01000000
00000000
00000000
10000000
00000000
00000000
00010000
00000000
00000000
01000000
00000000
00010000
00000000
,  // measure 56
00200000
00000000
00000000
00000000
00000000
00000000
00000000
00301000
,  // measure 57
00010000
00000000
00000000
00000100
00000000
00000000
00001000
00000000
00000000
00000010
00000000
00000000
00000100
00000000
00000001
00000000
,  // measure 58
00000010
00000000
00000000
00000100
00000000
00000000
00001000
00000000
00000000
00000100
00010000
00000100
00000000
00010000
00000000
00000000
,  // measure 59
00002000
00000000
00000000
02003000
00000000
00000000
03200000
00000000
,  // measure 60
10300000
00000000
00000000
01000000
00000000
00000000
00010000
00000000
00000000
01000000
00000000
00000000
10000000
00000000
00100000
00000000
,  // measure 61
00010000
00000000
00000000
00100000
00000000
00000000
01000000
00000000
00000000
00010000
00000000
00000000
00100000
00000000
00010000
00000000
,  // measure 62
00100000
00001000
00010000
00000100
00000010
00000001
00000100
00000010
,  // measure 63
00001000
00000000
00000100
00000000
00010000
00000000
00001000
00000000
00100000
00000000
01000000
00000000
00100000
01000000
00100000
00010000
;

//---------------dance-single - ----------------
#NOTEDATA:;
#CHARTNAME:;
#STEPSTYPE:dance-single;
#DESCRIPTION:;
#CHARTSTYLE:;
#DIFFICULTY:Medium;
#METER:5;
#RADARVALUES:0.306151,0.421173,0.087830,0.263491,0.026349,244.000000,234.000000,10.000000,30.000000,0.000000,0.000000,0.000000,0.000000,0.000000,0.306151,0.421173,0.087830,0.263491,0.026349,244.000000,234.000000,10.000000,30.000000,0.000000,0.000000,0.000000,0.000000,0.000000;
#CREDIT:;
#NOTES:
1000
0001
0010
0011
,
0001
1000
0010
1010
,
1000
0001
0100
0101
,
0001
1000
0100
1100
,
1000
0001
0100
0110
,
0010
1000
0001
0110
,
0010
0001
0100
0110
,
2000
0000
3000
0000
,
0001
1000
0001
0000
1000
0000
0010
0000
,
0200
0000
0000
0000
,
0310
1000
0100
0000
0010
0000
0100
0000
,
1000
0000
0000
0000
0010
0000
0000
0100
0000
0100
0000
0000
0010
0000
0000
0000
,
1000
0010
1000
0000
0010
0000
0100
0000
,
0001
0100
0001
0000
0100
0000
0010
0000
,
1000
0100
1000
0000
0100
0000
0010
0000
,
0002
0023
0230
2300
,
3001
1000
0010
0000
1000
0000
0100
0000
,
0020
0000
0000
0000
,
0130
1000
0001
0000
1000
0000
0010
0000
,
1000
0000
0000
0000
0001
0000
0000
0100
0000
0100
0000
0000
0010
0000
0000
0000
,
1000
0001
0100
0000
0001
0000
0010
0000
,
0100
0010
0001
0000
0100
0000
0010
0000
,
1000
0010
0100
0000
0010
0000
1000
0000
,
0002
0023
0230
2300
,
3002
0000
0000
0000
,
0000
0000
0000
0000
,
0023
0000
0000
0000
,
0230
0000
0000
0000
,
0320
0000
0000
0000
,
0000
0000
0000
0000
,
0032
0000
0000
0000
,
0000
0000
1003
0001
,
0200
0000
0000
0020
0000
0000
0000
0000
,
0330
0010
0100
0001
,
2000
0000
0000
0200
0000
0000
3300
0000
,
0002
0000
0000
0020
0000
0033
0001
0010
,
0200
0000
0000
0000
,
0300
0010
0100
1000
,
0001
1000
0020
0000
0000
0000
0000
0000
,
0000
0000
0000
0000
0130
0010
1000
0001
,
1001
1000
0001
1000
,
0010
0100
0010
0100
,
0101
0100
0001
0100
,
0010
0000
0000
0000
1000
0000
0000
0000
0010
0000
0100
0010
0000
0000
0000
0000
,
1000
0001
0010
0100
,
0010
0001
0100
0010
,
1000
1000
1000
1000
,
0020
0000
0000
0000
,
0130
0000
0001
0000
0100
0000
0010
1000
,
0100
0000
0010
0000
0100
0000
1000
0001
,
0010
0000
0001
0000
0100
0000
0010
1000
,
0100
0000
0010
0000
0100
0000
1000
0001
,
0010
0000
0001
0000
0100
0000
0010
0100
,
0001
0000
1000
0000
0001
0000
0010
0001
,
0100
0000
0010
0000
1000
0000
0100
0010
,
0001
0010
0001
0100
,
2020
0000
0000
3030
,
1000
0010
0100
0001
,
1000
0100
1000
0001
,
0020
0000
0000
0032
0000
0000
0203
0000
,
0310
0000
0100
0000
0001
0000
1000
0100
,
0010
0000
0100
0000
1000
0000
0001
1000
,
0010
1000
0010
0000
0100
0010
0100
0000
,
0001
0000
0100
0000
0001
0000
0100
0000
0010
0000
1000
0000
0001
0000
0010
0100
;

//---------------dance-single - ----------------
#NOTEDATA:;
#CHARTNAME:;
#STEPSTYPE:dance-single;
#DESCRIPTION:;
#CHARTSTYLE:;
#DIFFICULTY:Easy;
#METER:3;
#RADARVALUES:0.196991,0.252457,0.096613,0.158094,0.000000,157.000000,146.000000,11.000000,18.000000,0.000000,0.000000,0.000000,0.000000,0.000000,0.196991,0.252457,0.096613,0.158094,0.000000,157.000000,146.000000,11.000000,18.000000,0.000000,0.000000,0.000000,0.000000,0.000000;
#CREDIT:;
#NOTES:
1000
0000
0000
0000
,
0001
0000
1000
0000
,
0001
0000
0000
0000
,
0100
0000
0010
0000
,
0100
0000
0000
0000
,
0010
0000
1000
0000
,
0001
0000
0000
0000
,
0020
0000
0030
0000
,
0001
1000
0100
0000
,
2000
0000
0000
0000
,
3001
1000
0010
0000
,
0110
0000
1001
0000
,
0001
1000
0010
0000
,
0100
0001
1000
0000
,
0100
1000
0010
0000
,
0200
0000
0000
0000
,
0310
1000
0001
0000
,
0020
0000
0000
0000
,
0130
0010
0001
0000
,
1001
0000
0110
0000
,
0100
0010
1000
0000
,
0010
0100
0001
0000
,
0010
0100
1000
0000
,
0002
0000
0000
0003
,
2001
0000
0000
0000
,
0000
0000
0000
3000
,
0120
0000
0000
0030
,
0210
0000
0000
0300
,
1002
0000
0000
0000
,
0000
0000
0000
0003
,
0120
0000
0000
0000
,
0000
0000
0130
0010
,
2000
0000
0000
0000
,
3001
0000
1000
0000
,
0020
0000
0000
0030
,
0200
0000
0000
0310
,
2000
0000
0000
0000
,
3000
0001
0010
0100
,
1000
0200
0000
0000
,
0000
0000
0300
0000
,
1001
0000
0001
0000
,
1000
0000
0010
0000
,
0110
0000
0100
0000
,
0010
0000
1000
0000
,
0001
0001
0001
0000
,
1000
1000
1000
0000
,
0010
0010
0010
0010
,
0200
0000
0000
0000
,
0310
1000
0010
1000
,
0001
0010
0001
0010
,
0100
0010
0001
1000
,
0001
0100
0001
0100
,
0010
1000
0010
1000
,
0001
1000
0001
0010
,
0001
1000
0100
0010
,
0100
1000
0010
0100
,
0002
0000
0000
0000
,
0013
0001
0100
0001
,
1000
0100
1000
0010
,
0200
0000
0000
0000
,
0310
1000
0001
0010
,
0001
1000
0010
0100
,
0001
0010
0100
1000
,
0001
0000
0010
0000
0100
0000
0010
0001
;

//---------------dance-single - ----------------
#NOTEDATA:;
#CHARTNAME:;
#STEPSTYPE:dance-single;
#DESCRIPTION:;
#CHARTSTYLE:;
#DIFFICULTY:Beginner;
#METER:1;
#RADARVALUES:0.084066,0.167975,0.043915,0.000000,0.000000,67.000000,62.000000,5.000000,0.000000,0.000000,0.000000,0.000000,0.000000,0.000000,0.084066,0.167975,0.043915,0.000000,0.000000,67.000000,62.000000,5.000000,0.000000,0.000000,0.000000,0.000000,0.000000,0.000000;
#CREDIT:;
#NOTES:
0000
0000
0000
0000
,
0000
0000
0000
0000
,
0000
0000
0000
0000
,
0000
0000
0000
0000
,
0000
0000
0000
0000
,
0000
0000
0000
0000
,
0000
0000
0000
0000
,
0000
0000
0000
0000
,
1000
0000
0000
0000
,
0001
0000
0000
0000
,
0100
0000
0000
0000
,
0010
0000
0010
0000
,
0100
0000
0000
0000
,
0001
0000
0000
0000
,
1000
0000
0000
0000
,
0100
0000
0000
0000
,
1000
0000
0000
0000
,
0010
0000
0000
0000
,
0100
0000
0000
0000
,
0001
0000
1000
0000
,
0001
0000
0000
0000
,
0010
0000
0000
0000
,
0001
0000
0000
0000
,
1000
0000
0001
0000
,
0100
0000
0000
0000
,
0000
0000
0000
0000
,
0100
0000
0000
0000
,
0010
0000
0000
0000
,
1000
0000
0000
0000
,
0000
0000
0000
0000
,
1000
0000
0000
0000
,
0000
0000
0001
0000
,
0100
0000
0000
0000
,
0010
0000
0000
0000
,
1000
0000
0000
0000
,
1000
0000
0000
0000
,
0010
0000
0000
0000
,
0100
0000
0000
0000
,
0001
0000
0000
0000
,
0000
0000
1000
1000
,
1001
0000
0000
0000
,
0010
0000
0000
0000
,
0100
0000
0000
0000
,
0001
0000
0000
0000
,
1000
0000
0000
0000
,
0001
0000
0000
0000
,
0100
0000
0100
0000
,
0110
0000
0000
0000
,
1001
0000
0000
0000
,
0001
0000
0000
0000
,
0010
0000
0000
0000
,
0001
0000
0000
0000
,
1001
0000
0000
0000
,
1000
0000
0000
0000
,
0100
0000
0000
0000
,
1000
0000
0000
0000
,
0110
0000
0000
0000
,
0010
0000
0000
0000
,
1000
0000
0000
0000
,
0001
0000
0000
0000
,
0010
0000
0000
0000
,
0001
0000
0000
0000
,
1000
0000
0001
0000
,
0100
0000
0010
0100
;
