#VERSION:0.83;
#TITLE:Raison d'être ~交差する宿命~;
#SUBTITLE:;
#ARTIST:Zektbach;
#TITLETRANSLIT:Raison d'être -kousa suru shukumei-;
#SUBTITLETRANSLIT:;
#ARTISTTRANSLIT:;
#GENRE:;
#ORIGIN:;
#CREDIT:;
#BANNER:;
#BACKGROUND:;
#PREVIEWVID:;
#JACKET:;
#CDIMAGE:;
#DISCIMAGE:;
#LYRICSPATH:;
#CDTITLE:;
#MUSIC:Raison d'etre -kousa suru shukumei-.mp3;
#OFFSET:-0.426000;
#SAMPLESTART:34.116600;
#SAMPLELENGTH:10.971428;
#SELECTABLE:YES;
#BPMS:0.000=155.000,
80.000=175.000;
#STOPS:;
#DELAYS:;
#WARPS:;
#TIMESIGNATURES:0.000=4=4;
#TICKCOUNTS:0.000=4;
#COMBOS:0.000=1;
#SPEEDS:0.000=1.000=0.000=0;
#SCROLLS:0.000=1.000;
#FAKES:;
#LABELS:0.000=Song Start;
#BGCHANGES:;
#KEYSOUNDS:;
#ATTACKS:
;

//---------------dance-single - ----------------
#NOTEDATA:;
#CHARTNAME:;
#STEPSTYPE:dance-single;
#DESCRIPTION:;
#CHARTSTYLE:;
#DIFFICULTY:Hard;
#METER:8;
#RADARVALUES:0.367847,0.529179,0.432534,0.114892,0.020275,381.000000,317.000000,64.000000,17.000000,0.000000,0.000000,0.000000,0.000000,0.000000,0.367847,0.529179,0.432534,0.114892,0.020275,381.000000,317.000000,64.000000,17.000000,0.000000,0.000000,0.000000,0.000000,0.000000;
#CREDIT:;
#NOTES:
0000
0000
0000
0000
,
0000
0000
0000
0000
,
0000
0000
0000
0000
,
0000
0000
0000
0000
,
2010
0000
0000
3000
,
0012
0000
0000
0003
,
0201
0000
0000
0300
,
2100
0000
0000
3000
,
1001
0000
0000
0000
,
0000
0000
0000
0000
0000
0000
0000
0100
,
1001
0000
0000
0000
,
0000
0000
0000
0000
,
2010
0001
0100
3010
,
1002
0000
0100
0000
0010
0000
0100
0003
,
0210
1000
0010
0301
,
0120
0001
0100
1030
,
0101
0000
0000
0000
,
0000
0000
0000
0000
0000
0000
0000
0001
,
1100
0000
0000
0000
,
0000
0000
0000
0000
,
1001
0000
0000
0000
,
0000
0000
0000
0000
,
1000
0000
0101
0000
0000
0001
0010
0001
,
1000
0000
0011
0000
0000
0001
0100
1000
,
0100
0000
1010
0000
0000
1000
0100
0001
,
0100
0000
1100
0000
0000
0100
1000
0001
,
0100
0000
1001
0000
0000
1000
0001
0010
,
0100
0000
0011
0000
0000
0010
0001
1000
,
0010
0000
1100
0000
0000
0100
1000
0001
,
0100
0000
1100
0000
0000
0100
0010
1000
,
0100
0000
0000
0000
0000
0000
0000
0000
1000
0000
0000
0000
0000
0000
0010
1000
,
0010
1000
0000
0010
,
0101
0000
0000
0000
0000
0000
0000
0000
0001
0000
0000
0000
0000
0000
0010
0100
,
0010
0100
0000
1000
,
1001
0000
0000
0000
0000
0000
0000
0000
1000
0000
0000
0000
0000
0000
0010
0100
,
0010
0100
0000
0000
,
1001
0000
0000
0000
0000
0000
0000
0000
0000
0000
0000
0000
0000
0000
0001
0100
,
0001
0100
0000
0000
,
0010
1000
0100
0000
0010
0001
1000
0000
,
0001
1000
0010
0000
1000
0100
0010
0000
,
0100
1000
0001
0000
0100
0010
1000
0000
,
0010
0100
0001
0000
0010
0100
1000
0000
,
0100
1000
0001
0000
0100
0010
1000
0000
,
0001
0010
0100
0000
0010
0001
0100
0000
,
0020
0000
0000
0000
1000
0000
0000
0000
0100
0000
0000
0000
0001
0030
0000
0000
,
0200
1000
0010
0301
,
1001
0000
0000
0000
,
0000
0000
1010
0000
0000
1000
0000
0000
,
0101
0000
0000
0000
,
0000
0000
0011
0000
0000
0100
0000
0000
,
1100
0000
0000
0000
,
0000
0000
1001
0000
0000
0001
0000
0000
,
1010
0000
0000
0000
,
0000
0000
0011
0000
0000
0100
0000
0000
,
1001
0000
0011
0000
0000
0001
0100
0001
,
1000
0001
0010
0001
0200
0000
0310
0000
,
1000
0000
0010
0100
0001
1000
0100
0001
,
0000
0100
0000
1000
0000
0000
0000
0000
,
1010
0000
0101
0000
0001
1000
0000
1001
,
0000
0110
0000
1001
0000
1010
0000
0101
,
0000
0001
0010
0100
0000
0010
0000
0001
,
1000
0100
0001
0100
1000
0010
0001
0010
,
0100
0001
0010
0000
0100
0000
1100
0000
,
0100
1000
0010
0000
0100
0000
1001
0000
,
0001
0010
1000
0000
0100
0000
0110
0000
,
0010
0100
1000
0000
0100
0000
1100
0000
,
1001
0010
0200
0000
,
0310
1000
0200
0000
,
1300
0100
0001
0000
0001
0100
1000
0000
,
0100
0000
0010
0000
0001
0000
0100
0000
0010
0000
0000
1000
0001
0000
0010
0000
,
0100
1100
1000
1010
,
0010
0000
0110
0000
0010
1000
0001
0010
,
0100
0000
0000
0000
0110
0000
0000
0000
0010
0000
0000
0000
0001
0000
0000
1000
,
0100
0110
0100
1001
,
1100
0000
0010
1000
0001
0010
0100
0010
,
0001
1000
0100
0010
0100
1000
0001
0100
,
1010
0101
0011
1100
,
1001
0011
0110
1100
,
1001
0000
0000
0000
,
1001
0001
0100
0010
0000
0100
0010
1000
,
0000
0010
1000
0001
0000
0010
0100
1000
,
0000
0100
1000
0010
0000
0100
0010
1000
,
0000
0001
0010
0100
0000
0010
0001
0100
,
0000
0000
0010
2000
0000
3100
0010
0001
,
0000
0000
0010
0200
0000
0310
0001
1000
,
0000
0000
0010
2000
0000
0010
0000
3001
,
0000
0000
0001
0020
0000
0100
0000
0031
,
1001
0000
0000
0000
;

//---------------dance-single - X----------------
#NOTEDATA:;
#CHARTNAME:;
#STEPSTYPE:dance-single;
#DESCRIPTION:X;
#CHARTSTYLE:;
#DIFFICULTY:Edit;
#METER:11;
#RADARVALUES:0.650732,1.033351,0.452809,0.256817,0.672456,674.000000,607.000000,67.000000,38.000000,0.000000,0.000000,5.000000,0.000000,0.000000,0.650732,1.033351,0.452809,0.256817,0.672456,674.000000,607.000000,67.000000,38.000000,0.000000,0.000000,5.000000,0.000000,0.000000;
#CREDIT:;
#OFFSET:-0.426000;
#BPMS:0.000000=77.500000
,40.000000=87.500000
,44.000000=175.000000
,76.000000=87.500000
,92.000000=175.000000
,124.000000=131.250000
,148.000000=175.000000
,244.000000=87.500000
,246.000000=175.000000
,278.000000=87.500000
;
#STOPS:;
#DELAYS:;
#WARPS:;
#TIMESIGNATURES:0.000000=4=4
;
#TICKCOUNTS:0.000000=4
;
#COMBOS:0.000000=1
;
#SPEEDS:0.000000=1.000000=0.000000=0
;
#SCROLLS:0.000000=1.000000
;
#FAKES:;
#LABELS:0.000000=Song Start
;
#NOTES:
0000
0000
0000
0000
,
0000
0000
0000
0000
,
2000
0000
0000
3000
0020
0000
0000
0030
,
0200
0000
0000
0000
0000
0000
0300
0000
0002
0000
0000
0000
0000
0000
0000
0003
,
1010
0000
1000
0010
1000
0000
0010
0100
0010
0000
0100
0000
0000
0000
0010
0100
0010
0000
0100
0000
0010
0000
1000
0000
0001
1000
0001
0000
1000
0000
1010
0000
,
0101
0000
0001
0100
0001
0000
0100
0001
0100
0000
0001
0000
0000
0000
1000
0100
1000
0000
0100
0000
1000
0000
0010
0000
0100
0001
0100
0000
0001
0000
1000
0000
,
1200
0000
1300
0010
0100
0000
0101
0000
0021
0000
0130
1000
0001
0000
1010
0000
,
0020
0000
0130
0001
1000
0000
1001
0000
2000
0000
3100
0010
0001
0000
1100
0000
,
0101
0000
0001
1000
0010
0000
0100
0010
1000
0000
0100
0000
0000
0000
1000
0100
0010
0000
0100
1000
0010
0000
0100
0000
0010
0100
0001
0000
1000
0000
0011
0000
,
1100
0000
0100
1000
0010
0000
0100
0010
1000
0000
0001
0000
0000
0000
1000
0001
0100
0000
0010
1000
0100
0000
0010
0000
0100
1000
0010
0000
0100
0000
0001
0000
,
1000
0000
1001
0000
0000
0001
0100
1000
0100
0000
1001
0000
0000
0001
0010
1000
,
1020
0000
0130
0000
0000
0010
0001
0100
,
0120
0000
1030
0000
0000
0100
1000
0010
,
0210
0000
0301
0000
0000
0010
0100
1000
,
2100
0000
3010
0000
0000
1000
0010
0100
,
0102
0000
0013
0000
0000
0100
0010
0001
,
2100
0000
3001
0000
0000
1000
0001
0100
,
0021
0000
0130
0000
0000
0010
0100
1000
,
2100
0000
3010
0000
0000
0100
0010
1000
,
1001
0000
0000
0000
0000
0000
0000
0000
0000
0000
0000
0000
0000
0000
0000
0000
0000
0000
0000
0000
0001
0010
0001
0010
0000
0000
0000
0000
0000
0000
0001
0000
0000
0000
0000
0000
0000
0000
0000
0000
0000
0000
0000
0000
0000
0000
0000
0000
,
1001
0000
0000
0000
0000
0000
0000
0000
0000
0000
0000
0000
0000
0000
0000
0000
0000
0000
0000
0000
0000
0010
1000
0010
1000
0000
0000
0000
0000
0000
1000
0000
0000
0000
0000
0000
0000
0000
0000
0000
0000
0000
0001
0000
0000
0000
0000
0000
,
1001
0000
0000
0000
0000
0000
0000
0000
0000
0000
0000
0000
0000
0000
0000
0000
0000
0000
0000
0000
0000
0100
0010
0100
0010
0000
0000
0000
0000
0000
0100
0000
0000
0000
0000
0000
0000
0000
0000
0000
0000
0000
0000
0000
0000
0000
0000
0000
,
1001
0000
0000
0000
0000
0000
0000
0000
0000
0000
0000
0000
0000
0000
0000
0000
0000
0000
0000
0000
0000
0001
0010
0001
0010
0000
0000
0000
0000
0000
0100
0000
0000
0000
0000
0000
0000
0000
0000
0000
0000
0000
0000
0000
0000
0000
0000
0000
,
0001
0000
1000
0000
0010
1000
0100
0000
0010
0000
0100
0000
0010
0001
0100
0000
,
0001
0000
1000
0000
0100
1000
0010
0000
0100
0000
0010
0000
0100
0001
0010
0000
,
0100
0000
0010
0000
0001
0010
0100
0000
0010
0000
0001
0000
1000
0010
0100
0000
,
0010
0000
1000
0000
0001
0010
0100
0000
0010
0000
0001
0000
1000
0100
0010
0000
,
0100
0000
1000
0000
0010
1000
0010
0000
0100
0000
0001
0000
0010
0100
0010
0000
,
0100
0000
0010
0000
0001
1000
0001
0000
0100
0000
0001
0000
0010
0100
0010
0000
,
0100
0000
1000
0000
0100
1000
0010
0000
0100
0000
0001
0000
0010
0001
1000
0000
,
0100
0000
1000
0000
0100
1000
0010
0000
0100
0000
0010
0000
1000
0001
0010
0000
,
0001
0100
0010
0100
0001
1000
0100
0010
0100
1000
0010
0100
0001
1000
0100
0010
,
0100
1000
0010
0100
0001
1000
0100
0010
0001
1000
0010
0100
0001
0010
0100
0010
,
0001
0100
0010
1000
0001
0010
0100
0010
0001
0100
0010
1000
0100
0010
0001
0010
,
0100
0010
0001
1000
0010
0100
0001
0010
0001
0100
0001
0100
0010
1000
0010
0100
,
0010
1000
0001
0010
0100
0010
0001
0100
0010
1000
0001
0010
0100
1000
0100
0010
,
0100
1000
0010
0100
0001
0010
0100
1000
0100
0010
0001
0100
0010
1000
0001
1000
,
1001
0000
1010
0000
1000
1001
0001
0011
,
0010
0110
0100
1100
0200
0000
0310
0001
,
1020
0000
0130
0010
0100
0101
0001
0011
,
0001
1001
1000
1010
0020
0000
0000
0030
,
0110
0000
0101
0000
0001
1001
1000
1010
,
1000
1100
0100
0110
0100
1100
1000
1001
,
0001
0101
0100
0110
0010
1010
1000
0001
,
0010
0100
0010
0100
0010
0100
0010
0100
0010
0001
1000
0100
0010
0001
0100
0010
,
1000
0001
0010
0100
2000
3000
0000
0000
0010
0100
0001
1000
0200
0300
0000
0000
,
0010
0100
1000
0001
2000
3000
0000
0000
0001
1000
0100
0010
0200
0300
0000
0000
,
0010
0001
1000
0100
0020
0030
0000
0000
0100
0010
0001
0100
0020
0030
0000
0000
,
0100
0010
1000
0001
0020
0030
0000
0000
0100
0010
0001
1000
0002
0003
0000
0000
,
1001
0020
0200
0330
,
1001
0200
0020
0330
,
0001
1000
4040
3030
1000
0100
0044
0033
,
1000
0000
0100
0000
0010
0001
0100
0010
1000
0001
0040
0130
0010
0001
0100
0010
,
1000
0000
0000
1000
0100
0000
0000
0100
0010
0000
0000
0010
0001
0000
0000
0001
,
0010
0000
0000
0100
0010
0000
0000
0010
0001
0000
0100
0000
0001
0000
0010
0000
,
0100
0000
0000
0000
0000
0000
0100
0000
1000
0000
0000
0000
0000
0000
1000
0000
0001
0000
0000
0000
0000
0000
0000
0000
1000
0000
0000
0000
0000
0000
0001
1000
,
0001
0000
0000
0100
0001
0000
0000
0001
0010
0000
0000
0010
0100
0000
0000
0100
,
0010
0000
0001
0001
0010
0001
0100
0100
,
0010
0010
1000
0001
1000
1000
0001
1000
,
1100
0011
0101
1010
,
1001
0110
1001
0110
,
1001
0000
0000
0000
0000
0000
0000
0000
0000
0000
0000
0000
0020
0000
0000
0000
0000
0000
0000
0000
0000
0000
0000
0030
1001
0000
0000
0000
0000
0000
1000
0000
0000
0000
0000
0000
0001
0000
0000
0100
0000
0000
0010
0000
0000
0100
0000
0000
,
0000
0000
0010
0000
1000
0100
0010
0100
0000
0000
0010
0000
0001
0010
0100
0010
,
0000
0000
0100
0000
1000
0001
0100
0001
0000
0000
0010
0000
0100
0010
0001
1000
,
0000
0000
0010
0000
0100
0010
1000
0100
0000
0000
1000
0000
0001
0010
0001
0100
,
0000
0000
0010
0000
0100
0010
1000
0100
0000
0000
0010
0000
0001
0010
0200
0010
,
0000
0000
1300
0000
0010
0000
0110
0000
0000
0000
0100
0000
0010
1000
0002
1000
,
0000
2003
3100
0000
0010
0001
0010
0210
,
0000
2300
0000
3020
0000
0130
0010
1001
,
0000
0110
0000
1001
0010
0000
0000
0000
;

//---------------dance-single - ----------------
#NOTEDATA:;
#CHARTNAME:;
#STEPSTYPE:dance-single;
#DESCRIPTION:;
#CHARTSTYLE:;
#DIFFICULTY:Easy;
#METER:3;
#RADARVALUES:0.158338,0.293988,0.033792,0.168959,0.000000,164.000000,159.000000,5.000000,25.000000,0.000000,0.000000,0.000000,0.000000,0.000000,0.158338,0.293988,0.033792,0.168959,0.000000,164.000000,159.000000,5.000000,25.000000,0.000000,0.000000,0.000000,0.000000,0.000000;
#CREDIT:;
#NOTES:
0000
0000
0000
0000
,
0000
0000
0000
0000
,
0000
0000
0000
0000
,
0000
0000
0000
0000
,
2000
0000
0000
3000
,
0002
0000
0000
0003
,
0200
0000
0000
0300
,
0020
0000
0000
0030
,
1001
0000
0000
0000
,
0000
0000
0000
0000
0000
0000
0000
0010
,
0100
0000
0000
0000
,
0000
0000
0000
0000
,
0002
0000
0000
0003
,
0020
0000
0000
0030
,
0200
0000
0000
0300
,
2000
0000
0000
3000
,
1001
0000
0000
0000
,
0000
0000
0000
0000
0000
0000
0000
0100
,
0010
0000
0000
0000
,
0000
0000
0000
0000
,
0010
0000
0000
0000
,
0000
0000
0000
0000
,
1000
0010
0000
0100
,
0001
0000
0000
1000
,
0001
0020
0000
0000
,
0000
0000
0000
0030
,
0100
0010
0000
0100
,
1000
0000
0000
0100
,
0010
0002
0000
0000
,
0000
0000
0000
0003
,
1000
0000
0001
0000
,
0200
0000
0000
0010
,
0310
0000
0000
0000
,
0000
0000
0000
0100
,
0002
0000
0000
0000
,
1003
0000
0100
0000
,
0020
0000
0000
0000
,
0200
0000
0000
0330
,
0200
0000
0000
1300
,
0020
0000
0000
0130
,
0001
2000
0000
0000
,
0000
0000
3001
1000
,
0020
0000
0000
1030
,
0100
0000
1000
0010
,
0200
0000
0000
0000
,
0020
0000
0000
0330
,
1001
0000
0000
0000
,
0000
1000
0000
0000
,
1000
0000
0000
0000
,
0000
0001
0000
0000
,
0001
0000
0000
0000
,
0000
0100
0000
0000
,
0100
0000
0000
0000
,
0000
0010
0000
0000
,
0010
0000
1000
0000
0000
0010
0000
1000
,
0000
0010
0000
0100
0020
0000
0000
0000
,
1030
0000
0002
0000
,
0013
0000
0200
0000
,
0310
0000
0001
0000
0000
1000
0000
0001
,
0000
0100
0000
0001
0000
0010
0000
0100
,
0000
0010
0000
0001
0000
0000
1000
0000
,
0001
1000
0010
0100
,
0000
0001
0000
0100
,
0000
1000
0000
0100
,
0000
0001
0000
0010
,
0000
1000
0000
0010
,
0000
0100
0020
0030
,
0000
0100
2000
3000
,
0100
1000
0100
1000
,
0100
0010
0001
1000
,
0001
0100
0001
0010
,
0100
0010
0001
1000
,
0100
0100
0100
1000
,
0010
0100
0010
1000
,
0001
0010
0001
1000
,
0100
0010
0100
1000
,
0001
0001
1000
1000
,
0010
0010
0100
0100
,
1001
0000
0000
0000
,
0001
0000
1000
0000
,
0010
0000
1000
0000
,
0100
0000
0010
0000
,
0100
0000
1000
0000
,
0010
0000
0100
0000
,
0001
0000
0010
0000
,
0001
0000
1000
0000
,
0010
0000
0100
0000
,
1001
0000
0000
0000
;

//---------------dance-single - ----------------
#NOTEDATA:;
#CHARTNAME:;
#STEPSTYPE:dance-single;
#DESCRIPTION:;
#CHARTSTYLE:;
#DIFFICULTY:Medium;
#METER:5;
#RADARVALUES:0.252955,0.440982,0.094617,0.067583,0.000000,262.000000,248.000000,14.000000,10.000000,0.000000,0.000000,0.000000,0.000000,0.000000,0.252955,0.440982,0.094617,0.067583,0.000000,262.000000,248.000000,14.000000,10.000000,0.000000,0.000000,0.000000,0.000000,0.000000;
#CREDIT:;
#NOTES:
0000
0000
0000
0000
,
0000
0000
0000
0000
,
0000
0000
0000
0000
,
0000
0000
0000
0000
,
2000
0000
0000
0000
,
3200
0000
0000
0000
,
0320
0000
0000
0000
,
0032
0000
0000
0000
,
1003
0000
0000
0000
,
0000
0000
0000
0000
0000
0000
0000
0010
,
1001
0000
0000
0000
,
0000
0000
0000
0000
,
0002
0000
0000
0000
,
0023
0000
0000
0000
,
0230
0000
0000
0000
,
2300
0000
0000
0000
,
3001
0000
0000
0000
,
0000
0000
0000
0000
0000
0000
0000
0100
,
1001
0000
0000
0000
,
0000
0000
0000
0000
,
0110
0000
0000
0000
,
0000
0000
0000
0000
,
1000
0010
0000
0100
,
0001
0010
0000
0100
,
0010
0001
0000
1000
,
0001
0100
0000
0010
,
1000
0100
0000
1000
,
0001
0010
0000
0100
,
0010
0001
0000
0010
,
0100
1000
0000
0100
,
1000
0000
0000
0000
0001
0000
0000
0100
,
0001
0001
0000
0100
,
0110
0000
0000
0000
0000
0000
0000
0010
,
1000
1000
0000
0100
,
1100
0000
0000
0000
0000
0000
0000
0100
,
0010
0010
0000
0000
,
0011
0000
0000
0000
0000
0000
0000
1000
,
0001
0001
0000
0000
,
1000
0010
0100
0001
,
0010
1000
0010
0001
,
1000
0001
0100
0001
,
1000
0100
0001
0100
,
0010
0001
1000
0100
,
1000
0010
0100
0001
,
1000
0100
1000
0010
,
0100
0001
0010
0100
,
1001
0000
0000
0000
,
0000
0000
0001
0000
0000
0001
0000
0000
,
0001
0000
0000
0000
,
0000
0000
1000
0000
0000
1000
0000
0000
,
1000
0000
0000
0000
,
0000
0000
0010
0000
0000
0010
0000
0000
,
0010
0000
0000
0000
,
0000
0000
0100
0000
0000
0100
0000
0000
,
0100
0010
1000
0010
,
0100
0001
0010
0100
,
0010
0001
1000
0100
,
0001
0100
1000
0010
,
0100
0001
0010
1000
,
0010
0001
0100
1000
,
0100
0010
1000
0001
,
0100
0001
0100
0001
0100
0001
0100
0010
,
1000
0000
0010
0000
1000
0010
0100
0000
,
0000
0000
0010
0000
0100
0001
1000
0000
,
0000
0000
0100
0000
0010
0100
1000
0000
,
0000
0000
0100
0000
0010
0001
1000
0000
,
1001
0001
0200
0000
,
0300
0001
2000
0000
,
3100
1000
0010
0000
0100
0010
1000
0000
,
0001
1000
0001
1000
0001
1000
0001
1000
,
0001
1000
0100
0010
,
0100
0000
1000
0000
0100
0010
0001
0010
,
0100
0010
0001
1000
,
0010
0001
0010
0100
,
0001
0000
0100
0001
0100
0000
0010
0100
,
0010
0000
1000
0010
1000
0000
0010
0000
,
1010
0010
0110
0100
,
0101
1010
0101
1010
,
0000
0000
0000
0000
,
1000
0000
0100
1000
0000
0100
0000
0000
,
0010
0000
0001
0100
0000
0010
0000
0000
,
1000
0000
0001
1000
0000
0010
0000
0000
,
0100
0000
0001
0010
0000
0100
0000
0000
,
0000
0000
0010
0001
0000
0010
0100
1000
,
0000
0000
0100
1000
0000
0010
0100
0001
,
0000
0000
1000
0001
0000
0100
0010
1000
,
0000
0000
0001
0010
0000
0100
1000
0001
,
1000
0000
0000
0000
;

//---------------dance-single - ----------------
#NOTEDATA:;
#CHARTNAME:;
#STEPSTYPE:dance-single;
#DESCRIPTION:;
#CHARTSTYLE:;
#DIFFICULTY:Beginner;
#METER:2;
#RADARVALUES:0.098479,0.176393,0.054067,0.000000,0.000000,102.000000,94.000000,8.000000,0.000000,0.000000,0.000000,0.000000,0.000000,0.000000,0.098479,0.176393,0.054067,0.000000,0.000000,102.000000,94.000000,8.000000,0.000000,0.000000,0.000000,0.000000,0.000000,0.000000;
#CREDIT:;
#NOTES:
0000
0000
0000
0000
,
0000
0000
0000
0000
,
0000
0000
0000
0000
,
0000
0000
0000
0000
,
1000
0000
0000
0000
,
0100
0000
0000
0000
,
0010
0000
0000
0000
,
0001
0000
0000
0000
,
1001
0000
0000
0000
,
0000
0000
0000
0000
,
0110
0000
0000
0000
,
0000
0000
0000
0000
,
0001
0000
0000
0000
,
0010
0000
0000
0000
,
0100
0000
0000
0000
,
1000
0000
0000
0000
,
1001
0000
0000
0000
,
0000
0000
0000
0000
,
0110
0000
0000
0000
,
0000
0000
0000
0000
,
1000
0000
0000
0000
,
0000
0000
0000
0000
,
0001
0000
0000
0000
,
1000
0000
0000
0000
,
0010
0010
0000
0000
,
0000
0000
0000
0000
,
0100
0000
0000
0000
,
0001
0000
0000
0000
,
1000
1000
0000
0000
,
0000
0000
0000
0000
,
0010
0000
0000
0000
,
0100
0000
0000
0000
,
0001
0000
0000
0000
,
1000
0000
0000
0000
,
0100
0000
0000
0000
,
1000
0000
0000
0000
,
0010
0000
0000
0000
,
0100
0000
0000
0000
,
0001
0000
0000
1000
,
1000
0000
0000
0001
,
0001
0001
0000
0000
,
0000
0000
1000
1000
,
1000
0000
0000
0010
,
0010
0000
0100
0100
,
0100
0000
0000
0000
,
0010
0000
0000
0000
,
1001
0000
0000
0000
,
0000
0000
0000
0000
,
1000
0000
0000
0000
,
0000
0000
0000
0000
,
0001
0000
0000
0000
,
0000
0000
0000
0000
,
0100
0000
0000
0000
,
0000
0000
0000
0000
,
0010
0000
0000
0000
,
1000
0000
0000
0000
,
0001
0000
0000
0000
,
0010
0000
0000
0000
,
0001
0001
0000
0000
,
1000
0000
0000
0000
,
0100
0000
0000
0000
,
1000
0000
0001
0000
,
0000
0100
0000
0100
,
0000
0010
0000
0010
,
0000
1000
0000
1000
,
0000
0001
0000
0001
,
0000
1000
1000
0000
,
0000
0001
0001
0000
,
0100
0000
0010
0000
,
1000
0000
0001
0000
,
1001
0000
0000
0000
,
1000
0000
0000
0000
,
0010
0000
0000
0000
,
0100
0000
0000
0000
,
0001
0000
0000
0000
,
0010
0000
0000
0000
,
0100
0000
0010
0000
,
0001
0000
1000
0000
,
1001
0000
0000
0000
,
0010
0000
0000
0000
,
1000
0000
0000
0000
,
0100
0000
0000
0000
,
0010
0000
0000
0000
,
0001
0000
0000
0000
,
1000
0000
0000
0000
,
0010
0000
0000
0000
,
0100
0000
0000
0000
,
1001
0000
0000
0000
;

//---------------dance-double - ----------------
#NOTEDATA:;
#CHARTNAME:;
#STEPSTYPE:dance-double;
#DESCRIPTION:;
#CHARTSTYLE:;
#DIFFICULTY:Challenge;
#METER:8;
#RADARVALUES:0.336952,0.705571,0.337917,0.141925,0.047308,349.000000,299.000000,50.000000,21.000000,0.000000,0.000000,0.000000,0.000000,0.000000,0.336952,0.705571,0.337917,0.141925,0.047308,349.000000,299.000000,50.000000,21.000000,0.000000,0.000000,0.000000,0.000000,0.000000;
#CREDIT:;
#NOTES:
// measure 0
00000000
00000000
00000000
00000000
,  // measure 1
00000000
00000000
00000000
00000000
,  // measure 2
00000000
00000000
00000000
00000000
,  // measure 3
00000000
00000000
00000000
00000000
,  // measure 4
20000000
00000000
00000000
00000000
,  // measure 5
32000000
00000000
00000000
00000000
,  // measure 6
03020000
00000000
00000000
00000000
,  // measure 7
00030200
00000000
00000000
00000000
,  // measure 8
00000301
00000000
00000000
00000000
,  // measure 9
00000000
00000000
00000000
00000000
00000000
00000000
00000000
00000010
,  // measure 10
00001001
00000000
00000000
00000000
,  // measure 11
00000000
00000000
00000000
00000000
,  // measure 12
00000002
00000000
00000000
00000000
,  // measure 13
00000203
00000000
00000000
00000000
,  // measure 14
00002300
00000000
00000000
00000000
,  // measure 15
00023000
00000000
00000000
00000000
,  // measure 16
10030000
00000000
00000000
00000000
,  // measure 17
00000000
00000000
00000000
00000000
00000000
00000000
00000000
00100000
,  // measure 18
10010000
00000000
00000000
00000000
,  // measure 19
00000000
00000000
00000000
00000000
,  // measure 20
01100000
00000000
00000000
00000000
,  // measure 21
00000000
00000000
00000000
00000000
,  // measure 22
01000000
00000000
01010000
00000000
00000000
00100000
00001000
00010000
,  // measure 23
00000100
00000000
00001100
00000000
00000000
00001000
00000100
00000001
,  // measure 24
00000100
00000000
00001100
00000000
00000000
00000100
00010000
00001000
,  // measure 25
01000000
00000000
01100000
00000000
00000000
10000000
01000000
00010000
,  // measure 26
01000000
00000000
11000000
00000000
00000000
01000000
00100000
00010000
,  // measure 27
00100000
00000000
00101000
00000000
00000000
00001000
00010000
00000100
,  // measure 28
00001000
00000000
00001100
00000000
00000000
00001000
00000100
00000001
,  // measure 29
00000100
00000000
00001100
00000000
00000000
00000100
00000010
00000001
,  // measure 30
00001000
00000000
00000000
00000000
00000000
00000000
00000000
00000000
00000010
00000000
00000000
00000000
00000000
00000000
00000100
00000001
,  // measure 31
00000100
00000001
00000000
00001000
,  // measure 32
00002001
00000000
00000000
00000000
00000000
00000000
00000000
00000000
00003100
00000000
00000000
00000000
00000000
00000000
00010000
00000100
,  // measure 33
00010000
00000100
00000000
00010000
,  // measure 34
00102000
00000000
00000000
00000000
00000000
00000000
00000000
00000000
00013000
00000000
00000000
00000000
00000000
00000000
00001000
01000000
,  // measure 35
00001000
00010000
00000000
00000000
,  // measure 36
00201000
00000000
00000000
00000000
00000000
00000000
00000000
00000000
01300000
00000000
00000000
00000000
00000000
00000000
10000000
01000000
,  // measure 37
10000000
01000000
00000000
00000000
,  // measure 38
10000000
00100000
01000000
00000000
00010000
00100000
00001000
00000000
,  // measure 39
00010000
00000100
00001000
00000000
00000010
00000100
00000001
00000000
,  // measure 40
00000010
00000100
00001000
00000000
00000100
00010000
00001000
00000000
,  // measure 41
00010000
00100000
01000000
00000000
00100000
00010000
01000000
00100000
,  // measure 42
10000000
00010000
00100000
00000000
00001000
00010000
00000100
00000000
,  // measure 43
00001000
00000010
00000001
00000000
00000001
00000010
00001000
00000000
,  // measure 44
00000200
00001000
00010000
00001300
,  // measure 45
00020000
00001000
00000100
00031000
,  // measure 46
00011000
00000000
00000000
00000000
,  // measure 47
00000000
00000000
00011000
00000000
00000000
00100000
00000000
00000000
,  // measure 48
00011000
00000000
00000000
00000000
,  // measure 49
00000000
00000000
00011000
00000000
00000000
00000010
00000000
00000000
,  // measure 50
00011000
00000000
00000000
00000000
,  // measure 51
00000000
00000000
00011000
00000000
00000000
01000000
00000000
00000000
,  // measure 52
00011000
00000000
00000000
00000000
,  // measure 53
00000000
00000000
00011000
00000000
00000000
00000100
00000000
00000000
,  // measure 54
00011000
00000000
00101000
00000000
00000000
00110000
00000000
11000000
,  // measure 55
00000000
10010000
00000000
00010000
02000000
00000000
03100000
00000000
,  // measure 56
01000000
00010000
00100000
00000000
01000000
00100000
00010000
00000000
,  // measure 57
00100000
00001000
00010000
00000010
00000200
00000000
00000000
00000000
,  // measure 58
00000310
00000000
00001001
00000000
00000000
00000011
00000000
00000110
,  // measure 59
00000000
00001010
00000000
00001100
00000000
00010100
00000000
00011000
,  // measure 60
00000000
00110000
00000000
11000000
00000000
01000000
10000000
00100000
,  // measure 61
01000000
00010000
01000000
00010000
01000000
00010000
01000000
00010000
01000000
00010000
01000000
00010000
01000000
00010000
01000000
00010000
,  // measure 62
01000000
00100000
00000000
01000000
,  // measure 63
00000000
00001000
00000000
00100000
,  // measure 64
00000000
00001000
00000000
00100000
,  // measure 65
00000000
00001000
00000000
00010000
,  // measure 66
00000000
00000010
00000200
00000000
,  // measure 67
00000301
00000010
00000200
00000000
,  // measure 68
00001300
00000100
00020000
00000000
00031000
00100000
02000000
00000000
,  // measure 69
13000000
00000000
00000000
00000000
01000000
00000000
00000000
00000000
00100000
00000000
00000000
00010000
00100000
00000000
01000000
00000000
,  // measure 70
10000000
00100000
01000000
00010000
,  // measure 71
00100000
00000000
00001000
00000000
00010000
00000100
00001000
00000010
,  // measure 72
00000100
00000000
00000000
00000000
00000001
00000000
00000000
00000000
00000010
00000000
00000000
00000000
00000100
00000000
00000000
00000010
,  // measure 73
00000001
00000100
00000010
00001000
,  // measure 74
00000100
00000000
00010000
00001000
00100000
00001000
00010000
00000100
,  // measure 75
00001000
00000010
00001000
00000100
00010000
00001000
00100000
01000000
,  // measure 76
11000000
01100000
00110000
00101000
,  // measure 77
00011000
00001100
00000110
00001100
,  // measure 78
00001001
00000000
00000000
00000000
,  // measure 79
00000001
00000100
00000010
00001000
00000000
00000100
00010000
00001000
,  // measure 80
00000000
00010000
00100000
01000000
00000000
00100000
00010000
01000000
,  // measure 81
00000000
00100000
10000000
01000000
00000000
10000000
01000000
00100000
,  // measure 82
00000000
01000000
00100000
00010000
00000000
00100000
00001000
00010000
,  // measure 83
00000000
00000000
00001000
02000000
00000000
00100000
00100000
03100000
,  // measure 84
00000000
00000000
01000000
00020000
00000000
00100000
00100000
00130000
,  // measure 85
00000000
00000000
00100000
00001000
00000000
00011000
00000000
00010100
,  // measure 86
00000000
00000000
00001000
00011000
00000000
00010100
00000000
00001100
,  // measure 87
00000010
00000000
00000000
00000000
;
