#VERSION:0.83;
#TITLE:Quakes;
#SUBTITLE:;
#ARTIST:dj Hellix;
#TITLETRANSLIT:;
#SUBTITLETRANSLIT:;
#ARTISTTRANSLIT:;
#GENRE:;
#ORIGIN:;
#CREDIT:;
#BANNER:Quakes-bn.png;
#BACKGROUND:Quakes-bg.png;
#PREVIEWVID:;
#JACKET:Quakes-jacket.png;
#CDIMAGE:;
#DISCIMAGE:;
#LYRICSPATH:;
#CDTITLE:;
#MUSIC:Quakes.mp3;
#OFFSET:-1.092000;
#SAMPLESTART:51.597309;
#SAMPLELENGTH:10.105267;
#SELECTABLE:YES;
#BPMS:0.000=95.000,
16.000=190.000,
44.000=95.000,
45.000=190.000,
239.000=47.500,
246.000=190.000;
#STOPS:246.000=0.316;
#DELAYS:;
#WARPS:;
#TIMESIGNATURES:0.000=4=4;
#TICKCOUNTS:0.000=4;
#COMBOS:0.000=1;
#SPEEDS:0.000=1.000=0.000=0;
#SCROLLS:0.000=1.000;
#FAKES:;
#LABELS:0.000=Song Start;
#BGCHANGES:;
#KEYSOUNDS:;
#ATTACKS:
;

//---------------dance-single - ----------------
#NOTEDATA:;
#CHARTNAME:;
#STEPSTYPE:dance-single;
#DESCRIPTION:;
#CHARTSTYLE:;
#DIFFICULTY:Challenge;
#METER:10;
#RADARVALUES:0.673406,0.879785,0.233193,0.074955,0.508029,566.000000,538.000000,28.000000,9.000000,10.000000,0.000000,7.000000,0.000000,0.000000,0.673406,0.879785,0.233193,0.074955,0.508029,566.000000,538.000000,28.000000,9.000000,10.000000,0.000000,7.000000,0.000000,0.000000;
#CREDIT:;
#NOTES:
0000
0000
0000
0000
,
0000
0000
0000
0000
,
0000
0000
0000
0000
0000
0000
0000
0000
0000
0000
0000
0000
0000
0000
0000
0000
1000
0100
1000
0100
0010
0100
0010
0001
0010
0001
1000
0001
1000
0010
0100
0010
,
0000
0000
2000
0000
,
3010
0010
1000
1000
,
0001
1000
0010
1000
,
0001
0001
0010
0010
,
0001
1000
0100
1000
,
0010
0100
1000
0000
1000
0100
0001
0000
,
0001
0010
0100
0000
0010
0001
1000
0000
,
0001
0100
0010
1000
0001
0100
0010
1000
,
0001
0000
MMMM
0000
0210
0000
0000
0000
0320
0000
0000
0030
0101
0000
0000
0000
,
1000
0000
0000
0000
0100
0000
0100
0000
1000
0000
0000
0000
0001
0000
0000
1000
,
0000
0100
0000
0000
0011
0000
1010
0000
,
1000
0000
0000
0000
0001
0000
0001
0000
0100
0000
0000
0000
0010
0000
0000
1000
,
0000
0100
0000
0000
1100
0000
0011
0000
,
0010
0000
0000
0000
0001
0000
0001
0000
0010
0000
0000
0000
0100
0000
0000
1000
,
0000
0010
0000
0000
0110
0000
1010
0000
,
1000
0000
0010
0010
1000
0000
0001
0100
,
1000
0000
0100
0000
0001
0000
0010
0000
0100
0000
1000
0000
0001
0400
0001
0000
,
0001
0001
0001
0001
0301
0000
0011
0000
,
0010
0000
0100
0000
0010
0000
0100
0000
1000
0000
0000
0000
1000
0040
1000
0000
,
1000
1000
1000
1000
1030
1000
0000
0001
,
0000
0000
0100
0000
0000
0000
0001
0000
0010
0000
0100
0000
1000
0004
1000
0000
,
1000
1000
1000
1000
1003
0000
1100
0000
,
0011
0000
0000
0000
0001
0000
0100
0000
0010
0000
0000
0000
1000
0040
1000
0000
,
1000
1000
1000
1000
1030
0000
0001
0010
,
0001
0010
0001
0010
0001
0000
0000
0000
1100
0000
0000
1000
0100
0000
0000
0100
,
0010
0000
0000
0010
0001
0000
0000
0001
0100
0000
0000
0100
0010
0000
0000
0010
,
1000
0000
0000
1000
0001
0000
0000
0100
0001
0000
0000
0010
0100
0000
0000
0010
,
0001
0000
0000
1000
0100
0000
0000
1000
0010
0000
0000
0100
0001
0000
0000
0001
,
1000
0000
0000
1000
0010
0000
0100
0000
0001
0000
0010
0000
0100
0000
0000
0010
,
0001
0000
0000
1000
0100
0000
0000
0100
0010
0000
0000
0010
0001
0000
0000
0001
,
0100
0000
0000
0100
0010
0000
0000
0100
0001
0000
0000
0001
1000
0000
0000
1000
,
0100
0000
0000
0000
0000
0000
0000
0000
0000
0010
0000
0000
0001
0000
0000
0000
0000
0000
0000
0000
0000
0001
0000
0000
0100
0000
0000
0000
0000
0000
0000
0000
0000
0010
0000
0000
1000
0000
0000
0000
0010
0000
0000
0000
0100
0000
0000
0000
,
0001
0000
0010
0000
0001
0000
0100
0000
0010
0000
1000
0000
0001
0000
0010
0000
0100
0000
1000
0000
0000
0001
0000
0000
,
0001
0010
0001
0100
0010
0010
0100
0001
,
1000
1000
0001
0100
0010
0010
1000
0100
,
0001
0100
0010
0010
0001
0001
0010
0100
,
1000
0100
0010
0001
0200
0000
0310
1000
,
0000
0001
0100
0000
0001
0010
0000
0010
,
1000
0000
0000
0000
0010
0000
0000
0000
0001
0000
0000
0000
1000
0001
1000
0001
,
0010
0100
0010
0001
1000
0100
0010
0001
1000
0100
0010
0001
1000
0000
0010
0000
,
0100
0010
0100
0010
0100
0000
0000
0000
1001
0000
0000
0000
1010
0000
0000
0000
,
1000
0010
0000
0010
0100
0000
0001
0000
,
1000
0001
0000
0001
0100
0000
0001
0000
,
0010
0000
0001
0000
0000
0000
0001
0000
0100
0000
0000
0000
0010
0100
0010
0100
,
0010
1000
0000
0000
0010
0000
0100
0000
,
0001
1000
0100
0000
1000
0000
0010
0000
,
0100
0001
0010
0000
0100
0000
0001
0000
,
0100
0010
1000
0000
0001
0000
1001
0000
,
0101
0000
0001
0000
0010
0000
0100
0010
,
0001
0100
0010
1000
0001
0010
0001
1000
,
0100
1000
0010
1000
0001
0100
0001
0010
,
0100
0010
0001
1000
0010
1000
0001
0010
,
1000
0010
0000
0001
0100
0000
0110
0000
,
0010
0100
0101
0000
0100
0010
1010
0000
,
0010
0000
0100
0000
1001
0000
0000
0000
1000
0000
0010
0000
1000
0000
0001
0100
,
0001
0000
0100
0010
0100
0000
0010
1000
0010
0000
1000
0100
1000
0000
0100
0010
,
0100
0000
0010
0001
0010
0000
0001
0100
0001
0000
0100
0010
0100
0000
0000
0000
,
0100
0000
0020
0000
0130
00M0
0000
0000
0100
0000
0020
0000
0130
00M0
0000
0000
,
0100
0000
0000
0000
0020
0000
0000
0000
0130
0000
00M0
0000
0000
0000
0000
0000
2002
3003
0000
0000
M00M
0000
0000
0000
0110
0000
0000
0000
0000
0000
0000
0000
,
1001
0000
0000
1000
0001
0000
0000
0001
0100
0000
0000
0010
1000
0000
0000
0100
,
0010
0000
0000
0100
1000
0000
0000
0010
1000
0000
0000
0001
0100
0000
0000
0010
,
1000
0000
0000
0001
1000
0000
0000
1000
0010
0000
0000
0100
0001
0000
0000
0010
,
0100
0000
0000
0010
0001
0000
0000
0100
0001
0000
0000
1000
0010
0000
0001
0000
,
0010
0000
1000
0000
0100
0000
0000
0010
0001
0000
0000
0010
0100
0000
0000
0010
,
0001
0000
0000
0001
0100
0000
0000
0100
0010
0000
0000
0100
0001
0000
0000
0001
,
1000
0000
0000
1000
0100
0000
0000
1000
0001
0000
0000
0001
0100
0000
0000
0001
,
1000
0000
0000
0000
0000
0000
0000
0000
0000
0001
0000
0000
0010
0000
0000
0000
0001
0000
0000
0000
0100
0000
0000
0000
0010
0000
0000
0000
1000
0000
0000
0000
0001
0000
0000
0000
0010
0000
0000
0000
0100
0000
0000
0000
0010
0000
0000
0000
,
0001
0000
0000
0000
1000
0000
0000
0000
0010
0000
0000
0000
0100
0000
0000
0040
0000
0000
0100
0000
0000
0000
0000
0000
0100
0000
0000
0000
0000
0000
0100
0000
0000
0000
0000
0000
0100
0000
0000
0000
0000
0000
0100
0000
0000
0000
0000
0000
,
0130
0000
1001
0000
0001
0100
0001
0100
,
0010
0000
0000
0000
1000
0004
1000
0000
1000
0000
1000
0000
1000
0000
1000
0000
,
1003
0001
0000
0010
0000
0011
0000
1010
,
1000
0000
0001
0100
0010
4000
0010
0000
0010
0000
0010
0000
0010
0000
0010
0000
,
3010
0000
0100
0000
0001
0010
0000
0010
,
0001
1000
0001
1000
0001
0000
0001
0000
0100
0000
0100
0000
0010
0000
0010
0000
,
1000
0000
1000
0000
0001
0000
0001
0000
0001
0100
0001
0100
0001
0000
0000
0000
,
0011
101M
0000
0000
;

//---------------dance-single - ----------------
#NOTEDATA:;
#CHARTNAME:;
#STEPSTYPE:dance-single;
#DESCRIPTION:;
#CHARTSTYLE:;
#DIFFICULTY:Hard;
#METER:9;
#RADARVALUES:0.575845,0.716862,0.724565,0.124925,0.158238,484.000000,397.000000,87.000000,15.000000,7.000000,0.000000,2.000000,0.000000,0.000000,0.575845,0.716862,0.724565,0.124925,0.158238,484.000000,397.000000,87.000000,15.000000,7.000000,0.000000,2.000000,0.000000,0.000000;
#CREDIT:;
#NOTES:
0000
0000
0000
0000
,
0000
0000
0000
0000
,
0000
0000
0000
0000
,
0000
0000
0000
0000
,
1000
1000
0001
0010
,
0100
0100
0010
0001
,
1000
1000
0010
0100
,
0010
0010
1000
0001
,
0010
0001
0100
0000
0010
0000
1000
0000
,
0001
1000
0100
0000
0010
0000
0100
0000
,
1000
0001
0100
0001
0010
0100
0010
0001
,
1000
0000
0201
00M0
0310
0000
1001
0000
,
0001
0000
0000
0000
1000
0000
0001
0000
0100
0000
0000
0000
0010
0000
0000
1000
,
0000
0100
0000
0000
1100
0000
0101
0000
,
0001
0000
0000
0000
0010
0000
0001
0000
1000
0000
0000
0000
0100
0000
0000
1000
,
0000
0001
0000
0000
0101
0000
0011
0000
,
0100
0000
0000
0000
0010
0000
0001
0000
1000
0000
0000
0000
0010
0000
0000
0100
,
0000
0001
0000
0000
1010
0000
1100
0000
,
0010
0000
0000
0000
0001
0000
1000
0000
0010
0000
0000
0000
0400
0040
0000
0000
,
0000
0000
0330
1002
,
0010
1000
0013
1100
,
0100
0100
0010
0001
1000
0000
1020
0000
,
0100
0000
1000
0000
0130
0000
0010
0100
,
0001
1000
0100
0001
0100
1000
2001
0000
,
0010
0001
3010
1010
,
0101
0001
1001
0021
,
0100
0000
0001
0000
0130
0000
0010
0010
,
0010
0001
0010
0001
2000
0000
0000
0000
3001
0000
0000
0000
0101
0000
0000
0000
,
1010
0101
1001
1100
,
0011
1100
1001
0101
,
1010
0101
1001
1100
,
0011
0000
1000
0100
0010
0001
0011
0000
,
1010
0011
1001
0101
,
1100
0101
1001
0011
,
1010
0000
0000
0011
0000
0000
1001
0000
0000
0001
0100
0010
,
1000
0000
0001
0000
0010
0000
0100
0000
0010
0000
0001
0000
1000
0000
0001
0000
1000
0000
0001
0000
0000
0100
0000
0000
,
0010
0000
0100
0010
1000
0000
0001
1000
,
0100
1000
0100
0010
0001
1000
0001
0100
,
0001
0100
0010
1000
0010
1000
0001
1000
,
0010
0100
0001
1000
0001
0000
1000
0100
,
0000
0100
0001
0000
0001
0100
0000
0100
,
1000
0010
1000
0102
,
0013
0000
1200
0000
0310
0000
0001
0001
,
0001
1000
0001
1000
0002
0000
0000
0000
0103
0000
0000
0000
1010
0000
0000
0000
,
1000
0010
0000
0100
0001
0000
0010
0000
,
0100
0010
0000
0100
1000
0000
0001
0000
,
1000
0000
0010
0000
0000
0000
0100
0000
0001
0000
0000
0000
0010
0100
0010
0100
,
0000
0010
0000
0000
0001
0000
1000
0000
,
0001
0101
0000
0001
,
1000
1100
0000
1000
,
0001
0011
0000
0201
,
0320
0000
0130
0000
0001
0000
1000
0100
,
0010
0100
1000
0010
0100
0001
0010
0000
,
0001
0000
0100
0000
0010
0000
0100
0010
,
1000
0001
0010
0100
0010
0001
1000
0100
,
0001
0100
0000
0000
0010
0000
0011
0000
,
1000
0100
1100
0000
1000
0010
1010
0000
,
0010
0000
0100
0000
0110
0000
0000
0000
0100
0000
0001
0000
0101
0000
0000
0001
,
0100
0000
0000
0100
0010
0000
0000
0010
1000
0000
0000
1000
0100
0000
0000
0010
,
0001
0000
0000
0010
0100
0000
0000
1000
0010
0000
0000
0100
0001
0000
0000
0000
,
0001
0001
0001
1000
,
1000
0000
1000
0000
0110
0MM0
0200
0000
,
0310
1010
0101
1010
,
1001
1100
0011
1100
,
1001
0101
1010
0101
,
1001
0000
1100
0000
0011
0000
1000
0100
,
0010
0001
0011
0000
1100
0000
0110
0000
,
1001
0011
1100
0101
,
1001
0101
1010
1100
,
1001
0000
0000
0001
0100
0010
1000
0001
0010
0100
0010
0001
,
1000
0010
0100
0201
0000
0000
0010
0000
0000
0001
0000
0000
,
0310
0000
1001
0000
1000
1000
0010
0100
,
0001
2100
0001
0010
,
3001
0100
0001
0100
0001
0000
0000
0000
0100
0000
0000
0000
0010
0000
1000
0000
,
0001
0010
2100
0000
0100
0000
0001
0000
,
3100
0000
0010
0100
0001
1000
0100
1000
,
0001
0100
0010
0010
1000
1000
0001
0001
,
0010
0000
0010
0000
0100
0000
0100
0000
0100
0010
0100
0010
0100
0000
0000
0000
,
1MM1
M11M
0000
0000
;

//---------------dance-single - ----------------
#NOTEDATA:;
#CHARTNAME:;
#STEPSTYPE:dance-single;
#DESCRIPTION:;
#CHARTSTYLE:;
#DIFFICULTY:Medium;
#METER:7;
#RADARVALUES:0.384293,0.619108,0.274835,0.108268,0.020821,323.000000,290.000000,33.000000,13.000000,0.000000,0.000000,14.000000,0.000000,0.000000,0.384293,0.619108,0.274835,0.108268,0.020821,323.000000,290.000000,33.000000,13.000000,0.000000,0.000000,14.000000,0.000000,0.000000;
#CREDIT:;
#NOTES:
0000
0000
0000
0000
,
0000
0000
0000
0000
,
0000
0000
0000
0000
,
0000
0000
0000
0000
,
1000
0010
1000
0010
,
0100
0001
0100
0001
,
0010
0001
0010
0001
,
1000
0100
1000
0100
,
1000
0010
0100
0000
0010
0000
1000
0000
,
0001
0010
0100
0000
0010
0000
0001
0000
,
1000
0010
0100
0001
1000
0010
0100
0001
,
1000
0020
0030
0100
,
0010
0000
0000
0000
1000
0000
0000
0000
0010
0000
0000
0000
0100
0000
0000
0001
,
0000
0010
0000
0000
0100
0000
0010
0000
,
0001
0000
0000
0000
0010
0000
0000
0000
0100
0000
0000
0000
1000
0000
0000
0100
,
0000
0010
0000
0000
0100
0000
1000
0000
,
0010
0000
0000
0000
0100
0000
0000
0000
0001
0000
0000
0000
1000
0000
0000
0001
,
0000
0100
0000
0000
0001
0000
0100
0000
,
0010
1000
0010
2000
,
0000
0000
3000
0404
,
0000
0000
0303
0001
,
0100
0010
0100
0010
0100
0000
4040
0000
,
0000
0000
3030
1000
,
0001
0010
0100
0044
,
0000
0000
0033
0001
,
0100
0010
1000
4004
,
0000
0000
3003
0010
,
0010
0110
1001
0001
,
1000
0010
1000
0001
,
0010
0001
1000
0001
,
1000
0100
1000
0001
,
0100
0000
0001
0010
0100
1000
0001
0000
,
1000
0010
1000
0001
,
0100
0001
0010
0100
,
0010
0001
1000
0002
,
2003
0000
3020
0000
0230
0000
0301
0100
,
0001
0000
0100
0000
0010
0000
1000
0010
,
1000
0000
0010
0000
0100
0000
0001
1000
,
0001
0000
0100
0010
0100
0000
0010
1000
,
0010
0000
0100
0010
2000
0000
3100
1000
,
0000
0000
0010
0000
0000
0100
0000
0000
,
0010
1000
0001
2001
,
3100
0021
0130
0010
,
0100
0110
1001
0001
,
0000
0000
0000
0000
,
1000
0000
0000
0010
0000
0000
0000
0100
,
0000
0000
0000
0000
0000
0000
0001
0100
,
0001
0100
0000
0000
0001
0000
1000
0000
,
0000
0100
0000
1000
,
0000
0010
0000
0100
,
0000
0001
0000
1001
,
1001
0000
0001
0000
1000
0000
0010
1000
,
0010
0000
0100
0000
0001
0000
1000
0100
,
1000
0000
0100
0000
1000
0000
0010
0100
,
0010
0000
0100
0000
0001
0000
0100
0010
,
1000
0001
0000
0000
1000
0000
1100
0000
,
0000
0011
0000
0101
,
0000
1010
0000
1001
,
1001
0110
0110
1001
,
0110
1001
0110
1001
,
0001
0001
0001
0001
,
0001
0001
1020
0100
,
0130
0010
1000
0001
,
0010
0001
1000
0100
,
1000
0010
0100
0001
,
1000
0000
0100
0000
0010
0000
0100
1000
,
0010
0100
0001
0000
0100
0000
0001
0000
,
1000
0010
1000
0010
,
0100
0001
1000
0001
,
0010
0200
0320
0032
,
1003
0404
0000
0000
,
0303
0000
0010
0000
1000
0001
1000
0001
,
1000
4400
0000
0000
,
3300
0000
0010
0000
0001
0000
0100
0010
,
1000
0001
0044
0000
0000
0000
0000
0000
,
0033
0000
1100
0000
0101
0000
0001
0100
,
0010
0000
0100
0100
0010
0010
1000
1000
,
0001
0000
0001
0000
1000
0000
0010
0000
0100
0001
0100
0001
0100
0000
0000
0000
,
0110
1001
0000
0000
;

//---------------dance-single - ----------------
#NOTEDATA:;
#CHARTNAME:;
#STEPSTYPE:dance-single;
#DESCRIPTION:;
#CHARTSTYLE:;
#DIFFICULTY:Easy;
#METER:5;
#RADARVALUES:0.324805,0.456185,0.241522,0.133253,0.000000,273.000000,244.000000,29.000000,16.000000,0.000000,0.000000,0.000000,0.000000,0.000000,0.324805,0.456185,0.241522,0.133253,0.000000,273.000000,244.000000,29.000000,16.000000,0.000000,0.000000,0.000000,0.000000,0.000000;
#CREDIT:;
#NOTES:
0000
0000
0000
0000
,
0000
0000
0000
0000
,
0000
0000
0000
0000
,
0000
0000
0000
0000
,
1000
0000
0001
0000
,
0100
0001
0100
0000
,
0010
0000
1000
0000
,
0001
0010
0001
0000
,
1000
1000
0001
0100
,
0010
0010
0100
0010
,
1000
0010
0100
0001
,
2002
3003
0000
0001
,
1000
0000
0010
1000
0010
0000
0101
0000
,
0000
0000
1001
1100
,
1000
0000
0100
0010
0001
0000
1001
0000
,
0000
0000
0101
1010
,
1000
0000
0010
0100
0001
0000
1001
0000
,
0000
0000
1100
1001
,
1000
0000
0001
0100
0010
0000
2000
0000
,
0000
0000
3000
0102
,
0100
0100
0103
0001
,
0100
0010
1000
1002
,
1000
1000
1003
0100
,
1000
0010
0100
1020
,
1000
1000
1030
0010
,
0100
0001
1000
1200
,
1000
1000
1300
0100
,
0010
0011
1100
1001
,
0001
0100
0001
0100
,
0010
0100
0010
1000
,
0010
1000
0010
1000
,
0001
1000
0100
0010
,
0001
0010
0001
1000
,
0100
1000
0100
1000
,
0001
0100
0001
0100
,
0100
0010
0010
1000
,
0000
0001
0000
0000
0000
0000
0010
0000
,
0000
0001
0000
0000
0000
0000
0100
0000
,
0000
0010
0000
0000
0000
0000
1000
0000
,
0000
0001
0000
0000
1000
0000
0100
0000
,
0000
0000
1000
0000
0000
0010
0000
0000
,
0100
0010
1000
0002
,
0003
2000
3000
0010
,
0000
0110
1001
1000
,
0000
0000
0000
0000
,
0000
0010
0000
0000
0100
0000
0000
0001
,
0000
0000
0000
2000
,
0000
3001
0000
0000
0100
0000
0010
0000
,
0000
1000
0000
0100
,
0000
1000
0000
0001
,
0000
0100
0000
0110
,
0110
0000
0000
0010
,
0000
0100
0000
0000
0000
0000
0010
0000
,
0000
1000
0000
0000
0001
0000
0010
0000
,
0000
0001
0000
0000
0010
0000
0001
0000
,
0000
0100
0000
0000
0010
0000
1000
0000
,
0001
0100
0000
0001
,
1000
0010
0000
1000
,
1000
0100
0100
0010
,
0010
0001
0001
2002
,
0000
0000
0000
0000
,
0000
0000
3003
0010
,
0010
0110
0010
1000
,
0010
0100
0010
0100
,
0010
1000
0001
1000
,
0001
1000
0100
1000
,
0100
0010
0001
0010
,
0001
0100
1000
0100
,
1000
0100
0001
0100
,
0001
0100
0100
0010
,
0010
1002
0100
1000
,
0103
1000
0001
0001
,
1000
1020
0100
1000
,
0130
1000
0100
0010
,
0001
0012
0100
0010
,
0103
0001
1000
0010
,
0100
1020
0100
1000
,
0130
0000
1000
0001
1000
0001
1000
0000
,
0110
1001
0000
0000
;

//---------------dance-double - ----------------
#NOTEDATA:;
#CHARTNAME:;
#STEPSTYPE:dance-double;
#DESCRIPTION:;
#CHARTSTYLE:;
#DIFFICULTY:Challenge;
#METER:9;
#RADARVALUES:0.621056,0.879785,0.599640,0.249850,0.312313,522.000000,450.000000,72.000000,30.000000,0.000000,0.000000,6.000000,0.000000,0.000000,0.621056,0.879785,0.599640,0.249850,0.312313,522.000000,450.000000,72.000000,30.000000,0.000000,0.000000,6.000000,0.000000,0.000000;
#CREDIT:;
#NOTES:
00000000
00000000
00000000
00000000
,
00000000
00000000
00000000
00000000
,
00000000
00000000
00000000
00000000
00000000
00000000
00000000
00000000
00000000
00000000
00000000
00000000
00000000
00000000
00000000
00000000
10000000
01000000
00100000
00010000
00100000
00001000
00010000
00000100
00001000
00000100
00000010
00000001
00001000
00000010
00000100
00000010
,
00000000
00000000
00000002
00000000
,
00001003
00000100
00010000
00010000
,
00001000
00100000
01000000
01000000
,
00100000
00010000
01000000
01000000
,
00010000
00100000
00001000
00001000
,
00100000
00001000
00010000
00000000
00001000
00010000
00000100
00000000
,
00001000
00000010
00000100
00000000
00000010
00001000
00000001
00000000
,
00001000
00000010
00001000
00000100
00010000
00001000
00100000
01000000
,
10000000
10200000
01300000
10010000
,
00100000
00000000
00000000
00000000
01000000
00000000
10000000
00000000
00010000
00000000
00000000
00000000
00100000
00000000
00000000
00001000
,
00000000
00010000
00000000
00000000
00010100
00000000
00001100
00000000
,
00001000
00000000
00000000
00000000
00000001
00000000
00000100
00000000
00000010
00000000
00000000
00000000
00001000
00000000
00000000
00000100
,
00000000
00010000
00000000
00000000
00011000
00000000
00110000
00000000
,
00010000
00000000
00000000
00000000
01000000
00000000
00010000
00000000
00100000
00000000
00000000
00000000
01000000
00000000
00000000
10000000
,
00000000
00100000
00000000
00000000
01100000
00000000
01010000
00000000
,
00100000
00000000
00001000
00010000
00000100
00000000
00020000
00000000
,
00030200
00000000
00002300
00000000
00003020
00000000
00000130
00000001
,
00000010
00000000
00000100
00000000
00000010
00000000
00000001
00000000
00001000
00000000
00000000
00000000
00000040
00000400
00000000
00000000
,
00000000
00000000
00000000
00000000
00000330
00000000
00001000
00000010
,
00010000
00000000
00001000
00000000
00100000
00000000
01000000
00000000
10000000
00010000
40000000
00040000
00000000
00000000
00000000
00000000
,
00000000
00000000
00000000
00000000
30030000
00000000
10000000
00100000
,
00010000
00000000
00000000
00000000
01100000
00000000
00000000
00000000
01000000
00000000
00010000
00000000
00400000
00004000
00000000
00000000
,
00000000
00000000
00303000
00011000
,
00010000
00000100
00000000
00000100
00001000
00000000
00000010
00000010
,
00000100
00000010
00000100
00000010
00002000
00000000
00000000
00000000
00003001
00000000
00000000
00000000
00000011
00000000
00000000
00000000
,
00000110
00001200
00010300
00011000
,
00110000
02100000
13000000
10100000
,
01100000
01020000
00130000
00110000
,
00101000
00000000
00100000
00001000
00010000
00000100
00001100
00000000
,
00000101
00000021
00000130
00001100
,
00010100
00012000
01003000
01010000
,
10100000
00000000
00000000
12000000
00000000
00000000
03100000
00000000
00000000
01000000
00100000
00001000
,
00010000
00000000
00000100
00000000
00001000
00000000
00000010
00000000
00000100
00000000
00000001
00000000
00001000
00000000
00000100
00000000
00000010
00000000
00000100
00000000
00000000
00001000
00000000
00000000
,
00000010
00000000
00000100
00000001
00001000
00000000
00000001
00001000
,
00000010
00001000
00000100
00010000
00001000
00100000
01000000
01000000
,
00100000
00100000
00010000
00010000
01000000
01000000
00001000
00001000
,
00010000
00000000
00010000
00000000
00001000
00010000
00001000
00010000
00000200
00000000
00000000
00000000
00001300
00000000
00000010
00000000
,
00000000
00000010
00000100
00000000
00000100
00000001
00000000
00000001
,
00001000
00000100
00001100
00001200
,
00010300
00000000
00012000
00000000
00103000
00000000
00010000
00010000
,
10000000
00010000
10000000
00010000
10000000
00000000
00000000
00000000
01100000
00000000
00000000
00000000
10010000
00000000
00000000
00000000
,
10000000
00100000
00000000
01000000
00010000
00000000
00100000
00000000
,
00001000
00010000
00000000
00010000
00000100
00000000
00001000
00000000
,
00000100
00000000
00001000
00000000
00000000
00000000
00001000
00000000
00000010
00000000
00000000
00000000
00000100
00000001
00000100
00000001
,
00000000
00001000
00000000
00000000
00000100
00000000
00011000
00000000
,
00001000
00101000
00000000
01010000
,
00010000
11000000
00000000
00110000
,
00001000
00101000
00000000
00021000
,
00032000
00000000
00103000
00000000
00010000
00000000
01000000
00001000
,
00010000
00000000
00000100
00001000
00000010
00000000
00000100
00001000
,
00000100
00000001
00000010
00000100
00001000
00000000
00000100
00010000
,
00001000
00000000
00001000
00100000
00010000
00000000
00010000
01000000
,
10000000
11000000
00000000
00000000
01100000
00000000
01010000
00000000
,
00010000
00100000
00101000
00000000
00001000
00010000
00010100
00000000
,
00000100
00000000
00001000
00000000
00001100
00000000
00000000
00000000
00001000
00000000
00000010
00000000
00001010
00000000
00000000
00000001
,
00000100
00000000
00000000
00000010
00001000
00000000
00000000
00000100
00010000
00000000
00000000
00001000
00100000
00000000
00000000
00100000
,
00010000
00000000
00000000
00010000
01000000
00000000
00000000
01000000
00100000
00000000
00000000
00100000
20000000
00000000
00000000
00000000
,
00010000
00000000
00000000
00000000
00200000
00000000
00000000
00300000
00010000
00000000
00000000
00000000
00000000
00000000
00000000
00000000
00010000
00000000
00000000
00000000
00200000
00000000
00000000
00300000
00010000
00000000
00000000
00000000
00000000
00000000
00000000
00000000
,
00010000
00000000
00000000
00000000
00200000
00000000
00000000
00300000
00010000
00000000
00000000
00000000
00000000
00000000
00000000
00000000
31000000
00000000
00000000
00000000
00000000
00000000
00000000
00000000
11000000
00000000
00000000
00000000
00000000
00000000
00000000
00000000
,
01100000
00210000
01300000
01100000
,
00110000
00102000
00013000
00011000
,
00001100
00001020
00000130
00000110
,
00000101
00000000
00000021
00000000
00000130
00000000
00000010
00000100
,
00001000
00000100
00010200
00000000
00001300
00000000
00001100
00000000
,
00000011
00000201
00000310
00001010
,
00001100
00001200
00010300
00010100
,
00011000
00000000
00000000
00001000
00100000
01000000
10000000
01000000
00010000
01000000
00100000
00010000
,
00000100
00000000
00001000
00000000
00000010
00000000
00000100
00000000
00000000
00000010
00000000
00000000
00001000
00000000
00000000
00000100
00000000
00000000
00000010
00000000
00000000
00000001
00000000
00000000
,
00000100
00000000
00000000
00000000
00000010
00001000
00000010
00001000
00000010
00001000
00000010
00001000
00000010
00001000
00000010
00001000
,
00000010
00000000
00001000
00000100
00010000
00001000
00100000
01000000
,
10000000
00010000
10000000
00010000
01000000
00100000
01000000
00100000
01000000
00100000
01000000
00100000
01000000
00100000
01000000
00100000
,
10000000
00010000
10000000
00010000
00100000
00000000
00001000
00000000
00010000
00000000
00000100
00000000
00001000
00000000
00000000
00000000
,
00001100
00000000
00000000
00000000
00000001
00000010
00000001
00000010
00000001
00000010
00000001
00000010
00000001
00000010
00000001
00000010
,
00000001
00000000
00000100
00000010
00001000
00000100
00010000
00100000
,
10000000
00000000
00100000
00000000
01000000
00000000
01000000
00000000
01000000
00100000
00010000
10000000
00200000
00000000
00000000
00000000
,
01300000
10010000
00000000
00000000
;

//---------------dance-single - ----------------
#NOTEDATA:;
#CHARTNAME:;
#STEPSTYPE:dance-single;
#DESCRIPTION:;
#CHARTSTYLE:;
#DIFFICULTY:Beginner;
#METER:2;
#RADARVALUES:0.130874,0.260677,0.116597,0.000000,0.000000,110.000000,96.000000,14.000000,0.000000,0.000000,0.000000,0.000000,0.000000,0.000000,0.130874,0.260677,0.116597,0.000000,0.000000,110.000000,96.000000,14.000000,0.000000,0.000000,0.000000,0.000000,0.000000,0.000000;
#CREDIT:;
#NOTES:
// measure 0
0000
0000
0000
0000
,  // measure 1
0000
0000
0000
0000
,  // measure 2
0000
0000
0000
0000
,  // measure 3
0000
0000
0000
0000
,  // measure 4
0010
0000
0000
0000
,  // measure 5
1000
0000
0000
0000
,  // measure 6
0001
0000
0000
0000
,  // measure 7
0100
0000
0000
0000
,  // measure 8
0001
0000
0000
0000
,  // measure 9
1000
0000
0000
0000
,  // measure 10
0010
0000
0000
0000
,  // measure 11
0100
1001
0000
0001
,  // measure 12
0000
0000
0000
0000
,  // measure 13
0000
0000
1000
1000
,  // measure 14
0000
0000
0000
0000
,  // measure 15
0000
0000
0010
0100
,  // measure 16
0000
0000
0000
0000
,  // measure 17
0000
0000
0001
1000
,  // measure 18
0000
0000
0000
0010
,  // measure 19
0000
0000
0000
0110
,  // measure 20
0000
0100
0000
0001
,  // measure 21
0000
0000
0000
1001
,  // measure 22
0000
1000
0000
0010
,  // measure 23
0000
0000
0000
0110
,  // measure 24
0000
0010
0000
1000
,  // measure 25
0000
0000
0000
0001
,  // measure 26
0000
1000
0000
0100
,  // measure 27
0000
0000
0000
1000
,  // measure 28
0000
0000
0000
0001
,  // measure 29
0000
0000
0000
0100
,  // measure 30
0000
0000
0000
0010
,  // measure 31
0000
0100
0000
0001
,  // measure 32
0000
0000
0000
1000
,  // measure 33
0000
0000
0000
0100
,  // measure 34
0000
0000
0000
1000
,  // measure 35
0000
0001
0000
0100
,  // measure 36
0000
0000
0000
0010
,  // measure 37
0000
0000
0000
1000
,  // measure 38
0000
0000
0000
0001
,  // measure 39
0000
0000
0000
0100
,  // measure 40
0000
0000
0000
0010
,  // measure 41
0000
0000
0000
1001
,  // measure 42
0000
0110
0000
0001
,  // measure 43
0000
0000
0000
1000
,  // measure 44
0000
0000
0000
0000
,  // measure 45
0100
0000
0000
0000
,  // measure 46
0000
0000
0000
1000
,  // measure 47
0000
0000
0000
0001
,  // measure 48
0000
0000
0000
0100
,  // measure 49
0000
0000
0000
0010
,  // measure 50
0000
0000
0000
1000
,  // measure 51
1000
0000
0000
1001
,  // measure 52
0000
0000
0000
0000
,  // measure 53
0000
0010
0000
0000
,  // measure 54
0000
0000
0000
0100
,  // measure 55
0000
0000
0000
0001
,  // measure 56
0000
0000
0000
1000
,  // measure 57
0000
0000
0000
0010
,  // measure 58
0000
0100
0000
0001
,  // measure 59
0000
1000
0000
0110
,  // measure 60
0000
0001
0000
0001
,  // measure 61
0000
0001
0000
0100
,  // measure 62
0100
0110
0000
0000
,  // measure 63
0000
0010
0000
0000
,  // measure 64
0000
1000
0000
0000
,  // measure 65
0000
0001
0000
1000
,  // measure 66
0000
0010
0000
0000
,  // measure 67
0000
1000
0000
0000
,  // measure 68
0000
0001
0000
0000
,  // measure 69
0000
0010
0000
0100
,  // measure 70
0000
1001
0000
0000
,  // measure 71
0000
0001
0000
1000
,  // measure 72
0000
0110
0000
0000
,  // measure 73
0000
0010
0000
0100
,  // measure 74
0000
1001
0000
0000
,  // measure 75
0000
1000
0000
0001
,  // measure 76
0000
0110
0000
0010
,  // measure 77
0000
0100
0000
0010
,  // measure 78
0100
1001
0000
0000
;
