#VERSION:0.83;
#TITLE:Played Out;
#SUBTITLE:(feat Dutch Robinson);
#ARTIST:Kill Paris;
#TITLETRANSLIT:;
#SUBTITLETRANSLIT:;
#ARTISTTRANSLIT:;
#GENRE:;
#ORIGIN:;
#CREDIT:;
#BANNER:bn.png;
#BACKGROUND:bg.png;
#PREVIEWVID:;
#JACKET:;
#CDIMAGE:;
#DISCIMAGE:;
#LYRICSPATH:;
#CDTITLE:;
#MUSIC:Played Out (feat Dutch Robinson).ogg;
#OFFSET:0.008000;
#SAMPLESTART:25.574032;
#SAMPLELENGTH:17.998363;
#SELECTABLE:YES;
#BPMS:0.000=110.000;
#STOPS:;
#DELAYS:;
#WARPS:;
#TIMESIGNATURES:0.000=4=4;
#TICKCOUNTS:0.000=4;
#COMBOS:0.000=1;
#SPEEDS:0.000=1.000=0.000=0;
#SCROLLS:0.000=1.000;
#FAKES:;
#LABELS:0.000=Song Start;
#BGCHANGES:;
#KEYSOUNDS:;
#ATTACKS:
;

//---------------dance-single - ----------------
#NOTEDATA:;
#CHARTNAME:;
#STEPSTYPE:dance-single;
#DESCRIPTION:;
#CHARTSTYLE:;
#DIFFICULTY:Medium;
#METER:6;
#RADARVALUES:0.284812,0.381292,0.239242,0.095697,0.023924,250.000000,220.000000,30.000000,12.000000,0.000000,0.000000,6.000000,0.000000,0.000000,0.284812,0.381292,0.239242,0.095697,0.023924,250.000000,220.000000,30.000000,12.000000,0.000000,0.000000,6.000000,0.000000,0.000000;
#CREDIT:;
#NOTES:
0000
0000
0000
0000
,
0000
0000
0000
0000
,
0000
0000
0000
0000
,
0000
0000
0000
0000
,
0002
0000
0000
0000
,
2003
0000
3020
0000
,
2030
0000
0000
0000
,
0000
0000
0000
3100
,
1001
0001
1000
0100
0000
0000
0011
0000
,
0000
0000
0000
0001
0101
0000
1100
0000
,
1001
0000
0001
0010
0010
0010
0100
0010
,
0000
0100
1000
0010
0100
0001
0011
0000
,
1100
0000
1000
0000
0001
0000
0100
0000
0000
0010
1000
0000
0001
0010
0000
0000
,
0000
0000
0000
0100
0110
0000
1001
0000
,
0110
0000
0010
1000
1000
1000
0001
0010
,
0000
0100
0010
0001
1000
0010
0200
0000
,
0301
0000
0001
0000
0001
0000
0001
0010
,
0100
0000
0100
0000
0100
1000
0010
0100
,
0010
0010
0010
0010
,
0100
0000
0000
0100
0000
0000
0100
0000
0000
0000
0000
0000
0000
0000
0000
0000
,
0001
0000
1000
0000
0010
0000
0100
0001
,
0010
0000
0100
0000
0010
0001
0010
0100
,
1000
0001
0100
0010
,
0100
0000
0000
0100
0000
0000
2002
0000
3003
0000
1000
0000
1001
0000
0000
0000
,
0001
0010
0100
0010
0001
0100
0010
0000
,
0100
0010
1000
0001
1000
0100
0010
0000
,
0100
1000
0001
0010
0100
0010
0001
0100
,
0010
0000
0100
1000
0100
0001
1000
0001
,
1000
0010
0101
0000
0001
0000
1001
0000
,
1000
0100
0011
0000
0100
0000
1001
0000
,
1000
0010
0101
0000
0010
0000
1000
0010
,
0200
0000
0000
0310
,
1001
0001
0001
0001
,
1000
1000
1000
1000
,
0010
0010
0010
0010
,
0100
0000
0100
1000
0100
0010
1010
0000
,
0101
0000
0011
0000
0010
0001
1000
0000
,
0010
0000
1001
0000
0001
1000
0010
0000
,
0100
0000
0101
0000
0001
0100
0010
0000
,
1200
0000
0000
0300
,
0040
0000
0000
0000
,
0034
0000
0000
0000
,
4003
0000
0000
0000
,
3400
0000
0000
0000
,
0340
0000
0000
0000
,
0034
0000
0000
0000
,
1003
0000
0000
0001
0000
0000
0100
0000
1000
0000
0000
0100
0000
0000
0010
0000
,
2000
0000
0000
0000
,
3000
0001
0100
0001
1000
0000
0000
0100
,
1000
0001
0100
0000
0110
0000
0000
0000
,
0000
0010
1000
0001
0010
0000
0000
0100
,
0010
0001
0100
0000
1010
0000
0000
0000
,
0000
0001
0010
0100
0010
0000
0000
0100
,
1000
0010
0100
0000
1001
0000
0000
0000
,
0000
0001
1000
0010
0100
0000
0000
0010
,
1000
0100
0010
0000
1001
0000
0110
0000
,
2002
3003
0000
0000
;

//---------------dance-single - ----------------
#NOTEDATA:;
#CHARTNAME:;
#STEPSTYPE:dance-single;
#DESCRIPTION:;
#CHARTSTYLE:;
#DIFFICULTY:Challenge;
#METER:9;
#RADARVALUES:0.612915,0.919587,0.095697,0.199368,0.929057,538.000000,526.000000,12.000000,25.000000,15.000000,0.000000,0.000000,0.000000,0.000000,0.612915,0.919587,0.095697,0.199368,0.929057,538.000000,526.000000,12.000000,25.000000,15.000000,0.000000,0.000000,0.000000,0.000000;
#CREDIT:;
#NOTES:
0000
0000
0000
0000
,
0000
0000
0000
0000
,
0000
0000
0000
0000
,
0000
0000
0000
0000
,
0001
0000
0001
0000
0001
0000
0000
0000
1000
0000
0000
0000
0001
0000
0000
1000
,
0001
0000
0001
0000
0001
0000
0000
0000
1000
0000
0000
0000
0001
0000
0000
1000
,
0010
0001
0010
1000
0100
0001
0100
0010
,
0001
0010
0001
0010
0001
1000
0001
1000
0010
1000
0010
1000
0002
0000
0000
0000
,
0103
0000
0001
0000
0010
0100
1000
0000
0000
0000
M00M
0000
1001
0000
0000
0000
,
0000
0000
0000
0100
0001
0000
0010
0000
1200
0000
0000
0000
M001
0000
0000
0000
,
130M
0000
0010
0000
0110
0000
0100
0010
1000
0010
1000
0010
1000
0000
0001
1000
,
0000
0000
0100
0010
1000
0000
0010
0000
0001
1000
0000
0000
1020
0000
0000
0000
,
0130
0000
0000
0000
0000
0000
0001
0000
0000
0000
0000
0000
0010
0000
0000
0001
0000
0000
1000
0000
0000
0000
0000
0000
0000
0000
0000
0000
1000
0000
0010
0000
0000
0000
0000
0000
0010
0000
0000
0000
0100
0000
0000
0000
0000
0000
0000
0000
,
0000
0000
0000
0010
1020
0000
M001
0000
,
103M
0000
0100
0000
0011
0000
0001
0100
0010
0100
0010
1000
0001
0000
0010
0100
,
0000
0000
0010
0100
1000
0000
0100
0000
0010
0100
0000
0100
0020
0000
0000
0000
,
0031
0100
0000
0001
0000
1000
0000
0100
0000
1000
0000
0010
0000
0100
0000
0001
,
0000
0010
0000
1000
0000
0010
0000
0100
0000
0010
0000
0001
0000
0000
0000
0000
,
1000
0001
0000
0100
0000
0001
0000
0010
0000
0100
0000
0010
0000
0000
0001
0000
,
0100
0000
0000
0M10
0000
0000
10M0
0000
0000
0000
0000
0000
0000
0000
0000
0001
,
1000
0000
0001
0100
0000
0010
0000
1000
0000
0100
0000
0000
1000
0100
0000
0010
,
0000
0100
0000
1000
0000
0001
0000
0100
0000
0010
0100
0000
0000
0000
0000
0010
,
1000
0000
0001
0010
0000
0100
0000
0010
0000
0001
0000
1000
0000
0000
0001
0000
,
0100
0000
0000
0000
0000
0000
0000
0000
0000
0M01
0000
0000
0000
0000
0000
0000
0000
0000
22MM
0000
0000
0000
0000
0000
33MM
0000
0000
0000
1000
0000
0100
0000
0000
0000
0000
0000
0010
0000
0000
0000
0001
0000
0000
0000
0000
0000
0000
0000
,
1000
0000
0010
0000
0100
0000
0001
0000
0010
0000
0100
0000
0010
0000
0001
1000
,
0100
0000
1000
0000
0010
0000
0001
0000
0010
0000
0100
0000
0001
0000
0010
0100
,
1000
0000
0100
0000
1000
0000
0010
0000
0100
0000
0001
0000
0010
0000
0100
1000
,
0002
0000
0000
0000
1000
0000
1000
0000
0100
0000
0100
0000
0013
0000
0010
0100
,
0000
0010
0000
0001
0000
0010
0000
0100
0000
0010
0000
0002
0000
0000
0003
0000
,
0000
0000
0000
1000
0000
0001
0000
0100
0000
0010
2000
0000
3000
0000
0000
0100
,
0020
0000
0130
1000
0000
0001
1000
0010
,
0200
0000
0000
0010
0000
0000
0010
0000
0000
0010
0000
0000
0320
0000
0000
0000
,
1030
0000
0001
0000
0100
0000
0001
0000
1000
0000
0100
1000
0000
1000
0001
0000
,
1000
0000
0010
0000
0100
0000
0001
0000
0010
0000
0100
0010
0000
0010
0001
0000
,
0010
0000
0001
0000
0100
0000
0010
0000
1000
0000
0100
1000
0000
1000
0001
0000
,
0010
0001
1000
0010
0001
0100
1200
0000
,
0301
0M00
0010
0000
1100
0000
1000
0000
0010
0000
0100
0001
0000
0001
1000
0000
,
0100
0000
0010
0000
0011
0000
0001
0000
0100
0000
0010
1000
0000
1000
0100
0000
,
0010
0000
0100
0000
1100
0000
1000
0000
0001
0000
0100
0001
0000
0001
0010
0000
,
0200
0000
0000
0000
0000
0000
0000
0000
0000
0000
0310
0100
0010
0000
0001
0000
,
1000
0000
0001
0000
1000
0000
0001
0000
1000
0000
0001
0000
1000
0000
0001
0000
1000
0000
0001
0000
1000
0000
0001
0000
1000
0000
0000
0001
0000
0000
1000
0000
0000
0001
0000
0000
1000
0000
0000
0001
0000
0000
1000
0000
0000
0001
0000
0000
,
0100
0000
0001
0000
0100
0000
0001
0000
0100
0000
0001
0000
0100
0000
0001
0000
0100
0000
0001
0000
0100
0000
0001
0000
0100
0000
0000
0001
0000
0000
0100
0000
0000
0001
0000
0000
0100
0000
0000
0001
0000
0000
0100
0000
0000
0001
0000
0000
,
1000
0000
0010
0000
1000
0000
0010
0000
1000
0000
0010
0000
1000
0000
0010
0000
1000
0000
0010
0000
1000
0000
0010
0000
1000
0000
0000
0010
0000
0000
1000
0000
0000
0010
0000
0000
1000
0000
0000
0010
0000
0000
1000
0000
0000
0010
0000
0000
,
1000
0000
0100
0000
1000
0000
0100
0000
1000
0000
0100
0000
1000
0000
0100
0000
1000
0000
0100
0000
1000
0000
0100
0000
1000
0000
0000
0100
0000
0000
1000
0000
0000
0100
0000
0000
1000
0000
0000
0100
0000
0000
1000
0000
0000
0100
0000
0000
,
0010
0000
0001
0000
0010
0000
0001
0000
0010
0000
0001
0000
0010
0000
0001
0000
0010
0000
0001
0000
0010
0000
0001
0000
0010
0000
0000
0001
0000
0000
0010
0000
0000
0001
0000
0000
0010
0000
0000
0001
0000
0000
0010
0000
0000
0001
0000
0000
,
1000
0000
0010
0000
1000
0000
0010
0000
1000
0000
0010
0000
1000
0000
0010
0000
1000
0000
0010
0000
1000
0000
0010
0000
1000
0000
0000
0010
0000
0000
1000
0000
0000
0010
0000
0000
1000
0000
0000
0010
0000
0000
1000
0000
0000
0010
0000
0000
,
2000
0000
0000
3020
0000
0000
0032
0000
0023
0000
0000
0230
0000
0000
0302
0000
,
2000
0000
0000
0000
0000
0000
0000
3003
,
0001
0000
0100
0001
0010
0001
0100
0010
1000
0100
1000
0100
1000
0100
0010
0001
,
0100
0010
1000
0001
0010
0100
0010
0100
0010
0100
0010
0100
0010
0100
0010
0100
,
0010
0100
1000
0010
0100
0001
0010
0100
0010
0001
0010
0001
0010
0001
0010
0100
,
1000
0010
0100
0001
1000
0001
1000
0001
1000
0001
1000
0001
1000
0000
0000
0000
,
0001
0100
0001
0010
0100
0010
0001
0100
0010
1000
0100
0010
0100
1000
0001
0100
,
0010
0100
0001
1000
0100
0010
0100
1000
0001
0100
0010
0100
0001
0010
0100
1000
,
0010
0100
0001
1000
0100
0010
0100
1000
0001
0100
0001
0100
0010
1000
0100
0010
,
0100
0000
1000
0000
0001
0000
0100
0000
0010
0000
1000
0000
0100
0000
0010
0000
0100
0000
1000
0000
0001
0000
0100
0000
0020
0000
0000
0000
0000
0000
0030
00M0
,
2002
3003
0000
0000
;

//---------------dance-single - ----------------
#NOTEDATA:;
#CHARTNAME:;
#STEPSTYPE:dance-single;
#DESCRIPTION:;
#CHARTSTYLE:;
#DIFFICULTY:Hard;
#METER:8;
#RADARVALUES:0.422661,0.740155,0.239242,0.119621,0.295065,371.000000,341.000000,30.000000,15.000000,0.000000,0.000000,0.000000,0.000000,0.000000,0.422661,0.740155,0.239242,0.119621,0.295065,371.000000,341.000000,30.000000,15.000000,0.000000,0.000000,0.000000,0.000000,0.000000;
#CREDIT:;
#NOTES:
0000
0000
0000
0000
,
0000
0000
0000
0000
,
0000
0000
0000
0000
,
0000
0000
0000
0000
,
2000
0000
0000
0000
,
3200
0000
0320
0000
,
0230
0000
0000
0000
,
0000
0000
0000
0310
,
1001
0001
0010
0001
0000
0000
0101
0000
,
0000
0000
0000
0001
0011
0000
1100
0000
,
0011
0000
0001
0000
1000
0000
0010
0100
0010
0100
0010
0100
0010
0000
0000
0000
,
0000
0000
0100
0010
1000
0000
0001
0000
1000
0000
0100
0000
0110
0000
0000
0000
,
1100
0000
1000
0000
0010
0000
0100
0000
0000
0010
0100
0000
0001
1000
0000
0000
,
0000
0000
0000
0100
0110
0000
0011
0000
,
0101
0000
0001
0000
1000
0000
0100
0010
0100
0010
0100
0010
0100
0000
0000
0000
,
0000
0000
0100
1000
0010
0000
0100
0000
0001
0000
1000
0000
0200
0000
0000
0000
,
0310
0000
0001
0000
0100
0000
1000
0100
,
0010
0000
1000
0000
0010
0100
0010
1000
,
0001
0000
0010
0000
0001
0000
1000
0100
,
0010
0000
0000
0100
0000
0000
1000
0000
0000
0000
0000
0000
0000
0000
0000
0000
,
0001
0000
1000
0000
0010
0000
0100
0001
,
0100
0000
0010
0000
1000
0010
0100
0001
,
0010
0100
0010
0001
,
1000
0000
0000
0001
0000
0000
0220
0000
0000
0000
0030
0000
0300
0000
0000
0000
,
0010
1000
0010
0100
0001
0000
1001
0000
,
0001
0010
0100
0010
0001
0000
1100
0000
,
1000
0001
0100
0001
0010
0000
1010
0000
,
1001
0000
0001
0001
1000
1000
0010
0100
,
0010
1000
0001
0000
0100
0000
1010
0000
,
1000
0100
0010
0000
0001
0000
0011
0000
,
0001
0100
0010
0000
0110
0000
1001
0000
,
0220
0000
0000
0330
,
0001
0000
0100
0000
0010
0000
0100
0000
0001
0000
1000
0001
0000
0001
1000
0000
,
0100
0000
0010
0000
0100
0000
1000
0000
0010
0000
0100
0001
0000
0001
0100
0000
,
0010
0000
1000
0000
0001
0000
0010
0000
0100
0000
0010
0100
0000
0100
0010
0000
,
0100
0010
0001
0100
0010
1000
1001
0000
,
0110
0000
1000
0000
0010
0000
0100
0000
0001
0000
0100
0010
0000
0010
1000
0000
,
0001
0000
0010
0000
0001
0000
1000
0000
0100
0000
0010
0100
0000
1000
0100
0000
,
1000
0000
0010
0000
0001
0000
0010
0000
0100
0000
0001
0100
0000
0010
1000
0000
,
2002
0000
0000
3003
,
0001
0100
0001
0100
0001
0100
0001
0100
0001
0100
0001
0100
0001
0100
0001
0100
,
0010
0100
0010
0100
0010
0100
0010
0100
0010
0100
0010
0100
0010
0100
0010
0100
,
0010
1000
0010
1000
0010
1000
0010
1000
0010
1000
0010
1000
0010
1000
0010
1000
,
0001
1000
0001
1000
0001
1000
0001
1000
0001
1000
0001
1000
0001
1000
0001
1000
,
0010
1000
0010
1000
0010
1000
0010
1000
0010
1000
0010
1000
0010
1000
0010
1000
,
0010
0100
0010
0100
0010
0100
0010
0100
0010
0100
0010
0100
0010
0100
0010
0100
,
0010
0000
0000
1000
0000
0000
0001
0000
0010
0000
0000
0100
0000
0000
0020
0000
,
0002
0000
0000
0000
,
0033
1000
0100
0001
0100
0000
0000
0010
,
0001
0100
1000
0000
0110
0000
0000
0000
,
0000
1000
0100
0001
0010
0000
0000
0100
,
0010
0001
1000
0000
0011
0000
0001
0000
,
1001
0001
0100
1000
0100
0000
0000
1000
,
0100
0010
1000
0000
0101
0000
0000
0000
,
0000
0001
0010
1000
0010
0000
0000
0010
,
0100
1000
0100
0000
0110
0000
1001
0000
,
0220
0330
0000
0000
;

//---------------dance-single - ----------------
#NOTEDATA:;
#CHARTNAME:;
#STEPSTYPE:dance-single;
#DESCRIPTION:;
#CHARTSTYLE:;
#DIFFICULTY:Easy;
#METER:3;
#RADARVALUES:0.177723,0.245622,0.119621,0.103672,0.000000,156.000000,141.000000,15.000000,13.000000,0.000000,0.000000,0.000000,0.000000,0.000000,0.177723,0.245622,0.119621,0.103672,0.000000,156.000000,141.000000,15.000000,13.000000,0.000000,0.000000,0.000000,0.000000,0.000000;
#CREDIT:;
#NOTES:
0000
0000
0000
0000
,
0000
0000
0000
0000
,
0000
0000
0000
0000
,
0000
0000
0000
0000
,
1000
0000
0000
0000
,
0001
0000
0100
0000
,
0020
0000
0000
0000
,
0000
0000
0000
0130
,
1001
0001
0000
1000
,
0000
0000
0010
1000
,
0100
0000
1000
0000
0001
0100
0001
0000
,
0000
0100
0001
1001
,
0110
0000
0010
0000
0000
0100
0001
0000
,
0000
0000
0010
0001
,
1000
0000
0100
0000
1000
0010
1000
0000
,
0000
0010
0100
0001
,
1000
1000
1000
1000
,
0001
0001
0001
0001
,
0100
0100
0100
0100
,
0010
0010
0010
0000
,
0100
0001
0100
0001
,
1000
0010
1000
0010
,
0100
0010
1000
0001
,
1000
0100
1001
0000
,
1000
0010
0100
0000
,
0010
0100
0001
0000
,
1000
0001
0010
0100
,
1100
0000
0000
0000
,
0010
0001
1000
0010
,
0000
0100
0010
1000
,
0001
1000
0000
0010
,
2002
0000
0000
3003
,
1000
1000
1000
1000
,
0001
0001
0001
0001
,
0100
0100
0100
0100
,
0010
0001
0010
1010
,
1001
1000
0001
0100
,
0001
0010
0100
0010
,
0002
0000
0000
0000
,
2000
0000
0000
3003
,
0020
0000
0000
0000
,
0230
0000
0000
0000
,
0302
0000
0000
0000
,
2003
0000
0000
0000
,
3200
0000
0000
0000
,
0320
0000
0000
0000
,
0031
0000
1000
0000
,
0220
0000
0000
0000
,
0330
0100
0001
0000
,
0010
0001
1001
0000
,
0000
1000
0100
0000
,
0010
0100
1100
0000
,
0000
0001
1000
0000
,
0010
0100
1001
0000
,
0000
1000
0010
0000
,
0100
0001
1001
0110
,
1001
0000
0000
0000
;

//---------------dance-double - ----------------
#NOTEDATA:;
#CHARTNAME:;
#STEPSTYPE:dance-double;
#DESCRIPTION:;
#CHARTSTYLE:;
#DIFFICULTY:Challenge;
#METER:7;
#RADARVALUES:0.344053,0.426150,0.207343,0.279116,0.111646,302.000000,276.000000,26.000000,35.000000,0.000000,0.000000,0.000000,0.000000,0.000000,0.344053,0.426150,0.207343,0.279116,0.111646,302.000000,276.000000,26.000000,35.000000,0.000000,0.000000,0.000000,0.000000,0.000000;
#CREDIT:;
#NOTES:
// measure 0
00000000
00000000
00000000
00000000
,  // measure 1
00000000
00000000
00000000
00000000
,  // measure 2
00000000
00000000
00000000
00000000
,  // measure 3
00000000
00000000
00000000
00000000
,  // measure 4
20000000
00000000
00000000
00000000
,  // measure 5
30200000
00000000
02300000
00000000
,  // measure 6
00002000
00000000
00000000
00000000
,  // measure 7
00000000
00000000
03003000
01001000
,  // measure 8
00011000
00001000
00010000
00000100
00000000
00000000
00000011
00000000
,  // measure 9
00000000
00000000
00000000
00000001
00000200
00000000
00000320
00000000
,  // measure 10
00002030
00000000
00000000
00000000
00003100
00000000
00010000
00001000
00010000
00001000
00010000
00001000
00010000
00000000
00000000
00000000
,  // measure 11
00000000
00000000
00001000
00100000
01000000
00000000
00100000
00000000
00010000
01000000
00000000
00100000
20000000
00000000
00000000
00000000
,  // measure 12
31000000
00000000
00010000
00000000
01000000
00000000
00100000
00000000
00000000
00100000
00001000
00000000
00010000
00000100
00000000
00000000
,  // measure 13
00000000
00000000
00000000
00000100
00002000
00000000
00003020
00000000
,  // measure 14
00000230
00000000
00000000
00000000
00000301
00000000
00001000
00000010
00001000
00000010
00001000
00000010
00001000
00000000
00000000
00000000
,  // measure 15
00000000
00000000
00000010
00000100
00000001
00000000
00001000
00000000
00000100
00010000
00000000
00001000
02000000
00000000
00000000
00000000
,  // measure 16
03100000
00000000
00000000
00000000
10000000
00000000
00000000
00000000
01000000
00000000
00000000
00100000
00010000
00000000
01000000
00000000
,  // measure 17
00100000
00000000
10000000
00000000
00010000
00100000
00001000
00010000
,  // measure 18
00000100
00000000
00000000
00000000
00001000
00000000
00000000
00000000
00000010
00000000
00000000
00000100
00000010
00000000
00001000
00000000
,  // measure 19
00000200
00000000
00000000
00020300
00000000
00000000
00002000
00000000
00000000
00000000
00033000
00000000
00000000
00000000
00000000
00000000
,  // measure 20
00001000
00000000
00000000
00000000
00100000
00000000
00000000
00000000
01000000
00000000
00000000
10000000
01000000
00000000
00100000
00000000
,  // measure 21
01000000
00000000
00100000
00000000
00001000
00010000
00000010
00000100
,  // measure 22
00000001
00000000
00000000
00000000
00000010
00000000
00000000
00000000
00000100
00000000
00000000
00000010
00000001
00000000
00000100
00000000
,  // measure 23
00000020
00000000
00000000
00020030
00000000
00030000
00202000
00000000
00000000
00000000
00300000
00000000
00003000
00000000
00000000
00000000
,  // measure 24
00100000
01000000
10000000
00100000
01000000
00000000
01010000
00000000
,  // measure 25
00010000
00100000
00001000
00010000
00000010
00000000
00000110
00000000
,  // measure 26
00000100
00000010
00001000
00000001
00000010
00000000
00001100
00000000
,  // measure 27
00010200
00000000
00001300
00000100
00010000
00001000
00100000
00000000
,  // measure 28
00010000
00000000
00110000
00000000
10000000
00010000
01010000
00000000
,  // measure 29
00100000
00000000
00101000
00000000
00100000
00001000
00011000
00000000
,  // measure 30
00010100
00000000
00000100
00001000
00000000
00000010
00000100
00000001
,  // measure 31
00002002
00000000
00000000
00003003
,  // measure 32
00000001
00000000
00000000
00000000
00000100
00000000
00000000
00000000
00000010
00000000
00001000
00000100
00000000
00010000
00000100
00000000
,  // measure 33
00010000
00000000
00000000
00000000
00001000
00000000
00000000
00000000
00100000
00000000
01000000
10000000
00000000
01000000
00100000
00000000
,  // measure 34
01000000
00000000
00000000
00000000
10000000
00000000
00000000
00000000
00100000
00000000
01000000
00010000
00000000
00100000
00001000
00000000
,  // measure 35
00010000
00000000
00000100
00000001
00000100
00001000
00001020
00000000
,  // measure 36
00000230
00000000
00000301
00000000
00000010
00000100
00001100
00000000
,  // measure 37
00000010
00000000
00001010
00000000
00000010
00010000
00011000
00000000
,  // measure 38
00001000
00000000
00110000
00000000
01000000
10000000
10100000
00000000
,  // measure 39
02020000
00000000
00000000
03030000
,  // measure 40
10000000
10000000
10000000
10000000
10000000
10000000
10000000
10000000
,  // measure 41
01000000
01000000
01000000
01000000
01000000
01000000
01000000
01000000
,  // measure 42
00010000
00010000
00010000
00010000
00010000
00010000
00010000
00010000
,  // measure 43
00001000
00001000
00001000
00001000
00001000
00001000
00001000
00001000
,  // measure 44
00000010
00000010
00000010
00000010
00000010
00000010
00000010
00000010
,  // measure 45
00000001
00000001
00000001
00000001
00000001
00000001
00000001
00000001
,  // measure 46
00000200
00000000
00000000
00000320
00000000
00000000
00020030
00000000
00032000
00000000
00000000
02003000
00000000
00000000
03200000
00000000
,  // measure 47
20000000
00000000
00000000
00000000
,  // measure 48
30300000
10000000
01000000
00010000
01000000
00000000
00000000
01000000
,  // measure 49
00100000
00001000
00010000
00000000
00011000
00000000
00000000
00000000
,  // measure 50
00000000
00010000
00000100
00001000
00000010
00000000
00000000
00000100
,  // measure 51
00000010
00001000
00000100
00000000
00011000
00000000
00000000
00000000
,  // measure 52
00000000
00000100
00010000
00001000
01000000
00000000
00000000
01000000
,  // measure 53
00001000
00010000
00000100
00000000
00011000
00000000
00000000
00000000
,  // measure 54
00000000
00000010
00010000
00001000
00100000
00000000
00000000
00100000
,  // measure 55
00001000
00010000
00000010
00000000
00000000
00000000
00000110
00000000
,  // measure 56
02200000
03300000
00000000
00000000
;

//---------------dance-single - ----------------
#NOTEDATA:;
#CHARTNAME:;
#STEPSTYPE:dance-single;
#DESCRIPTION:;
#CHARTSTYLE:;
#DIFFICULTY:Beginner;
#METER:1;
#RADARVALUES:0.068355,0.133976,0.055823,0.000000,0.000000,60.000000,53.000000,7.000000,0.000000,0.000000,0.000000,0.000000,0.000000,0.000000,0.068355,0.133976,0.055823,0.000000,0.000000,60.000000,53.000000,7.000000,0.000000,0.000000,0.000000,0.000000,0.000000,0.000000;
#CREDIT:;
#NOTES:
0000
0000
0000
0000
,
0000
0000
0000
0000
,
0000
0000
0000
0000
,
0000
0000
0000
0000
,
0000
0000
0000
0000
,
0000
0000
0000
0000
,
0000
0000
0000
0000
,
0000
0000
0000
0000
,
1001
0000
0000
0000
,
0000
0000
1000
0000
,
0010
0000
0000
0000
,
0000
0000
0000
0100
,
0100
0000
0000
0000
,
0000
0000
0001
0000
,
0001
0000
0000
0000
,
0000
0000
0000
0000
,
0010
0000
0000
0000
,
1000
0000
0000
0000
,
0100
0000
0000
0000
,
1000
0000
0000
0000
,
0001
0000
0000
0000
,
0100
0000
0000
0000
,
0010
0000
0000
0000
,
1000
0000
1001
0000
,
0010
0000
0000
0000
,
0100
0000
0000
0000
,
0001
0000
0000
0000
,
1000
0000
0000
0000
,
0010
0000
0000
0000
,
1000
0000
0000
0000
,
0100
0000
0000
1000
,
1001
0000
0000
0000
,
0010
0000
0000
0000
,
0100
0000
0000
0000
,
0001
0000
0000
0000
,
1000
0000
0000
0010
,
0010
0000
0000
0000
,
0100
0000
0000
0000
,
0001
0000
0000
0000
,
1000
0000
0000
0000
,
0110
0000
0000
0000
,
1000
0000
0000
0000
,
0100
0000
0000
0000
,
0010
0000
0000
0000
,
0001
0000
0000
0000
,
1000
0000
0000
0000
,
0100
0000
1000
0000
,
0110
0000
0000
0000
,
1000
0000
0000
0000
,
0001
0000
0000
0000
,
0100
0000
0000
0000
,
0010
0000
0000
0000
,
1000
0000
0000
0000
,
0001
0000
0000
0000
,
0010
0000
0000
0000
,
0100
0000
0000
0110
,
1001
0000
0000
0000
;
