#VERSION:0.83;
#TITLE:Olympia;
#SUBTITLE:;
#ARTIST:Digitalism;
#TITLETRANSLIT:;
#SUBTITLETRANSLIT:;
#ARTISTTRANSLIT:;
#GENRE:;
#ORIGIN:;
#CREDIT:;
#BANNER:Olympia.png;
#BACKGROUND:Olympia-bg.png;
#PREVIEWVID:;
#JACKET:Olympia-jacket.png;
#CDIMAGE:;
#DISCIMAGE:;
#LYRICSPATH:;
#CDTITLE:cdtitle.png;
#MUSIC:Olympia.ogg;
#OFFSET:-0.000000;
#SAMPLESTART:53.764294;
#SAMPLELENGTH:17.281380;
#SELECTABLE:YES;
#BPMS:0.000=124.990;
#STOPS:;
#DELAYS:;
#WARPS:;
#TIMESIGNATURES:0.000=4=4;
#TICKCOUNTS:0.000=4;
#COMBOS:0.000=1;
#SPEEDS:0.000=1.000=0.000=0;
#SCROLLS:0.000=1.000;
#FAKES:;
#LABELS:0.000=Song Start;
#BGCHANGES:;
#KEYSOUNDS:;
#ATTACKS:
;

//---------------dance-single - ----------------
#NOTEDATA:;
#CHARTNAME:;
#STEPSTYPE:dance-single;
#DESCRIPTION:;
#CHARTSTYLE:;
#DIFFICULTY:Hard;
#METER:7;
#RADARVALUES:0.393421,0.462316,0.163006,0.000000,0.171585,321.000000,302.000000,19.000000,0.000000,0.000000,0.000000,0.000000,0.000000,0.000000,0.393421,0.462316,0.163006,0.000000,0.171585,321.000000,302.000000,19.000000,0.000000,0.000000,0.000000,0.000000,0.000000,0.000000;
#CREDIT:;
#NOTES:
0000
0000
0000
0000
,
0000
0000
0000
0000
,
0000
0000
0000
0000
,
0000
0000
0000
0000
0000
0000
0000
1000
,
0001
0000
0000
0100
0001
0000
0000
1000
,
0001
0000
0000
0100
0001
0000
0000
1000
,
0001
0000
0000
0100
0001
0000
0000
1000
,
0001
0000
0000
0100
0001
0000
0000
1000
,
0010
0000
0000
0100
0001
0000
0000
1000
,
0010
0000
0000
0100
0001
0000
0000
1000
,
0010
0000
0000
0100
0001
0000
0000
1000
,
0010
0000
0000
0100
0001
0000
0000
1000
,
0000
0001
0000
1000
0000
0001
1000
0000
0000
0010
0000
0100
0000
0000
0010
0000
,
0000
1000
0000
0001
0000
1000
0001
0000
0000
0100
0000
0010
0000
0000
0100
0000
,
0000
0001
0000
0010
0000
0001
0010
0000
0000
0100
0000
1000
0000
0000
0100
0000
,
0000
1000
0000
0001
0000
1000
0001
0000
0000
0100
0000
0010
0000
0000
0100
0000
,
0000
0001
0000
0100
0000
0010
0100
0000
0000
0010
0000
1000
0000
0000
0001
0000
,
0000
0010
0000
0001
0000
1000
0100
0000
0000
1000
0000
0010
0000
0000
0100
0000
,
0000
0010
0000
1000
0000
0001
0010
0000
0000
0100
0000
0010
0000
0000
0001
0000
,
0000
0010
0000
0001
0000
1000
0100
0000
0000
1000
0000
0010
0000
0000
0100
0000
,
0001
0000
0001
0000
,
1000
0000
1000
0000
,
0010
0000
0010
0000
,
0100
0000
0100
0000
,
0010
0010
0010
0010
,
0100
0100
0100
0100
,
0001
1000
0001
1000
0001
1000
0001
1000
,
0001
0100
1000
0100
0001
0010
1000
0010
,
0001
0000
0100
0001
0010
0000
0100
1000
,
1001
0000
0001
1000
0010
0000
1000
0001
,
0101
0000
0001
0010
0100
0000
0010
0001
,
1001
0000
1000
0010
0100
0000
0010
1000
,
1100
0000
0100
1000
0010
0000
0100
0001
,
0011
0000
0001
1000
0100
0000
1000
0010
,
0110
0000
0100
0001
0010
0000
0100
0010
,
0001
1000
0001
1000
0001
0100
0010
1000
,
0100
0000
1000
0010
0101
0000
0001
0010
,
0110
0000
0010
0001
1100
0000
1000
0001
,
0101
0000
0001
1000
0110
0000
0010
0100
,
0101
0000
0001
0010
1100
0000
0100
1000
,
1010
0000
0010
0100
1001
0000
0001
0010
,
1100
0000
0100
1000
0011
0000
1000
0010
,
0101
0000
0010
0100
0001
0001
0001
1000
,
0100
0100
0010
0100
1000
0001
1000
0001
,
1000
0000
0001
0100
0001
0000
0100
0010
,
0100
0000
0010
1000
0010
0000
1000
0100
,
1000
0000
0100
0010
0100
0000
0010
0001
,
0010
0000
0001
1000
0001
0000
1000
0010
,
0100
0000
0010
1000
0001
0000
0010
0100
,
1000
0000
0100
1000
0010
0000
0100
0001
,
0010
0000
0100
0010
0001
0000
0010
0100
,
1000
0000
0100
0010
0001
0000
0000
0000
,
1001
0000
0000
0001
0100
0000
0000
0010
,
0100
0000
0000
0010
1000
0000
0000
0100
,
1000
0000
0000
0001
1000
0000
0000
0010
,
1000
0000
0000
0010
0100
0000
0000
0001
,
0010
0000
0000
0100
1000
0000
0000
0100
,
0010
0000
0000
0100
1000
0000
0000
0010
,
0100
0000
0000
0010
1000
0000
0000
0001
,
0100
0000
0000
0010
1000
1000
1000
0100
;

//---------------dance-single - ----------------
#NOTEDATA:;
#CHARTNAME:;
#STEPSTYPE:dance-single;
#DESCRIPTION:;
#CHARTSTYLE:;
#DIFFICULTY:Medium;
#METER:5;
#RADARVALUES:0.279439,0.333895,0.025738,0.000000,0.000000,228.000000,225.000000,3.000000,0.000000,0.000000,0.000000,0.000000,0.000000,0.000000,0.279439,0.333895,0.025738,0.000000,0.000000,228.000000,225.000000,3.000000,0.000000,0.000000,0.000000,0.000000,0.000000,0.000000;
#CREDIT:;
#NOTES:
0000
0000
0000
0000
,
0000
0000
0000
0000
,
0000
0000
0000
0000
,
0000
0000
0000
0000
0000
0000
0000
1000
,
0001
0000
0000
1000
0100
0000
0000
1000
,
0001
0000
0000
1000
0100
0000
0000
1000
,
0001
0000
0000
1000
0100
0000
0000
1000
,
0001
0000
0000
1000
0100
0000
0000
0100
,
1000
0000
0000
0100
0010
0000
0000
0100
,
1000
0000
0000
0100
0010
0000
0000
0100
,
1000
0000
0000
0100
0010
0000
0000
0100
,
1000
0000
0000
0100
0010
0000
0000
0010
,
0001
0000
0000
0001
0100
0000
0000
0100
,
0001
0000
0000
0001
0010
0000
0000
0010
,
0001
0000
0000
0001
0100
0000
0000
0100
,
0001
0000
0000
0001
0010
0000
0000
0010
,
0100
0000
0000
0100
0010
0000
0000
0010
,
0100
0000
0000
0100
0010
0000
0000
0010
,
0100
0000
0000
0100
0010
0000
0000
0010
,
0100
0000
0000
0100
0010
0000
0000
0000
,
0100
0000
1000
0000
,
0010
0000
0100
0000
,
0001
0000
1000
0000
,
0010
0000
0100
0000
,
0001
0100
0010
1000
,
0001
0100
0010
1000
,
0001
0001
0001
0001
,
1000
0000
0001
0000
0100
0000
0010
0100
,
1001
0000
0000
0001
0100
0000
0000
1000
,
0100
0000
0000
1000
0010
0000
0000
0100
,
0001
0000
0000
0010
0100
0000
0000
0010
,
0001
0000
0000
1000
0001
0000
0000
0100
,
0001
0000
0000
0100
0010
0000
0000
1000
,
0010
0000
0000
0100
0001
0000
0000
1000
,
0001
0000
0000
0010
0001
0000
0000
1000
,
0100
1000
0100
0000
1000
0100
0010
0001
,
1001
0000
0000
0001
0100
0000
0000
0010
,
1000
0000
0000
0100
0010
0000
0000
0100
,
1000
0000
0000
0010
0100
0000
0000
0010
,
1000
0000
0000
0001
0010
0000
0000
0100
,
0010
0000
0000
0100
1000
0000
0000
0100
,
0010
0000
0000
0100
0010
0000
0000
0100
,
0010
0000
0000
0010
0001
0001
0001
0000
,
1000
1000
1000
0000
0001
1000
0001
1000
,
0001
0000
0000
0100
0100
0000
0000
0010
,
1000
0000
0000
0100
0100
0000
0000
0010
,
0001
0000
0000
0100
0100
0000
0000
0010
,
1000
0000
0000
0100
0100
0000
0000
1000
,
0001
0000
0000
0010
0010
0000
0000
0001
,
1000
0000
0000
0010
0010
0000
0000
1000
,
0001
0000
0000
0010
0010
0000
0000
0001
,
1000
0000
0000
0010
0010
0000
0000
0000
,
1001
0000
0000
0001
0100
0000
0000
0100
,
1000
0000
0000
1000
0100
0000
0000
0100
,
0001
0000
0000
0001
1000
0000
0000
1000
,
0001
0000
0000
0001
1000
0000
0000
1000
,
0010
0000
0000
0010
0100
0000
0000
0100
,
0001
0000
0000
0001
0010
0000
0000
0010
,
1000
0000
0000
1000
0010
0000
0000
0100
,
0010
0000
0000
0010
0001
1000
0001
0010
;

//---------------dance-single - ----------------
#NOTEDATA:;
#CHARTNAME:;
#STEPSTYPE:dance-single;
#DESCRIPTION:;
#CHARTSTYLE:;
#DIFFICULTY:Beginner;
#METER:1;
#RADARVALUES:0.077213,0.153140,0.017159,0.000000,0.000000,63.000000,61.000000,2.000000,0.000000,0.000000,0.000000,0.000000,0.000000,0.000000,0.077213,0.153140,0.017159,0.000000,0.000000,63.000000,61.000000,2.000000,0.000000,0.000000,0.000000,0.000000,0.000000,0.000000;
#CREDIT:;
#NOTES:
0000
0000
0000
0000
,
0000
0000
0000
0000
,
0000
0000
0000
0000
,
0000
0000
0000
0000
,
0000
0000
0000
0000
,
0000
0000
0000
0000
,
0000
0000
0000
0000
,
0000
0000
0000
0000
,
1000
0000
0000
0000
,
0001
0000
0000
0000
,
1000
0000
0000
0000
,
0001
0000
0000
0000
,
0100
0000
0000
0000
,
0100
0000
0000
0000
,
0010
0000
0000
0000
,
0010
0000
0000
0000
,
1000
0000
0000
0000
,
1000
0000
0000
0000
,
0001
0000
0000
0000
,
0001
0000
0000
0000
,
0100
0000
0000
0000
,
0100
0000
0000
0000
,
0010
0000
0000
0000
,
0010
0000
0000
0000
,
1000
0000
1000
0000
,
1000
0000
1000
0000
,
0001
0000
0001
0000
,
0001
0000
0001
0000
,
0110
0000
0000
0000
,
0100
0000
0000
0000
,
0001
0000
0000
0000
,
1000
0000
0000
0000
,
0100
0000
0000
0000
,
1000
0000
0000
0000
,
0010
0000
0000
0000
,
0100
0000
0010
0000
,
1001
0000
0000
0000
,
0001
0000
0000
0000
,
1000
0000
0000
0000
,
0010
0000
0000
0000
,
1000
0000
0000
0000
,
0001
0000
0000
0000
,
0100
0000
0100
0000
,
0010
0000
0010
0000
,
1000
0000
0000
0000
,
0001
0000
0000
0000
,
0100
0000
0000
0000
,
0010
0000
0000
0000
,
1000
0000
0000
0000
,
0100
0000
0000
0000
,
1000
0000
0000
0000
,
0001
0000
0100
0000
,
0010
0000
0000
0000
,
0100
0000
0000
0000
,
0001
0000
0000
0000
,
1000
0000
0000
0000
,
0100
0000
0000
0000
,
1000
0000
0000
0000
,
0010
0000
0000
0000
,
0100
0000
0010
0000
;

//---------------dance-single - X----------------
#NOTEDATA:;
#CHARTNAME:;
#STEPSTYPE:dance-single;
#DESCRIPTION:X;
#CHARTSTYLE:;
#DIFFICULTY:Edit;
#METER:8;
#RADARVALUES:0.404451,0.427623,0.248799,0.145848,0.218771,330.000000,301.000000,29.000000,17.000000,0.000000,0.000000,0.000000,0.000000,0.000000,0.404451,0.427623,0.248799,0.145848,0.218771,330.000000,301.000000,29.000000,17.000000,0.000000,0.000000,0.000000,0.000000,0.000000;
#CREDIT:;
#OFFSET:-0.000000;
#BPMS:0.000000=124.989998
,72.000000=62.494999
,72.500000=124.989998
,75.000000=62.494999
,75.500000=124.989998
,78.000000=62.494999
,78.500000=124.989998
,81.000000=62.494999
,81.500000=124.989998
,84.000000=62.494999
,84.500000=124.989998
,87.000000=62.494999
,87.500000=124.989998
,92.000000=62.494999
,93.000000=124.989998
;
#STOPS:0.000000=0.480038
,1.000000=0.480038
,2.000000=0.480038
,3.000000=0.480038
,4.000000=0.480039
,5.000000=0.480038
,6.000000=0.480039
,7.000000=0.480038
,8.000000=0.480039
,9.000000=0.480039
,10.000000=0.480039
,11.000000=0.480039
,12.000000=0.480039
,13.000000=0.480039
,14.000000=0.480039
,15.000000=0.480039
,16.000000=0.480039
,17.000000=0.480040
,18.000000=0.480040
,19.000000=0.480040
,20.000000=0.480040
,21.000000=0.480040
,22.000000=0.480040
,23.000000=0.480040
,25.500000=0.240019
,27.000000=0.240019
,28.500000=0.240019
,30.000000=0.240019
,31.500000=0.240019
,33.000000=0.240019
,34.500000=0.240019
,36.000000=0.240019
,37.500000=0.240019
,39.000000=0.240021
,40.500000=0.240017
,42.000000=0.240017
,43.500000=0.240017
,45.000000=0.240017
,46.500000=0.240017
,48.500000=0.480042
,49.500000=0.480038
,50.500000=0.480038
,51.500000=0.480038
,52.500000=0.480038
,53.500000=0.480038
,54.500000=0.480038
,55.500000=0.480038
,56.500000=0.240021
,57.000000=0.240017
,57.500000=0.240017
,58.000000=0.240017
,58.500000=0.240017
,59.000000=0.240017
,59.500000=0.240017
,60.000000=0.240017
,70.500000=0.240017
,73.500000=0.240021
,76.500000=0.240021
,79.500000=0.240021
,82.500000=0.240021
,85.500000=0.240021
,88.500000=0.240013
,95.000000=0.240021
,96.500000=0.240021
,98.000000=0.240021
,99.500000=0.240021
,101.000000=0.240021
,102.500000=0.240021
,104.000000=0.240021
,105.500000=0.240021
,107.000000=0.240021
,108.500000=0.240021
,110.000000=0.240021
,111.500000=0.240021
,113.000000=0.120010
,113.250000=0.120010
,114.500000=0.120010
,114.750000=0.120010
,118.000000=0.240013
,119.500000=0.240021
,121.000000=0.240021
,122.500000=0.240021
,124.000000=0.240021
,125.500000=0.240021
,127.000000=0.240021
,128.500000=0.240021
,130.000000=0.240021
,131.500000=0.240021
,133.000000=0.240021
,134.500000=0.240021
,136.000000=0.240021
,137.500000=0.240021
,143.000000=0.480034
,144.000000=0.480034
,145.000000=0.480034
,146.000000=0.480034
,147.000000=0.480034
,148.000000=0.480034
,149.000000=0.480034
,150.000000=0.480034
,151.000000=0.480034
,152.000000=0.480034
,153.000000=0.480034
,154.000000=0.480034
,155.000000=0.480034
,156.000000=0.480034
,157.000000=0.480034
;
#DELAYS:;
#WARPS:;
#TIMESIGNATURES:0.000000=4=4
;
#TICKCOUNTS:0.000000=4
;
#COMBOS:0.000000=1
;
#SPEEDS:0.000000=1.000000=0.000000=0
;
#SCROLLS:0.000000=1.000000
;
#FAKES:;
#LABELS:0.000000=Song Start
;
#NOTES:
// measure 0
0000
0000
0000
0000
,  // measure 1
0000
0000
0000
0000
0000
0000
0000
1000
,  // measure 2
0001
1000
0010
1000
0001
1000
0010
1000
,  // measure 3
0001
1000
0010
1000
0001
1000
0010
0100
,  // measure 4
0001
0001
0001
0001
0010
0010
0010
0100
,  // measure 5
1000
1000
1000
0001
0100
0010
0010
0100
,  // measure 6
0000
0001
0000
0100
0000
0010
1000
0100
0000
1000
0000
0000
0010
0100
0000
0010
,  // measure 7
0000
1000
0100
0010
0000
0001
0000
0000
1000
0010
0000
0100
0000
0010
1000
0010
,  // measure 8
0000
1000
0000
0000
0001
0100
0000
0010
0000
1000
0010
0100
0000
0010
0000
0000
,  // measure 9
1000
0001
0000
1000
0000
0100
1000
0100
0000
1000
0000
0000
0010
0100
0000
0010
,  // measure 10
0000
1000
0010
0100
0000
0010
0000
0000
1000
0001
0000
0010
0000
0100
1000
0100
,  // measure 11
0000
1000
0000
0000
0010
0100
0000
0001
0000
1000
0010
0100
0000
0010
0000
0000
,  // measure 12
1000
1001
0000
0110
0000
1001
0000
0110
,  // measure 13
0000
1001
0000
0110
0000
1001
0000
0110
,  // measure 14
0000
1001
0110
1001
0110
1001
0110
1001
,  // measure 15
0110
1000
0010
0100
0001
1000
0010
0100
,  // measure 16
0001
0000
0000
1000
0000
0000
0100
0000
0000
0001
0000
0000
0100
0000
0010
0001
0000
0000
0100
0000
0000
0010
0000
0000
,  // measure 17
0001
1001
0000
0001
0100
1100
1000
0001
,  // measure 18
0020
0130
0010
0011
0001
1000
0200
0310
,  // measure 19
0100
1100
1000
0010
0200
0310
1000
0011
,  // measure 20
0001
1000
0020
0130
0001
0011
0010
0100
,  // measure 21
2000
3100
1000
1010
0010
0100
0002
0103
,  // measure 22
0010
1001
0001
1000
0010
0010
0010
0010
,  // measure 23
2000
3200
0302
0023
2030
3000
0000
0000
0001
0000
1000
0001
0100
0000
0000
0000
,  // measure 24
0010
0000
1001
0000
0000
0000
1000
0001
0100
0000
0000
0000
0010
0100
0001
0000
,  // measure 25
0000
0000
0010
0100
1000
0000
0000
0000
0100
1000
0001
0000
0000
0000
0100
0010
,  // measure 26
1000
0000
0000
0000
0000
0000
0000
0000
0002
0000
0000
0000
0023
0030
0000
0000
0000
0000
0000
0000
0100
0000
0000
0000
2000
0000
3000
0000
0000
0000
0000
0000
,  // measure 27
0001
0200
0300
0010
0200
0300
0010
2000
,  // measure 28
0000
0000
3001
0000
1000
1000
0100
0000
0010
0000
0001
0001
0100
0000
0010
0000
,  // measure 29
1001
1000
1000
1000
1001
0001
0100
0010
,  // measure 30
0100
0010
1000
0100
0001
1000
0100
1000
,  // measure 31
0010
1000
0010
0001
0010
0100
0001
0010
,  // measure 32
0100
1000
0100
1000
0010
0100
0001
0100
,  // measure 33
0001
0100
1000
0100
0010
0100
0010
1000
,  // measure 34
0001
0001
0010
1000
1000
0010
0001
0001
,  // measure 35
0001
0001
0010
0100
1000
0001
1001
0001
,  // measure 36
0100
0001
1000
0001
0010
0001
1000
0001
,  // measure 37
0100
0001
1000
0001
0010
0001
0001
1000
,  // measure 38
0001
1000
0100
1000
0010
1000
0001
1000
,  // measure 39
0100
1000
0010
0100
0010
0010
0010
1001
;

//---------------dance-double - ----------------
#NOTEDATA:;
#CHARTNAME:;
#STEPSTYPE:dance-double;
#DESCRIPTION:;
#CHARTSTYLE:;
#DIFFICULTY:Challenge;
#METER:7;
#RADARVALUES:0.354201,0.436631,0.205903,0.154427,0.137268,289.000000,265.000000,24.000000,18.000000,0.000000,0.000000,0.000000,0.000000,0.000000,0.354201,0.436631,0.205903,0.154427,0.137268,289.000000,265.000000,24.000000,18.000000,0.000000,0.000000,0.000000,0.000000,0.000000;
#CREDIT:;
#NOTES:
00000000
00000000
00000000
00000000
,
00000000
00000000
00000000
00000000
,
00000000
00000000
00000000
00000000
,
00000000
00000000
00000000
00000000
,
00000000
00000000
00000000
00000000
,
00000000
00000000
00000000
00000000
,
00000000
00000000
00000000
00000000
,
00000000
00000000
00000000
00000000
00000000
00000000
00000000
10000000
,
01000000
00000000
00000000
01000000
00100000
00000000
00000000
00100000
,
00010000
00000000
00000000
00010000
01000000
00000000
00000000
01000000
,
00001000
00000000
00000000
00001000
00010000
00000000
00000000
00010000
,
00000100
00000000
00000000
00000100
00001000
00000000
00000000
00001000
,
00000000
00000001
00000000
00000100
00000000
00000000
00000010
00000000
00000000
00000100
00000000
00000010
00000000
00000000
00001000
00000000
,
00000000
00000100
00000000
00010000
00000000
00000000
00001000
00000000
00000000
00010000
00000000
00000100
00000000
00000000
00001000
00000000
,
00000000
00000100
00000000
00010000
00000000
00000000
00001000
00000000
00000000
00100000
00000000
00010000
00000000
00000000
01000000
00000000
,
00000000
00100000
00000000
10000000
00000000
00000000
01000000
00000000
00000000
00100000
00000000
01000000
00000000
00000000
10000000
00000000
,
00000000
00010000
00000000
00100000
00000000
00000000
00001000
00000000
00000000
00010000
00000000
00000100
00000000
00000000
00000010
00000000
,
00000000
00000001
00000000
00000100
00000000
00000000
00000010
00000000
00000000
00000100
00000000
00000010
00000000
00000000
00001000
00000000
,
00000000
00000100
00000000
00010000
00000000
00000000
00001000
00000000
00000000
00100000
00000000
00010000
00000000
00000000
01000000
00000000
,
00000000
00100000
00000000
10000000
00000000
00000000
00010000
00000000
00000000
00100000
00000000
01000000
00000000
00000000
10000000
00000000
,
00010000
00000000
00100000
00000000
,
00001000
00000000
00010000
00000000
,
00000100
00000000
00000010
00000000
,
00000001
00000000
00000100
00000000
,
00000010
00010000
00001000
01000000
,
00100000
00000000
10000000
00000000
00100000
00000000
10000000
00100000
,
10000000
00100000
01000000
00010000
01000000
00010000
00100000
00001000
,
00100000
00001000
00010000
00000100
00000001
00000100
00001000
00000010
,
00000100
00000000
00000010
00001000
00001001
00000000
00000001
00001000
,
00000200
00000000
00010300
00001000
01001000
00000000
01000000
00100000
,
20000000
00000000
31000000
10000000
11000000
00000000
10000000
00010000
,
00200000
00000000
00301000
00010000
00011000
00000000
00010000
00000100
,
00002000
00000000
00003010
00000100
00000101
00000000
00000001
00000010
,
00000200
00000000
00000310
00001000
00001010
00000000
00000010
00010000
,
00000200
00000000
00010300
00001000
00101000
00000000
00100000
00010000
,
01000000
01000000
01000000
01000000
00010000
00100000
00002000
00000000
,
01003000
00000000
00000000
00100000
10010000
00000000
00000000
10000000
,
00110000
00000000
00000000
00100000
00011000
00000000
00000000
00000100
,
00011000
00000000
00000000
00010000
00001100
00000000
00000000
00001000
,
00000011
00000000
00000000
00000001
00001010
00000000
00000000
00000100
,
00002002
00003003
00000000
00000100
00002020
00003030
00000000
00000100
,
00022000
00033000
00000000
00001000
02020000
00000000
03030000
01000000
,
20020000
00000000
30030000
00100000
20010000
00010000
30010000
00000000
,
01000000
00100000
00001000
00000000
00000100
00001000
00000010
00000100
,
00001001
00000000
00000001
00000010
00000100
00000000
00000010
00000001
,
00001000
00000000
00000010
00000100
00000001
00000000
00000100
00000010
,
00001000
00000000
00000100
00010000
00001000
00000000
00010000
00001000
,
00100000
00000000
00010000
00100000
01000000
00000000
00100000
00010000
,
01000000
00000000
00100000
10000000
00010000
00000000
00100000
00010000
,
01000000
00000000
00010000
00100000
00001000
00000000
00010000
00000100
,
00000010
00000110
00000001
00001100
,
00000010
00001000
00000010
00001000
00000010
00001000
00000100
00010000
,
00100000
00000000
00000000
01000000
00100000
00000000
00000000
01000000
,
10000000
00000000
00000000
00100000
01000000
00000000
00000000
00010000
,
00100000
00000000
00000000
00001000
00010000
00000000
00000000
00000100
,
00001000
00000000
00000000
00000010
00000100
00000000
00000000
00000010
,
00001000
00000000
00000000
00000001
00000010
00000000
00000000
00000100
,
00001000
00000000
00000000
00000100
00010000
00000000
00000000
00001000
,
01000000
00000000
00000000
00100000
10000000
00000000
00000000
01000000
,
00100000
00000000
00000000
01000000
00100000
00100000
00100000
10010000
;

//---------------dance-single - ----------------
#NOTEDATA:;
#CHARTNAME:;
#STEPSTYPE:dance-single;
#DESCRIPTION:;
#CHARTSTYLE:;
#DIFFICULTY:Easy;
#METER:2;
#RADARVALUES:0.127463,0.255233,0.008579,0.008579,0.000000,104.000000,103.000000,1.000000,1.000000,0.000000,0.000000,0.000000,0.000000,0.000000,0.127463,0.255233,0.008579,0.008579,0.000000,104.000000,103.000000,1.000000,1.000000,0.000000,0.000000,0.000000,0.000000,0.000000;
#CREDIT:;
#NOTES:
0000
0000
0000
0000
,
0000
0000
0000
0000
,
0000
0000
0000
0000
,
0000
0000
0000
0000
,
0000
0000
0000
0001
,
0000
0000
0000
1000
,
0000
0000
0000
0010
,
0000
0000
0000
1000
,
0000
0000
0000
0001
,
0000
0000
0000
0100
,
0000
0000
0000
0010
,
0000
0000
0000
1000
,
0001
0000
0001
0000
,
1000
0000
1000
0000
,
0010
0000
0010
0000
,
0100
0000
0100
0000
,
0001
0000
1000
0000
,
0010
0000
0100
0000
,
0001
0000
1000
0000
,
0010
0000
0100
0000
,
0010
0000
0010
0000
,
0010
0000
0010
0000
,
0100
0000
0100
0000
,
0100
0000
0100
0000
,
0001
0001
0001
0001
,
1000
1000
1000
1000
,
0001
1000
0001
1000
,
0001
1000
0010
1000
,
1001
0000
0001
0000
,
0100
0000
0010
0000
,
0100
0000
0001
0000
,
1000
0000
0100
0000
,
1000
0000
0010
0000
,
0100
0000
0001
0000
,
0010
0000
0001
0000
,
1000
1000
0020
0000
,
0130
0000
0010
0000
,
1000
0000
0001
0000
,
0010
0000
0100
0000
,
0010
0000
0001
0000
,
1000
0000
0001
0000
,
0100
0000
0010
0000
,
1000
0000
0001
0001
,
1000
1000
0001
1000
,
0010
0000
0000
0000
,
0100
0000
0000
0000
,
0001
0000
0000
0000
,
1000
0000
0000
0000
,
0100
0000
0000
0000
,
1000
0000
0000
0000
,
0010
0000
0010
0000
,
0100
0000
0100
0000
,
0001
0000
0000
0000
,
1000
0000
0000
0000
,
0010
0000
0000
0000
,
0100
0000
0000
0000
,
0001
0000
0000
0000
,
1000
0000
0000
0000
,
0100
0000
0000
0000
,
1000
0000
1000
0000
;
