#VERSION:0.83;
#TITLE:Night & Day;
#SUBTITLE:;
#ARTIST:TANUKI;
#TITLETRANSLIT:;
#SUBTITLETRANSLIT:;
#ARTISTTRANSLIT:;
#GENRE:;
#ORIGIN:;
#CREDIT:;
#BANNER:banner.png;
#BACKGROUND:background.png;
#PREVIEWVID:;
#JACKET:jacket.png;
#CDIMAGE:;
#DISCIMAGE:;
#LYRICSPATH:;
#CDTITLE:;
#MUSIC:Night & Day.ogg;
#OFFSET:-2.000000;
#SAMPLESTART:32.700001;
#SAMPLELENGTH:15.360001;
#SELECTABLE:YES;
#BPMS:0.000=125.000;
#STOPS:;
#DELAYS:;
#WARPS:;
#TIMESIGNATURES:0.000=4=4;
#TICKCOUNTS:0.000=4;
#COMBOS:0.000=1;
#SPEEDS:0.000=1.000=0.000=0;
#SCROLLS:0.000=1.000;
#FAKES:;
#LABELS:0.000=Song Start;
#BGCHANGES:;
#KEYSOUNDS:;
#ATTACKS:
;

//---------------dance-single - ----------------
#NOTEDATA:;
#CHARTNAME:;
#STEPSTYPE:dance-single;
#DESCRIPTION:;
#CHARTSTYLE:;
#DIFFICULTY:Hard;
#METER:7;
#RADARVALUES:0.353996,0.424399,0.110954,0.046231,0.346731,268.000000,256.000000,12.000000,5.000000,0.000000,0.000000,0.000000,0.000000,0.000000,0.353996,0.424399,0.110954,0.046231,0.346731,268.000000,256.000000,12.000000,5.000000,0.000000,0.000000,0.000000,0.000000,0.000000;
#CREDIT:;
#NOTES:
0000
0000
0000
0000
,
0000
0000
0000
0000
,
0000
0000
0000
0000
,
0000
0000
0000
0000
,
1001
0000
0000
0000
0100
0000
0000
0100
0000
0000
0000
0000
0000
0010
0000
0000
,
1000
0000
0000
0000
0001
0000
0000
0001
0000
0000
0000
0000
0000
0100
0000
0000
,
0010
0000
0000
0000
1000
0000
0000
1000
0000
0000
0000
0000
0000
0001
0000
0000
,
0010
0010
0010
1001
,
0110
0000
0000
0000
0100
0000
0000
0000
0010
0000
0000
0010
0000
0000
1000
0000
,
0001
0000
0000
0000
0010
0000
0000
0000
0100
0000
0000
0010
0000
0000
0001
0000
,
1000
0000
0000
0000
0001
0000
0000
0000
0100
0000
0000
0100
0000
0000
0010
0000
,
1000
0100
1000
0000
,
0001
0000
0100
0000
0110
0000
0000
0000
0010
0000
0000
1000
0000
0000
0010
0000
,
0100
0000
0000
0000
0001
0000
0000
0000
1000
0000
0000
1000
0000
0000
0001
0000
,
0010
0000
0000
0000
0100
0000
0000
0000
0010
0000
0000
0010
0000
0000
0100
0000
,
0010
0000
0001
0000
1000
0010
0100
0001
,
0000
0000
1000
0100
0000
1000
0000
0000
0010
0000
0000
0100
0000
0000
0001
0000
,
0000
0000
0010
0001
0000
0010
0000
0000
0001
0000
0000
0100
0000
0010
0000
0000
,
0000
0000
0100
0001
0000
1000
0000
0000
0100
0000
0000
0010
0000
0000
0100
0000
,
0000
0000
0010
0100
0000
0010
0000
0000
0001
1000
0000
0010
0000
0010
0000
0000
,
0100
0000
0010
0000
1001
0000
0000
0000
1000
0000
0000
0001
0000
0000
0010
0000
,
0000
0000
0100
0010
0000
0100
0000
0000
1000
0000
0000
0001
0000
0010
0000
0000
,
0000
0000
0100
0010
0000
0100
0000
0000
1000
0000
0000
0001
0000
0000
0100
0000
,
0010
1000
0100
0010
0001
1000
0001
0100
,
0002
0000
0100
0000
0000
1000
1003
0000
,
2000
0000
0100
0000
0000
0001
3001
0000
,
0002
0000
0010
0000
0000
1000
1003
0000
,
2000
0000
0010
0000
0000
0001
3001
1000
,
0001
0010
0000
0000
0100
0000
0000
0000
0000
0000
0010
0000
0100
0000
0000
0000
,
1000
0010
0000
0000
0100
0000
0000
0000
0000
0000
0010
0000
1000
0000
0000
0000
,
0001
0010
0000
0000
0001
0000
0000
0000
0000
0000
1000
0000
0010
0000
0000
0000
,
0100
0001
0000
0000
0010
0000
0000
0000
0000
0000
0100
0000
0010
0000
0000
0000
,
0001
0000
0000
0000
0010
0000
0000
0001
0000
0000
1000
0000
0000
0000
0010
0000
,
1000
0000
0000
0000
0100
0000
0000
1000
0000
0000
0001
0000
0000
0000
0100
0000
,
0010
0000
0000
0000
1000
0000
0000
0010
0000
0000
0100
0000
0000
0000
0010
0000
,
0100
0100
0100
1001
,
0001
0000
0010
0000
0000
0001
0000
1000
,
0010
0000
0000
0000
0100
0000
0000
0010
0000
0000
0100
0000
0010
0000
1000
0000
,
0001
0000
0010
0000
0000
0100
0000
0010
,
0001
0000
0000
0000
1000
0000
0000
0100
0000
0000
1000
0000
0010
0000
0100
0000
,
0000
0000
0000
0000
1001
0000
0000
0001
0000
0000
0100
0000
0000
0000
0010
0000
,
1000
0000
0000
0000
0100
0000
0000
1000
0000
0000
0001
0000
0010
0000
0001
0000
,
0100
0000
0000
0000
0001
0000
0000
0010
0000
0000
0001
0000
0000
0000
1000
0000
,
0010
0000
0000
0000
0100
0000
0000
0001
0010
0000
0100
0000
0010
0000
0001
0000
,
1000
0000
0001
0100
0000
0010
0000
0000
0100
0000
0000
0000
0000
0010
0000
1000
,
0000
0000
0001
1000
0000
0001
0000
0000
1000
0000
0000
0100
0000
1000
0000
0000
,
0000
0000
0010
0100
0000
0010
0000
0000
1000
0000
0000
0000
0000
0001
0000
0010
,
0000
0000
0100
0010
0000
0100
0000
0000
0010
0000
0000
0001
0000
0100
0000
0000
,
0010
0000
0100
0000
1001
0000
0000
0000
0001
0000
0000
1000
0000
0010
0000
0100
,
0000
0000
0010
1000
0000
1000
0000
0000
0001
0000
0000
0010
0000
0001
0000
0000
,
0110
0000
1001
0000
,
0110
0000
0000
0000
1001
0000
0000
0000
0001
1000
0001
1000
0001
1000
0001
0100
,
0020
0000
0000
0000
,
0000
0000
0000
0000
,
0030
0000
0000
0000
;

//---------------dance-single - ----------------
#NOTEDATA:;
#CHARTNAME:;
#STEPSTYPE:dance-single;
#DESCRIPTION:;
#CHARTSTYLE:;
#DIFFICULTY:Medium;
#METER:5;
#RADARVALUES:0.286631,0.318530,0.092462,0.064723,0.203416,217.000000,207.000000,10.000000,7.000000,0.000000,0.000000,0.000000,0.000000,0.000000,0.286631,0.318530,0.092462,0.064723,0.203416,217.000000,207.000000,10.000000,7.000000,0.000000,0.000000,0.000000,0.000000,0.000000;
#CREDIT:;
#NOTES:
0000
0000
0000
0000
,
0000
0000
0000
0000
,
0000
0000
0000
0000
,
0000
0000
0000
0000
,
0101
0000
0000
0000
0001
0000
0000
0010
0000
0000
0000
0000
0000
0100
0000
0000
,
0010
0000
0000
0000
0001
0000
0000
1000
0000
0000
0000
0000
0000
0100
0000
0000
,
1000
0000
0000
0000
0010
0000
0000
0100
0000
0000
0000
0000
0000
0010
0000
0000
,
1000
1000
1000
0110
,
1001
0000
0000
0000
1000
0000
0000
0000
0100
0000
0000
1000
0000
0000
0010
0000
,
0100
0000
0000
0000
0001
0000
0000
0000
0010
0000
0000
0100
0000
0000
0010
0000
,
0001
0000
0000
0000
1000
0000
0000
0000
0010
0000
0000
1000
0000
0000
0100
0000
,
0010
0010
0010
0100
,
0010
0000
0001
0000
1000
0000
0000
0000
0001
0000
0000
0010
0000
0000
0001
0000
,
0100
0000
0000
0000
0010
0000
0000
0000
1000
0000
0000
0100
0000
0000
0010
0000
,
0100
0000
0000
0000
0010
0000
0000
0000
0001
0000
0000
1000
0000
0000
0010
0000
,
1000
0010
0200
0302
,
0003
0000
0010
0000
0000
0001
0000
0000
1000
0000
0000
0010
0000
0000
0100
0000
,
0000
0000
0010
0000
0000
1000
0000
0000
0001
0000
0000
0010
0000
0000
0100
0000
,
0000
0000
0010
0000
0000
0001
0000
0000
1000
0000
0000
0100
0000
0000
0010
0000
,
0000
0000
0100
0000
0000
0010
0000
0000
0001
0000
0000
1000
0000
1000
0000
0000
,
0000
0000
0000
0000
0110
0000
0000
0000
0100
0000
0000
0010
0000
0000
1000
0000
,
0000
0000
0001
0000
0000
0010
0000
0000
0001
0000
0000
0100
0000
0000
0010
0000
,
0000
0000
0100
0000
0000
0010
0000
0000
1000
0000
0000
0100
0000
0000
0010
0000
,
1001
0000
0000
0000
0000
0110
0000
0000
,
0002
0000
0000
0003
,
2000
0000
0000
3000
,
0020
0000
0000
0030
,
0200
0000
0000
0310
,
1000
0000
0001
0000
0010
0001
0010
0000
,
0001
0000
1000
0000
0100
0010
0100
0000
,
1000
0000
0010
0000
0100
0001
0100
0000
,
0001
0000
1000
0000
0100
0010
0100
0000
,
0010
0001
1000
0010
,
0100
0001
1000
0100
,
1000
0010
0100
0001
,
0010
0010
0010
1001
,
0110
0000
0100
0000
0000
0010
0000
1000
,
0001
0000
0010
0000
0000
0001
1000
0010
,
0100
0000
0010
0000
0000
0100
0000
0001
,
1000
0000
0100
0000
0000
1000
0001
0000
,
0010
0000
0000
0000
1001
0000
0000
0001
0000
0000
0100
0000
0000
0000
0010
0000
,
1000
0000
0000
0000
0100
0000
0000
0010
0000
0000
0100
0000
1000
0000
0001
0000
,
0100
0000
0000
0000
0001
0000
0000
1000
0000
0000
0010
0000
0000
0000
0100
0000
,
0010
0000
0000
0000
1000
0000
0000
0100
0000
0000
0000
0000
1000
0000
0000
0000
,
0010
0000
0100
0000
0000
0010
0000
0000
1000
0000
0000
0001
0000
0000
0010
0000
,
0000
0000
0100
0000
0000
0010
0000
0000
0001
0000
0000
1000
0000
0000
0010
0000
,
0000
0000
0100
0000
0000
0010
0000
0000
1000
0000
0000
0001
0000
0000
0010
0000
,
0000
0000
0100
0000
0000
0010
0000
0000
0001
0000
0000
0100
0000
0100
0000
0000
,
0000
0000
0000
0000
1001
0000
0000
0000
0001
0000
0000
0000
0000
0100
0000
0100
,
0000
0000
0010
0000
0000
1000
0000
0000
0100
0000
0000
0010
0000
0100
0000
0000
,
0010
0000
0100
0000
,
0001
0000
1000
0000
0010
0000
0100
0010
,
2000
0000
0000
0000
,
3000
0000
0000
0000
;

//---------------dance-single - ----------------
#NOTEDATA:;
#CHARTNAME:;
#STEPSTYPE:dance-single;
#DESCRIPTION:;
#CHARTSTYLE:;
#DIFFICULTY:Easy;
#METER:2;
#RADARVALUES:0.149259,0.216360,0.092462,0.073969,0.000000,113.000000,103.000000,10.000000,8.000000,0.000000,0.000000,0.000000,0.000000,0.000000,0.149259,0.216360,0.092462,0.073969,0.000000,113.000000,103.000000,10.000000,8.000000,0.000000,0.000000,0.000000,0.000000,0.000000;
#CREDIT:;
#NOTES:
0000
0000
0000
0000
,
0000
0000
0000
0000
,
0000
0000
0000
0000
,
0000
0000
0000
0000
,
1001
0000
0000
0000
,
1000
0000
0000
0000
,
0100
0000
0000
0000
,
0010
0010
0010
0110
,
1001
0000
0001
0000
,
1000
0000
0010
0000
,
0100
0000
0010
0000
,
1000
0000
0001
0000
,
1000
0110
0100
0000
,
0001
0000
1000
0000
,
0010
0000
0100
0000
,
0001
0000
1000
0001
,
0100
0000
0010
0000
,
1000
0000
0100
0000
,
1000
0000
0001
0000
,
0100
0000
0010
0000
,
0100
1001
0001
0000
,
1000
0000
0010
0000
,
1000
0000
0100
0000
,
0110
0000
0000
0000
0000
0010
0000
0000
,
0002
0000
0000
0003
,
2000
0000
0000
3000
,
0020
0000
0000
0030
,
0200
0000
0000
0300
,
0010
2000
0000
3000
,
0001
0020
0000
0030
,
0100
0020
0000
0030
,
0001
0200
0000
0300
,
0010
0000
0000
0000
,
0010
0000
0000
0000
,
0010
0000
0000
0000
,
1000
1000
1000
1001
,
0010
0000
0000
0000
,
0100
0000
0000
0000
,
0010
0000
0000
0000
,
1000
0000
0000
0000
,
0001
1001
1000
0000
,
0010
1000
0010
0000
,
0100
0001
0100
0000
,
0010
0100
0010
1000
,
0001
0000
1000
0100
,
1000
0000
0010
0100
,
0010
0000
0100
0001
,
0100
0000
0001
0010
,
0100
0110
0010
0000
,
0100
1000
0010
0000
,
0100
0000
0010
0000
,
0100
0010
1000
0001
,
0110
0000
0000
0000
;

//---------------dance-single - ----------------
#NOTEDATA:;
#CHARTNAME:;
#STEPSTYPE:dance-single;
#DESCRIPTION:;
#CHARTSTYLE:;
#DIFFICULTY:Beginner;
#METER:1;
#RADARVALUES:0.079253,0.144240,0.055477,0.000000,0.000000,60.000000,54.000000,6.000000,0.000000,0.000000,0.000000,0.000000,0.000000,0.000000,0.079253,0.144240,0.055477,0.000000,0.000000,60.000000,54.000000,6.000000,0.000000,0.000000,0.000000,0.000000,0.000000,0.000000;
#CREDIT:;
#NOTES:
0000
0000
0000
0000
,
0000
0000
0000
0000
,
0000
0000
0000
0000
,
0000
0000
0000
0000
,
1000
0000
0000
0000
,
0001
0000
0000
0000
,
0100
0000
0000
0000
,
0010
0000
0000
0000
,
1001
0000
0000
0000
,
1000
0000
0000
0000
,
0001
0000
0000
0000
,
0001
0000
0000
0000
,
0010
0100
0000
0000
,
0010
0000
0000
0000
,
1000
0000
0000
0000
,
1000
0000
0000
0000
,
0001
0000
0000
0000
,
0100
0000
0000
0000
,
0010
0000
0000
0000
,
1000
0000
0000
0000
,
0000
1001
0000
0000
,
0001
0000
0000
0000
,
0010
0000
0000
0000
,
0100
0000
0000
0000
,
0010
0000
0000
0000
,
0001
0000
0000
0000
,
1000
0000
0000
0000
,
0010
0000
0000
0100
,
0100
0000
0000
0000
,
0010
0000
0000
0000
,
1000
0000
0000
0000
,
0001
0000
0000
0000
,
1000
0000
0000
0000
,
0010
0000
0000
0000
,
0100
0000
0000
0000
,
0001
0000
0000
1001
,
0010
0000
0000
0000
,
0100
0000
0000
0000
,
0001
0000
0000
0000
,
1000
0000
0000
0000
,
0000
1001
0000
0000
,
0010
0000
0000
0000
,
0100
0000
0000
0000
,
0001
0000
0000
0000
,
1000
0000
0000
0000
,
0010
0000
0000
0000
,
1000
0000
0000
0000
,
0100
0000
0000
0000
,
0000
1001
0000
0000
,
0001
0000
0000
0000
,
0100
0000
0100
0000
,
0010
0000
0010
0000
,
1001
0000
0000
0000
;

//---------------dance-single - X----------------
#NOTEDATA:;
#CHARTNAME:;
#STEPSTYPE:dance-single;
#DESCRIPTION:X;
#CHARTSTYLE:;
#DIFFICULTY:Edit;
#METER:9;
#RADARVALUES:0.545523,0.625040,0.499293,0.268139,0.721201,413.000000,359.000000,54.000000,29.000000,0.000000,0.000000,0.000000,0.000000,0.000000,0.545523,0.625040,0.499293,0.268139,0.721201,413.000000,359.000000,54.000000,29.000000,0.000000,0.000000,0.000000,0.000000,0.000000;
#CREDIT:;
#OFFSET:-2.000000;
#BPMS:0.000000=124.999992
,45.000000=62.499996
,45.500000=124.999992
,58.500000=62.499996
,59.000000=124.999992
,76.000000=62.499996
,76.500000=124.999992
,153.500000=62.499996
,154.000000=124.999992
,167.000000=62.499996
,168.000000=124.999992
,184.000000=62.499996
,184.500000=124.999992
;
#STOPS:14.000000=0.480000
,27.000000=0.240000
,27.500000=0.240000
,28.000000=0.240000
,28.500000=0.240000
,135.500000=0.240005
,136.000000=0.240005
,136.500000=0.240005
,137.000000=0.240005
;
#DELAYS:;
#WARPS:;
#TIMESIGNATURES:0.000000=4=4
;
#TICKCOUNTS:0.000000=4
;
#COMBOS:0.000000=1
;
#SPEEDS:0.000000=1.000000=0.000000=0
;
#SCROLLS:0.000000=1.000000
;
#FAKES:;
#LABELS:0.000000=Song Start
;
#NOTES:
// measure 0
0000
0000
0000
0000
,  // measure 1
0000
0000
0000
0000
,  // measure 2
0000
0000
0000
0000
,  // measure 3
0000
0000
0000
1001
,  // measure 4
0001
0000
0000
0100
0000
0000
0000
0000
0000
0010
0000
0000
0100
0000
0000
0000
,  // measure 5
0010
0000
0000
1000
0000
0000
0000
0000
0000
0001
0000
0000
0010
0000
0000
0000
,  // measure 6
0100
0000
0000
0010
0000
0000
0000
0000
0000
0001
0000
0000
1000
0000
1000
0000
,  // measure 7
1000
0000
0011
0000
1100
0000
0000
0000
0011
0000
0000
0000
0101
0000
0000
0100
,  // measure 8
0000
0000
0010
0000
1010
0000
0000
0000
1100
0000
0000
0000
1010
0000
0000
0010
,  // measure 9
0000
0000
0100
0000
0101
0000
0000
0000
0011
0000
0000
0000
0101
0000
0000
0001
,  // measure 10
0000
0000
1000
0000
1100
0000
0000
0000
1001
0000
0000
0000
1000
0001
0010
0001
,  // measure 11
2000
0000
0000
0000
3000
0000
0000
0000
0001
0100
0010
1000
0100
0000
0000
0000
0000
0000
0000
0000
1000
0000
0000
0000
0000
0000
0010
0000
0000
0000
0000
0000
,  // measure 12
0100
0000
0101
0000
0000
0000
0011
0000
0000
0000
0110
0000
0000
0100
0000
0000
,  // measure 13
0010
0000
0011
0000
0000
0000
1010
0000
0000
0000
0011
0000
0000
0010
0000
0000
,  // measure 14
0100
0000
0000
0000
1100
0000
0000
0000
0000
0000
0000
0000
0101
0000
0000
0000
0000
0000
0000
0000
1000
0001
0010
0000
0100
0000
0010
0000
0001
0000
0000
0000
,  // measure 15
1000
0000
0010
1000
0000
0100
0000
0000
0010
0000
0100
0010
0000
0100
1000
0001
,  // measure 16
0000
0000
1000
0010
0000
0100
0000
0000
0010
1000
0000
0001
0000
0001
0000
0000
,  // measure 17
0000
0000
1000
0010
0000
0100
0000
0000
0010
0000
1000
0001
0000
0010
0001
1000
,  // measure 18
0000
0000
0001
0100
0000
0010
0000
0000
1000
0100
0000
0010
0000
0010
0000
0000
,  // measure 19
0001
0010
0100
1000
0001
0000
0100
0000
0000
0000
0000
0000
0010
0000
1000
0000
0000
0000
0000
0000
0000
0000
0100
0000
0010
0000
0100
0000
0000
0000
0000
0000
,  // measure 20
0010
0001
0000
0100
0000
0000
0010
1000
0000
0001
0000
0001
0000
0000
0000
0000
,  // measure 21
1000
0010
0000
0100
0000
0000
0010
1000
0000
0000
0000
0001
0100
0001
1000
0000
,  // measure 22
0002
0000
0203
0000
0320
0000
2030
3200
2300
3200
2300
0000
3200
0000
2300
0000
3010
0000
0000
0000
0200
0000
0320
0000
0032
0000
0023
0000
0130
0000
0010
0000
,  // measure 23
0000
0000
1000
0000
0001
0010
0000
0010
0100
0000
0000
0000
0010
0000
0100
0010
,  // measure 24
0000
0001
1000
0000
0100
0010
0000
1000
0100
0000
0000
1000
0010
0000
0100
0010
,  // measure 25
0000
1000
0001
0000
0010
0100
0000
0010
0001
0000
0000
0000
1000
0000
0001
0100
,  // measure 26
0000
0000
0010
0000
1000
0000
0000
0000
0100
0000
0010
0000
0000
0000
0100
0000
1000
0000
0000
0000
0002
0000
2003
3002
2003
3000
0002
0003
0100
0000
0001
0000
,  // measure 27
0000
0010
0100
0000
0010
0001
0000
0100
0020
0000
1000
0000
1030
0000
0001
1000
,  // measure 28
0000
0100
0010
0000
0100
1000
0000
0001
0200
0000
0010
0000
0310
0000
0100
0010
,  // measure 29
0000
0100
0001
0000
0010
0100
0000
0010
0002
0000
0100
0000
0103
0000
0010
1000
,  // measure 30
0000
0001
0100
0000
0001
0010
0000
0100
2000
0000
0010
0000
3010
0000
0110
0000
,  // measure 31
0000
0000
1010
0000
0000
1100
0000
0000
1010
0000
0000
0000
0110
0000
0101
0000
,  // measure 32
0000
0000
0011
0000
0000
0110
0000
0000
0011
0000
0000
0000
1001
0000
0101
0000
,  // measure 33
0000
0000
1010
0000
0000
1100
0000
0000
0011
0000
0000
0000
0101
0000
0010
0000
,  // measure 34
0010
0010
1001
0201
0000
1000
0000
0000
,  // measure 35
0310
0000
0000
0000
0100
0000
0120
0000
0000
0000
1000
0000
0000
0100
0000
0000
,  // measure 36
0130
0010
1000
1002
0000
0010
0000
0000
,  // measure 37
0103
0000
0000
0000
0010
0000
1020
0000
0000
0000
0001
0000
0000
0100
0000
0000
,  // measure 38
0130
0000
0010
0000
1000
0000
0000
0000
0001
0000
0000
0000
1000
0100
0010
0001
0100
0000
0000
0000
0000
0000
1010
0000
0000
0000
0000
0000
0011
0000
0000
0000
,  // measure 39
0000
0000
0010
0000
1001
0000
0000
0000
0101
0000
0000
0011
0000
0000
0110
0000
,  // measure 40
0100
0000
1000
0000
1001
0000
0000
0000
0101
0000
0000
0011
0000
0000
1100
0000
,  // measure 41
0000
0000
0000
0000
0100
0000
0000
0000
1100
0000
0000
0000
0000
0000
0000
0000
0110
0000
0000
0000
0000
0000
0001
0000
1000
0010
0100
0000
0001
1000
0010
0000
,  // measure 42
1000
0000
0100
1000
0000
0010
0000
0000
0100
0000
0000
0001
0000
0010
0100
0010
,  // measure 43
0000
0000
0100
0010
0000
0001
0000
0000
1000
0001
0000
0100
0000
0100
0000
0000
,  // measure 44
0000
0000
0010
1000
0000
0001
0000
0000
0010
0000
0100
0000
0000
1000
0001
1000
,  // measure 45
0000
0000
0010
1000
0000
0001
0000
0000
0010
0100
0000
0010
0000
0010
0000
0000
,  // measure 46
0001
0010
0100
1000
0010
0000
0100
0000
0000
0000
0000
0000
0010
0000
0000
0000
1000
0000
0000
0000
0000
0000
0001
0000
0010
0000
0001
0000
0000
0000
0000
0000
,  // measure 47
0010
0100
0000
0010
0000
0000
0100
1000
0000
0001
0000
0001
0000
0000
1001
0000
,  // measure 48
0001
0100
0000
0010
0000
0000
1000
0000
1000
0000
0000
0001
0100
0001
0010
0000
,  // measure 49
0100
0010
0001
0000
1000
0000
0001
0100
0001
0100
0010
1000
0010
0100
0002
0000
,  // measure 50
0000
0000
0000
0000
,  // measure 51
0000
0000
0000
0000
,  // measure 52
0003
0000
0000
0000
;

//---------------dance-double - ----------------
#NOTEDATA:;
#CHARTNAME:;
#STEPSTYPE:dance-double;
#DESCRIPTION:;
#CHARTSTYLE:;
#DIFFICULTY:Challenge;
#METER:7;
#RADARVALUES:0.368526,0.399434,0.194169,0.240400,0.342108,279.000000,258.000000,21.000000,26.000000,0.000000,0.000000,0.000000,0.000000,0.000000,0.368526,0.399434,0.194169,0.240400,0.342108,279.000000,258.000000,21.000000,26.000000,0.000000,0.000000,0.000000,0.000000,0.000000;
#CREDIT:;
#NOTES:
00000000
00000000
00000000
00000000
,
00000000
00000000
00000000
00000000
,
00000000
00000000
00000000
00000000
,
00000000
00000000
00000000
00000000
,
10010000
00000000
00000000
00000000
00010000
00000000
00000000
00100000
00000000
00000000
00000000
00000000
00000000
01000000
00000000
00000000
,
00100000
00000000
00000000
00000000
00001000
00000000
00000000
00010000
00000000
00000000
00000000
00000000
00000000
00000100
00000000
00000000
,
00001000
00000000
00000000
00000000
00000010
00000000
00000000
00000100
00000000
00000000
00000000
00000000
00000000
00000001
00000000
00000000
,
00000010
00000010
00000010
00001100
,
00000100
00000000
00000000
00000000
00010000
00000000
00000000
00000000
00001000
00000000
00000000
01000000
00000000
00000000
00100000
00000000
,
10000000
00000000
00000000
00000000
01000000
00000000
00000000
00000000
10000000
00000000
00000000
00010000
00000000
00000000
00100000
00000000
,
00001000
00000000
00000000
00000000
00001000
00000000
00000000
00000000
00010000
00000000
00000000
00000100
00000000
00000000
00001000
00000000
,
00000010
00000010
00000110
00000000
,
00000001
00000000
00000010
00000000
00001100
00000000
00000000
00000000
00000100
00000000
00000000
00010000
00000000
00000000
00001000
00000000
,
00100000
00000000
00000000
00000000
00100000
00000000
00000000
00000000
00010000
00000000
00000000
01000000
00000000
00000000
00100000
00000000
,
10000000
00000000
00000000
00000000
10000000
00000000
00000000
00000000
00010000
00000000
00000000
00100000
00000000
00000000
00001000
00000000
,
00010000
00000000
00010000
00000000
00001000
00100000
10000000
00100000
,
00000000
00000000
00100000
00010000
00000000
01000000
00000000
00000000
00010000
00000000
00000000
00100000
00000000
00100000
00000000
00000000
,
00000000
00000000
01000000
00100000
00000000
00010000
00000000
00000000
00100000
00001000
00000000
00010000
00000000
00010000
00000000
00000000
,
00000000
00000000
00001000
00010000
00000000
00000100
00000000
00000000
00001000
00000000
00000010
00000000
00000000
00000100
00000000
00000100
,
00000000
00000000
00000010
00000100
00000000
00000001
00000000
00000000
00001000
00000010
00000000
00000100
00000000
00000100
00000000
00000000
,
00000010
00000000
00010000
00000000
00011000
00000000
00000000
00000000
00001000
00010000
00000000
00000000
00000000
00000100
00000000
00000100
,
00000000
00000000
00010000
00001000
00000000
00100000
00000000
00000000
01000000
10000000
00000000
00100000
00000000
00100000
00000000
00000000
,
00000000
00000000
01000000
00100000
00000000
10000000
00000000
00000000
00010000
00000000
00100000
00000000
00000000
01000000
00000000
10000000
,
00200000
00000000
00000000
00000000
00000000
10000000
00000000
00000000
,
02300000
03020000
00230000
00301000
,
00020000
00030200
00002300
00003100
,
00002000
00003020
00000230
00000301
,
00000020
00000000
00000230
00000000
00002300
00000000
00003100
00010000
,
00012000
00000000
00203000
00000000
02300000
00000000
03100000
00010000
,
02000000
00000000
03200000
00000000
20300000
00000000
30010000
00100000
,
00002000
00000000
00023000
00000000
00030200
00000000
00001300
00000010
,
00000200
00000000
00000302
00000000
00000023
00000000
00000130
00000010
,
00000001
00000000
00000000
00000000
00001000
00000000
00000000
00000010
00000000
00000000
00001000
00000000
00000000
00000000
00000100
00000000
,
00010000
00000000
00000000
00000000
00001000
00000000
00000000
00100000
00000000
00000000
01000000
00000000
00000000
00000000
10000000
00000000
,
00100000
00000000
00000000
00000000
01000000
00000000
00000000
00010000
00000000
00000000
00100000
00000000
00000000
00000000
00001000
00000000
,
00010000
00010000
00010000
00011000
,
00010100
00000000
00001010
00000000
00000000
00000101
00000000
00000001
,
00001001
00000000
00000000
00000000
00001000
00000000
00000000
00000010
00000000
00000000
00000100
00000000
00000010
00000000
00010000
00000000
,
00011000
00000000
00101000
00000000
00000000
00110000
00000000
10000000
,
11000000
00000000
00000000
00000000
10000000
00000000
00000000
00010000
00000000
00000000
00100000
00000000
00001000
00000000
00010000
00000000
,
00000100
00000000
00001000
00000000
00001010
00000000
00000000
00001000
00000000
00000000
00000001
00000000
00000000
00000000
00000010
00000000
,
00000100
00000000
00000000
00000000
00000010
00000000
00000000
00000001
00000000
00000000
00000100
00000000
00000010
00000000
00001000
00000000
,
00000100
00000000
00000000
00000000
00010000
00000000
00000000
00000000
00001000
00000000
00000000
01000000
00000000
00000000
00100000
00000000
,
10000000
00000000
00000000
00000000
00010000
00000000
00000000
00100000
00000000
00000000
01000000
00000000
00100000
00000000
00010000
00000000
,
01000000
00000000
00010000
00100000
00000000
00001000
00000000
00000000
00010000
00000000
00000100
00000000
00000000
00001000
00000000
00001000
,
00000000
00000000
00000010
00000100
00000000
00000001
00000000
00000000
00001000
00000100
00000000
00000010
00000000
00000010
00000000
00000000
,
00000000
00000000
00000001
00000100
00000000
00000010
00000000
00000000
00001000
00000000
00000100
00000000
00000000
00010000
00000000
00010000
,
00000000
00000000
00001000
00100000
00000000
00010000
00000000
00000000
01000000
00100000
00000000
10000000
00000000
10000000
00000000
00000000
,
00010000
01000000
01010000
00000000
01000000
00000000
00100000
10000000
,
00000000
00000000
01000000
00100000
00000000
00010000
00000000
00000000
00100000
00001000
00000000
00010000
00000000
00010000
00000000
00000000
,
00011000
00010000
00010100
00000100
,
00001100
00000000
00000011
00000000
00000001
00000100
00000010
00001000
,
00000200
00000000
00000000
00000000
,
00000000
00000000
00000000
00000000
,
00000300
00000000
00000000
00000000
;
