#VERSION:0.83;
#TITLE:MAXRAGE;
#SUBTITLE:;
#ARTIST:EBIMAYO;
#TITLETRANSLIT:;
#SUBTITLETRANSLIT:;
#ARTISTTRANSLIT:;
#GENRE:;
#ORIGIN:;
#CREDIT:;
#BANNER:banner.png;
#BACKGROUND:background.png;
#PREVIEWVID:;
#JACKET:jacket.png;
#CDIMAGE:;
#DISCIMAGE:;
#LYRICSPATH:;
#CDTITLE:;
#MUSIC:MAXRAGE.ogg;
#OFFSET:-0.100000;
#SAMPLESTART:103.883781;
#SAMPLELENGTH:14.054054;
#SELECTABLE:YES;
#BPMS:0.000=222.000;
#STOPS:;
#DELAYS:;
#WARPS:;
#TIMESIGNATURES:0.000=4=4;
#TICKCOUNTS:0.000=4;
#COMBOS:0.000=1;
#SPEEDS:0.000=1.000=0.000=0;
#SCROLLS:0.000=1.000;
#FAKES:;
#LABELS:0.000=Song Start;
#BGCHANGES:;
#KEYSOUNDS:;
#ATTACKS:
;

//---------------dance-single - ----------------
#NOTEDATA:;
#CHARTNAME:;
#STEPSTYPE:dance-single;
#DESCRIPTION:;
#CHARTSTYLE:;
#DIFFICULTY:Hard;
#METER:11;
#RADARVALUES:0.719763,1.146815,0.229363,0.099391,0.282881,659.000000,629.000000,30.000000,13.000000,29.000000,0.000000,2.000000,0.000000,0.000000,0.719763,1.146815,0.229363,0.099391,0.282881,659.000000,629.000000,30.000000,13.000000,29.000000,0.000000,2.000000,0.000000,0.000000;
#CREDIT:;
#NOTES:
0000
0000
0000
0000
,
0000
0000
0000
0000
,
0000
0000
0000
0000
,
0000
0000
0000
0000
,
0000
0000
0000
0000
,
0000
0000
0000
0000
,
0000
0000
0000
0000
,
0000
0000
0000
0000
,
1010
0000
0000
0101
0000
0000
0011
0000
,
0000
0110
0000
0010
0001
0000
1000
0000
,
1010
0000
0000
1100
0000
0000
1001
0000
,
0000
0101
0000
0010
0100
0000
0010
0100
,
1001
0000
0000
0011
0000
0000
1001
0000
,
0000
1010
0000
0000
1001
0000
1000
0001
,
0020
0000
0000
0000
,
0230
0000
0000
0000
0310
0001
1000
0000
,
0001
0100
0010
1000
0001
0010
0100
0010
,
0001
1000
0010
0100
0010
1000
0100
0010
,
0100
1000
0001
0010
0001
1000
0010
0100
,
0001
1000
0001
0010
0100
0010
0001
1000
,
0010
0100
0010
0100
0010
0100
0010
0100
,
0001
1000
0001
1000
0001
1000
0001
1000
,
0001
0010
0100
0010
0100
0010
0100
0010
0001
1000
0001
1000
0001
1000
0001
1000
,
00M1
0M00
00M0
M00M
,
1000
0000
0000
0000
0001
0000
0000
0000
0010
0000
0100
1000
0100
0000
1000
0000
,
0001
0100
0001
0000
0100
0000
0010
0100
0010
0000
0100
0000
0010
1000
0010
1000
,
0010
0000
0000
0000
1000
0000
0000
0000
0100
0000
0010
0001
0010
0000
0001
0000
,
1000
0010
1000
0000
0010
0000
0100
0000
0000
0000
0010
0000
0100
0000
0001
0000
,
0010
0000
0000
0000
0100
0000
0000
0000
0010
0000
0001
0010
0001
0000
1000
0000
,
0010
0100
0010
0000
1000
0000
0001
0100
0001
0000
1000
0000
0001
1000
0001
1000
,
0001
0000
1000
0000
0100
1000
0010
0200
,
0000
0000
0000
0300
,
0010
0000
0000
0000
1001
0000
0000
0000
0001
0000
1000
0100
1000
0000
0100
0000
,
0010
0100
0010
0000
0100
0000
1000
0001
1000
0000
0001
0000
0100
0001
0100
0001
,
0100
0000
0000
0000
0010
0000
0000
0000
0100
0000
0001
0100
0001
0000
0100
0000
,
0010
0100
0010
0000
0100
0000
0001
0000
0000
0000
1001
0000
0000
0000
0000
0000
,
1000
0010
1000
0010
0100
0010
0100
0010
,
0100
0001
0100
0001
0010
0001
0010
0001
,
1000
0001
1000
0001
1000
0001
1000
0001
1000
0001
1000
0001
1000
0001
1000
0001
,
0000
1000
0100
0001
0100
1000
0100
1000
,
0010
0000
1000
0000
0010
1000
0001
0000
,
0010
0000
0100
0000
0010
0001
0100
0000
,
0001
0000
1000
0000
0001
1000
0100
0000
,
1000
0000
0010
0000
0100
0001
0010
0000
,
0100
0000
0010
0000
0001
0010
0100
0000
,
0010
0000
0001
0000
1000
0010
0100
0000
,
0010
0000
0100
0000
0010
1000
0001
1000
,
0010
0010
0010
0010
,
0100
0000
0110
0000
0010
1000
0001
0000
,
0010
0000
1100
0000
1000
0001
0100
0000
,
0001
0000
0011
0000
0010
0100
1000
0000
,
0100
0000
0011
0000
0001
0100
0010
1000
,
0001
0000
1001
0000
0001
1000
0010
0000
,
0100
0000
1010
0000
1000
0001
0010
0000
,
0100
0000
0010
0001
0100
0001
1000
0100
,
0000
1000
0100
0010
M100
00M0
000M
0000
,
1001
0000
0001
0100
0010
0000
0000
0000
,
0100
0010
0100
0010
0100
0000
0001
0000
0000
0000
1000
0000
0000
0000
0000
0000
,
0001
0000
1000
0010
0100
0000
0010
0000
,
2000
0000
3100
2000
0100
3000
0010
0000
,
0100
0000
0001
0100
0010
0000
0000
0000
,
1000
0001
1000
0001
1000
0000
0001
0000
0000
0000
0010
0000
0000
0000
0000
0000
,
0100
0010
0001
0100
0010
1000
0001
0010
,
0200
0000
0000
0000
,
1300
0000
0100
0010
0100
0000
0000
0000
,
0010
0001
0010
0001
0010
0000
0001
0000
0000
0000
1000
0000
0000
0000
0000
0000
,
0010
0000
1000
0001
0010
0000
0100
0000
,
0020
0031
0200
0310
2000
0000
3002
0000
,
0013
0000
0100
1000
0010
0000
0000
0000
,
0100
0010
0100
0010
0100
0000
0010
0000
0000
0000
0100
0000
0010
0000
0100
0000
,
0001
1000
0100
1000
0001
0010
0100
0010
,
0001
0010
0100
1000
0010
0100
0001
0010
0100
1000
0001
0100
,
0010
0000
0000
0000
,
0100
0000
0000
0000
,
0001
0000
0000
0000
,
1000
0000
0001
0000
,
0100
0000
0000
0000
,
0010
0000
0000
0000
,
1000
0000
0000
0000
,
0010
0000
0100
0000
,
0001
1000
0010
1000
,
0001
0010
0100
0010
,
0001
1000
0100
0010
,
0100
1000
0010
0100
,
0001
0010
0100
0010
,
0001
1000
0010
0100
,
0010
1000
0001
0010
,
0100
0000
0010
0000
,
MMMM
0000
0000
0000
,
MMMM
0000
0000
0000
,
MMMM
0000
0000
0000
,
MMMM
0000
0000
0000
,
0101
0000
1010
0000
2002
0000
0000
3003
,
0001
1000
0001
1000
0001
1000
0001
1000
,
0004
4000
0000
0000
0000
0000
0000
0000
0000
0000
0000
0000
0000
0000
0000
0000
,
30M3
0M00
00M0
M00M
,
1001
0000
1000
0010
0000
0100
0001
0010
,
0000
1000
0000
0010
0000
0100
0010
0001
,
0100
0001
0010
0100
0000
0010
0001
0010
,
0000
0100
0000
0010
0100
0000
0100
0010
,
0001
0000
1000
0010
0000
0100
0010
1000
,
0000
0001
0000
0010
0000
0001
1000
0100
,
0010
0100
1000
0010
0000
0100
0010
1000
,
0001
0000
0010
0000
0100
0000
0010
0001
,
1000
0000
0001
0100
0000
0010
1000
0100
,
0000
1000
0000
0001
0000
0010
0100
0010
,
0001
1000
0010
0100
0000
0001
0010
0100
,
0000
0010
0000
0001
1000
0000
0001
0100
,
0001
1000
0100
0010
0000
0100
1000
0010
,
0000
0100
0000
0010
0000
0100
0010
1000
,
0001
0000
0101
0000
0000
0011
0000
0000
,
1100
0000
0001
0001
1000
1000
0020
0000
,
0130
0010
0100
0000
0010
0100
0010
0000
0100
0010
0100
0000
0010
0000
0100
0010
,
0100
0000
0010
0100
0010
0000
0100
0010
0100
0000
0010
0000
0100
0010
0100
0000
,
0010
0000
1000
0001
1000
0000
0001
1000
0001
0000
1000
0001
1000
0000
0001
0000
,
1000
0001
1000
0000
0001
1000
0001
0000
1000
0001
1000
0001
1000
0000
0001
0000
,
0100
0100
0010
0010
1000
1000
0001
0001
,
0010
0010
0100
0100
0010
0010
0001
0001
,
1000
0100
1000
0100
1000
0100
1000
0100
0010
0001
0010
0001
0010
0001
0010
0001
,
0000
0010
0001
0100
1000
0100
0010
1000
,
1001
0000
0000
0000
;

//---------------dance-single - ----------------
#NOTEDATA:;
#CHARTNAME:;
#STEPSTYPE:dance-single;
#DESCRIPTION:;
#CHARTSTYLE:;
#DIFFICULTY:Medium;
#METER:9;
#RADARVALUES:0.600713,0.779834,0.412854,0.107036,0.000000,550.000000,496.000000,54.000000,14.000000,0.000000,0.000000,2.000000,0.000000,0.000000,0.600713,0.779834,0.412854,0.107036,0.000000,550.000000,496.000000,54.000000,14.000000,0.000000,0.000000,2.000000,0.000000,0.000000;
#CREDIT:;
#NOTES:
0000
0000
0000
0000
,
0000
0000
0000
0000
,
0000
0000
0000
0000
,
0000
0000
0000
0000
,
0000
0000
0000
0000
,
0000
0000
0000
0000
,
0000
0000
0000
0000
,
0000
0000
0000
0000
,
1000
0000
0000
0001
0000
0000
0010
0100
,
0000
0010
0000
0001
1000
0000
0001
0000
,
0100
0000
0000
0010
0000
0000
1000
0001
,
0000
0010
0000
0001
0100
0000
0010
0000
,
1000
0000
0000
0100
0000
0000
0010
0100
,
0000
0010
0000
0001
1000
0000
0010
0000
,
0200
0000
0000
0000
,
0320
0000
0000
0000
1030
0001
0010
0000
,
0100
1000
0110
0110
,
0100
0010
1000
1001
,
0001
0010
0110
0110
,
0010
0001
1000
0101
,
1000
0001
0100
0000
0010
1000
0100
0000
,
0010
0100
1000
0000
0100
0010
0001
0000
,
1000
0001
0100
0010
1000
0001
0010
0100
,
1000
0100
0001
1100
,
1001
0000
1001
0000
0001
0000
1000
0010
,
0000
0100
0010
0000
0100
0001
0000
0001
,
0011
0000
0011
0000
0010
0000
0001
1000
,
0000
0100
1000
0010
0000
0100
0010
1000
,
1001
0000
1001
0000
0001
0000
1000
0100
,
0000
1000
0010
0000
0100
0001
0000
0010
,
0110
0000
0110
0000
0100
0010
0001
2000
,
0000
0000
0000
3000
,
0101
0000
0011
0000
0010
0000
0100
0010
,
0000
0100
1000
0000
0001
0100
0000
0010
,
1010
0000
0011
0000
0010
0000
0001
0010
,
0100
0010
0001
1000
0000
1000
0000
0000
,
0001
0100
0001
0000
0100
0010
0100
0000
,
0010
1000
0010
0000
1000
0100
1000
0000
,
0100
1000
0010
0100
0001
0010
0100
0010
,
0000
0100
0010
0000
0001
0000
0100
0000
,
1000
1001
0001
0011
,
0001
0101
0100
0110
,
0010
1010
1000
1100
,
0100
0110
0010
0011
,
0001
1001
0001
0101
,
0100
0110
0010
1010
,
1000
1001
0001
0011
,
0002
2003
3002
2003
,
3010
0000
1010
0000
1000
0010
0100
0000
,
0001
0000
0011
0000
0010
0100
1000
0000
,
0100
0000
0110
0000
0100
1000
0010
0000
,
0100
0000
0101
0000
0001
1000
0010
0000
,
0100
0000
1001
0000
0001
1000
0100
0000
,
0010
0000
1100
0000
1000
0001
0010
0000
,
0100
0000
0011
0000
0001
1000
0100
0000
,
1000
0000
0100
0000
0010
0100
1000
0000
,
0001
0000
1000
0010
1000
0000
0000
0000
,
0010
0100
0010
0001
0000
0010
0000
0000
,
1000
0100
0010
0100
,
2000
3020
0130
0010
,
1001
0000
0001
0010
0001
0000
0000
0000
,
0100
1000
0100
0010
0000
1000
0000
0001
,
0010
0000
0001
0000
1000
0001
0100
0000
,
0220
0000
0000
0330
,
1001
0000
0001
1000
0010
0000
0000
0000
,
1000
0100
1000
0001
0000
0100
0000
0001
,
0010
0000
0001
0100
0010
0000
1000
0000
,
0002
0000
2003
0000
3200
0000
0310
0100
,
1000
0000
0100
1000
0010
0000
0000
0000
,
0100
0010
1000
0001
0000
0010
0000
0100
,
0010
0001
0100
0010
,
1000
0100
0010
0001
1000
0100
0010
0001
,
1000
0000
0000
0000
,
0001
0000
0000
0000
,
0100
0000
0000
0000
,
0010
0000
1000
0000
,
0100
0000
0000
0000
,
1000
0000
0000
0000
,
0001
0000
0000
0000
,
0100
0000
0010
0000
,
1000
0010
1000
0010
,
0100
0001
0100
0001
,
0010
0001
0010
0001
,
0010
0100
0010
0100
,
1000
1000
0001
0100
,
0010
0010
0100
0001
,
1000
0001
0100
0010
,
0100
0000
0010
0000
,
1001
0000
0000
0000
,
1001
0000
0000
0000
,
1001
0000
0000
0000
,
1001
0000
0000
0000
,
0101
1010
1001
0000
,
0440
0000
0000
0000
,
0000
0000
0000
0330
,
0010
0100
0010
1001
,
0101
0000
0001
0010
0000
0010
0100
1000
,
0000
0100
0000
1000
0000
0010
0100
0000
,
0010
0000
1000
0010
0000
0010
0100
0001
,
0000
1000
0000
0001
0010
0000
0100
0010
,
0001
0000
0010
0100
0000
0100
1000
0010
,
0000
0100
0000
0001
0000
1000
0001
1000
,
0010
1000
0001
0100
0000
0001
0100
0010
,
0100
0010
1000
0001
,
0001
0100
0001
0000
0100
0010
0100
0000
,
0010
1000
0010
0000
1000
0100
1000
0000
,
0100
0010
0100
0000
0010
0001
0010
0000
,
0001
0100
0001
0000
0100
0010
0100
0000
,
0010
1000
0001
0000
0010
0100
1000
0000
,
0100
1000
0010
0000
0100
0010
1000
0000
,
0001
1000
0010
0000
0000
1000
0000
0000
,
0010
0000
0100
0100
0010
0010
1000
0000
,
0001
1000
0001
1000
0001
1000
0001
1000
,
0001
1000
0001
1000
0001
1000
0001
0000
,
0100
0010
0100
0010
0100
0010
0100
0010
,
0100
0010
0100
0010
0100
0010
0100
0000
,
1000
0010
1000
0000
0010
0100
0010
0000
,
0100
0001
0010
0000
0100
1000
0010
0000
,
0100
0010
1000
0001
0010
0100
0010
0001
,
0000
1000
0100
0001
0100
0010
0001
1000
,
1001
0000
0000
0000
;

//---------------dance-single - ----------------
#NOTEDATA:;
#CHARTNAME:;
#STEPSTYPE:dance-single;
#DESCRIPTION:;
#CHARTSTYLE:;
#DIFFICULTY:Easy;
#METER:6;
#RADARVALUES:0.421591,0.825707,0.313463,0.084100,0.000000,386.000000,345.000000,41.000000,11.000000,0.000000,0.000000,0.000000,0.000000,0.000000,0.421591,0.825707,0.313463,0.084100,0.000000,386.000000,345.000000,41.000000,11.000000,0.000000,0.000000,0.000000,0.000000,0.000000;
#CREDIT:;
#NOTES:
0000
0000
0000
0000
,
0000
0000
0000
0000
,
0000
0000
0000
0000
,
0000
0000
0000
0000
,
0000
0000
0000
0000
,
0000
0000
0000
0000
,
0000
0000
0000
0000
,
0000
0000
0000
0000
,
1000
0000
0000
1000
0000
0000
1000
0000
,
0000
1000
0000
0000
1000
0000
0001
0000
,
1000
0000
0000
1000
0000
0000
1000
0000
,
0000
1000
0000
0000
0001
0000
0100
0000
,
0010
0000
0000
0010
0000
0000
0010
0000
,
0000
0010
0000
0000
0010
0000
1000
0000
,
0002
0000
0003
0000
,
2000
0000
3000
0000
,
0001
1000
0001
1000
,
0001
1000
0001
1000
,
0010
0100
0010
0100
,
0010
0100
0010
0100
,
0001
0100
0010
1000
,
0100
0010
0001
0010
,
0200
0000
0000
0000
,
0300
0000
0000
0000
,
1001
1001
0001
1000
,
0010
1000
0100
1000
,
1100
1100
0100
1000
,
0010
0100
0001
0010
,
0110
0110
0010
0001
,
0100
1000
0100
0010
,
1000
0001
0010
0200
,
0000
0000
0000
0000
0000
0000
1300
0001
,
1000
0001
0100
0001
,
0010
0001
0100
0010
,
1000
0100
0010
0100
,
1000
0010
0100
0000
,
0010
0010
1000
1000
,
0001
0001
0100
0100
,
0010
0100
0010
1000
,
0000
0000
0000
0000
,
1000
0000
0001
0000
,
0100
0000
0001
0000
,
0010
0000
0100
0000
,
0010
0000
0001
1000
,
0001
0000
1000
0000
,
0100
0000
1000
0000
,
0010
0000
0100
0000
,
0010
0010
0010
0010
,
1000
0001
1000
0001
,
0100
0001
0100
0001
,
0010
0001
0010
0001
,
0010
0100
0010
0100
,
1000
0100
1000
0100
,
1000
0001
1000
0001
,
0100
0010
0100
0010
,
0100
0000
0010
0000
1000
0001
1000
0000
,
1001
1001
1001
0000
,
0001
1000
0010
0000
,
0100
0000
0010
0000
,
1000
0000
0010
0000
,
0101
0101
0101
0000
,
1001
0001
1000
0000
,
0100
1000
0010
0100
,
0002
0000
0000
0003
,
1100
1100
1100
0000
,
0110
0010
0010
0000
,
0100
0010
0001
1000
,
0001
0001
1000
0001
,
0101
0101
0101
0000
,
0101
0001
1000
0010
,
0100
0100
0010
0010
,
1000
0100
0010
0001
,
1000
0000
0000
0000
,
0010
0000
0000
0000
,
0100
0000
0000
0000
,
0001
0000
0000
0000
,
1000
0000
0000
0000
,
0100
0000
0000
0000
,
1000
0000
0000
0000
,
0010
0000
0100
0000
,
0001
0100
0001
0100
,
0010
0100
0010
0100
,
0010
1000
0010
1000
,
0001
1000
0001
1000
,
0001
0001
1000
0001
,
0100
0100
0010
1000
,
0010
0010
1000
0001
,
0100
0000
0100
0000
,
0020
0000
0030
0000
,
0020
0000
0030
0000
,
0020
0000
0030
0000
,
0020
0000
0030
0000
,
0110
1001
0220
0000
,
0000
0000
0000
0000
,
0000
0000
0000
0000
,
0330
0000
0000
0000
,
1000
0001
0010
0001
,
0100
0010
1000
0010
,
0100
0001
1000
0100
,
0001
0100
0001
0100
,
0010
0001
0010
0001
,
0100
0010
1000
0010
,
0001
0010
1000
0010
,
0100
0100
0100
0010
,
1000
0010
0100
0001
,
0010
0100
0010
0001
,
1000
0001
0100
0001
,
1000
0100
0010
0100
,
1000
0010
0100
0001
,
1000
0001
0100
0010
,
1000
0000
0010
0000
0000
1000
0000
0000
,
0001
1000
0001
0100
,
0101
0101
0101
0101
,
0101
0101
0101
0101
,
1010
1010
1010
1010
,
1010
1010
1010
1010
,
1000
1000
0001
0001
,
0100
0100
0010
0010
,
0100
0010
1000
0001
,
0000
1000
0100
0010
,
1001
0000
0000
0000
;

//---------------dance-single - ----------------
#NOTEDATA:;
#CHARTNAME:;
#STEPSTYPE:dance-single;
#DESCRIPTION:;
#CHARTSTYLE:;
#DIFFICULTY:Beginner;
#METER:3;
#RADARVALUES:0.155093,0.321108,0.099391,0.000000,0.000000,142.000000,129.000000,13.000000,0.000000,0.000000,0.000000,0.000000,0.000000,0.000000,0.155093,0.321108,0.099391,0.000000,0.000000,142.000000,129.000000,13.000000,0.000000,0.000000,0.000000,0.000000,0.000000,0.000000;
#CREDIT:;
#NOTES:
// measure 0
0000
0000
0000
0000
,  // measure 1
0000
0000
0000
0000
,  // measure 2
0000
0000
0000
0000
,  // measure 3
0000
0000
0000
0000
,  // measure 4
0000
0000
0000
0000
,  // measure 5
0000
0000
0000
0000
,  // measure 6
0000
0000
0000
0000
,  // measure 7
0000
0000
0000
0000
,  // measure 8
1000
0000
0000
0000
,  // measure 9
0000
0000
0000
0000
,  // measure 10
0001
0000
0000
0000
,  // measure 11
0000
0000
0000
0000
,  // measure 12
1000
0000
0000
0000
,  // measure 13
0000
0000
0000
0000
,  // measure 14
1001
0000
0000
0000
,  // measure 15
0110
0000
0000
0000
,  // measure 16
0010
0000
0000
0000
,  // measure 17
1000
0000
0000
0000
,  // measure 18
0100
0000
0000
0000
,  // measure 19
1000
0000
0000
0000
,  // measure 20
0001
0000
0000
0000
,  // measure 21
1000
0000
0000
0000
,  // measure 22
0010
0000
0000
0000
,  // measure 23
0100
0100
0100
0000
,  // measure 24
0010
0000
0000
0000
,  // measure 25
1000
0000
0000
0000
,  // measure 26
0001
0000
0000
0000
,  // measure 27
0010
0000
0000
0000
,  // measure 28
0001
0000
0000
0000
,  // measure 29
1000
0000
0000
0000
,  // measure 30
0010
0000
0000
0000
,  // measure 31
0000
0000
0000
0100
,  // measure 32
0010
0000
0000
0000
,  // measure 33
1000
0000
0000
0000
,  // measure 34
0001
0000
0000
0000
,  // measure 35
0010
0000
0000
0000
,  // measure 36
0001
0000
0000
0000
,  // measure 37
1000
0000
0000
0000
,  // measure 38
0010
0000
0000
0000
,  // measure 39
0100
0000
0000
0000
,  // measure 40
1001
0000
0000
0000
,  // measure 41
0001
0000
0000
0000
,  // measure 42
1000
0000
0000
0000
,  // measure 43
0010
0000
1000
0000
,  // measure 44
0100
0000
0000
0000
,  // measure 45
0010
0000
0000
0000
,  // measure 46
0001
0000
0000
0000
,  // measure 47
1000
1000
1000
0000
,  // measure 48
0001
0000
0000
0000
,  // measure 49
0100
0000
0000
0000
,  // measure 50
0010
0000
0000
0000
,  // measure 51
1000
0000
0000
0000
,  // measure 52
0100
0000
0000
0000
,  // measure 53
1000
0000
0000
0000
,  // measure 54
0001
0000
1000
0000
,  // measure 55
0001
0000
0000
0000
,  // measure 56
0110
0000
0010
0000
,  // measure 57
0100
0100
0100
0000
,  // measure 58
0001
0000
0000
0000
,  // measure 59
0000
0000
0000
0000
,  // measure 60
1001
0000
0010
0000
,  // measure 61
1000
1000
1000
0000
,  // measure 62
0001
0000
0000
0000
,  // measure 63
0010
0000
0000
0000
,  // measure 64
0110
0000
0001
0000
,  // measure 65
1000
1000
1000
0000
,  // measure 66
0001
0000
0000
0000
,  // measure 67
0100
0000
0000
0000
,  // measure 68
1001
0000
0010
0000
,  // measure 69
0100
0100
0100
0000
,  // measure 70
0010
0000
0000
0000
,  // measure 71
1000
0000
0000
0000
,  // measure 72
1001
0000
0000
0000
,  // measure 73
0000
0000
0000
0000
,  // measure 74
0000
0000
0000
0000
,  // measure 75
0000
0000
0000
0000
,  // measure 76
1000
0000
0000
0000
,  // measure 77
0000
0000
0000
0000
,  // measure 78
0000
0000
0000
0000
,  // measure 79
0000
0000
0000
0000
,  // measure 80
0001
0000
0000
0000
,  // measure 81
0010
0000
0000
0000
,  // measure 82
0100
0000
0000
0000
,  // measure 83
0010
0000
0000
0000
,  // measure 84
0001
0000
0000
0000
,  // measure 85
0100
0000
0000
0000
,  // measure 86
0010
0000
0000
0000
,  // measure 87
1000
0000
1000
0000
,  // measure 88
1001
0000
0000
0000
,  // measure 89
0000
0000
0000
0000
,  // measure 90
0000
0000
0000
0000
,  // measure 91
0000
0000
0000
0000
,  // measure 92
0010
0010
0010
0000
,  // measure 93
0000
0000
0000
0000
,  // measure 94
0000
0000
0000
0000
,  // measure 95
0100
0100
0100
0000
,  // measure 96
1001
0000
0000
0000
,  // measure 97
1000
0000
0000
0000
,  // measure 98
0001
0000
0000
0000
,  // measure 99
0010
0000
0001
0000
,  // measure 100
1000
0000
0000
0000
,  // measure 101
0100
0000
0000
0000
,  // measure 102
1000
0000
0000
0000
,  // measure 103
0010
0010
0010
0000
,  // measure 104
0100
0000
0000
0000
,  // measure 105
0001
0000
0000
0000
,  // measure 106
1000
0000
0000
0000
,  // measure 107
0100
0000
0000
0000
,  // measure 108
1000
0000
0000
0000
,  // measure 109
0010
0000
0000
0000
,  // measure 110
0100
0000
0000
0000
,  // measure 111
0010
0000
0000
0000
,  // measure 112
1001
0000
1000
0000
,  // measure 113
1000
0000
1000
0000
,  // measure 114
1001
0000
0001
0000
,  // measure 115
0001
0000
0001
0000
,  // measure 116
0100
0000
0000
0000
,  // measure 117
0010
0000
0000
0000
,  // measure 118
1000
0000
0000
0000
,  // measure 119
0001
0000
1000
0000
,  // measure 120
0110
0000
0000
0000
;

//---------------dance-single - X----------------
#NOTEDATA:;
#CHARTNAME:;
#STEPSTYPE:dance-single;
#DESCRIPTION:X;
#CHARTSTYLE:;
#DIFFICULTY:Edit;
#METER:13;
#RADARVALUES:0.903254,1.333173,0.481662,0.107036,0.519890,827.000000,764.000000,63.000000,14.000000,59.000000,0.000000,0.000000,0.000000,9.000000,0.903254,1.333173,0.481662,0.107036,0.519890,827.000000,764.000000,63.000000,14.000000,59.000000,0.000000,0.000000,0.000000,9.000000;
#CREDIT:;
#OFFSET:-0.100000;
#BPMS:0.000000=222.000000
,169.000000=111.000000
,171.000000=222.000000
,256.500000=55.500000
,257.500000=222.000000
,348.000000=111.000000
,356.000000=222.000000
;
#STOPS:92.000000=0.810810
,235.000000=0.135132
,236.500000=0.405403
,238.500000=0.135136
,239.000000=0.270271
,247.500000=0.135139
,249.000000=0.405411
,251.000000=0.135132
,251.500000=0.135139
,257.500000=0.135132
,259.000000=0.405411
,261.000000=0.135132
,261.500000=0.135139
,270.500000=0.135132
,272.000000=0.405411
,274.000000=0.135132
,368.000000=0.810814
;
#DELAYS:;
#WARPS:124.000000=8.000000
,133.000000=8.000000
;
#TIMESIGNATURES:0.000000=4=4
;
#TICKCOUNTS:0.000000=4
;
#COMBOS:0.000000=1
;
#SPEEDS:0.000000=1.000000=0.000000=0
;
#SCROLLS:0.000000=1.000000
;
#FAKES:;
#LABELS:0.000000=Song Start
;
#NOTES:
0000
0000
0000
0000
,
0000
0000
0000
0000
,
0000
0000
0000
0000
,
0000
0000
0000
0000
,
0000
0000
0000
0000
,
0000
0000
0000
0000
,
2000
0000
0000
0000
,
0002
0000
0000
3003
,
0110
0000
0000
0000
1000
0000
1001
0000
0000
0000
0010
0001
0010
0000
0001
0000
,
0000
1000
0000
0010
1010
0000
0010
0100
,
1001
0000
0000
0000
1000
0000
1010
0000
0000
0000
0001
0100
0001
0000
0011
0000
,
0000
1100
0000
1000
1001
0000
0010
0100
,
1001
0000
0000
0000
0001
0000
0011
0000
0000
0000
1000
0100
1000
0000
0001
0000
,
0000
1000
0000
0010
1010
0000
0010
0100
,
0002
0000
0000
0000
,
0023
0000
0000
0000
0100
0100
0130
0000
,
0010
0001
0010
0000
0001
0010
0001
0000
0010
0001
0010
0000
0001
0000
1000
0010
,
1000
0000
0010
1000
0010
0000
1000
0010
1000
0000
0001
1000
0001
0000
0010
0000
,
0100
1000
0100
0000
1000
0100
1000
0000
0100
1000
0100
0000
1000
0000
0001
0100
,
0001
0000
0100
0001
0100
0000
0001
0100
0001
0000
1000
0001
1000
0000
0100
0000
,
0010
0010
0001
0001
0100
0100
0010
0010
,
1000
1000
0001
0001
0010
0010
0100
0100
,
0010
0001
0010
0001
1000
0100
1000
0100
1000
0010
1000
0010
0100
0001
0100
0001
,
0010
0000
0000
0000
1001
0000
0000
0000
1001
0000
0000
0000
0101
0000
0001
0100
,
0010
0000
0100
0000
0010
1000
0100
0000
0010
0000
0100
1000
0001
0000
1000
0000
,
0001
0100
0010
0100
0001
0000
0000
0000
1001
0000
0000
0000
1010
0000
1000
0010
,
0100
0000
0010
0000
1000
0001
0010
0000
0100
0000
0010
0000
0000
0000
0010
0000
,
0100
0000
0100
0000
0110
0000
0000
0000
0011
0000
0000
0000
0101
0000
0001
0100
,
0010
0000
0100
0000
0010
1000
0100
0000
0010
0000
0100
1000
0001
0000
1000
0000
,
0001
1000
0010
0000
0110
0000
0000
0000
0110
0000
0000
0000
0010
0000
1000
0100
,
0010
0100
2000
0000
0000
0000
0000
0000
0000
0000
0000
0000
0000
0000
0000
0000
,
3000
0000
0000
0000
,
0000
0000
0000
0000
,
0000
0000
0000
0000
M00M
0000
0000
0000
M0M0
0000
0000
0000
M00M
0000
000M
00M0
,
0M00
0000
0000
0000
,
0000
0000
0000
0000
1001
0000
0000
0000
1010
0000
0000
0000
0101
0000
0001
0010
,
0100
0000
0010
0000
0001
0100
0010
0000
1000
0000
0010
0100
0001
0000
1000
0000
,
0100
0010
1000
0010
0001
0000
0000
0000
1100
0000
0000
0000
1000
0000
0010
0100
,
0001
0000
0010
0000
0100
0010
0001
0000
1000
0000
1000
0000
0000
0000
1001
0000
,
0000
0000
0001
0001
0010
0010
1000
1000
,
0010
0010
0001
0001
0100
0100
1000
1000
,
0100
0000
0100
0000
0010
1000
0010
0100
0001
0010
0100
0010
0001
0100
0010
1000
,
0001
1000
0100
0010
0000
0100
1000
0100
0001
0100
0010
0001
1001
0000
0000
0000
,
0001
0100
0001
0100
0001
0000
1000
0000
0000
0000
0100
0000
0010
0000
0001
0000
,
0000
1000
0000
0010
1000
0100
0000
0010
,
0100
1000
0000
0100
0000
1000
0000
0010
,
0100
0001
0010
0000
0100
0000
0010
0000
,
0001
0100
0001
0100
0001
0000
1000
0000
0000
0000
0001
0000
0010
0000
1000
0000
,
0000
0010
0000
0100
0010
0001
0100
0000
,
1000
0100
0010
0000
1000
0000
1001
0000
,
1001
0000
1001
0000
1001
0000
0110
0010
,
1000
0000
0001
1000
0100
0000
0010
0000
0100
0000
0000
0000
0010
0000
0001
0000
,
0100
0000
0010
1000
0100
0000
1000
0000
0001
0000
0000
0000
0010
0000
0001
0000
,
0100
0000
0001
1000
0100
0000
0010
0000
0100
0000
0000
0000
0010
0000
0100
0000
,
1000
0000
0010
0100
0001
0000
1000
0000
0001
0000
0000
0000
1000
0000
0100
0000
,
0010
0000
0100
1000
0010
0000
0100
0000
0001
0000
0010
0000
0100
0000
0010
0000
,
0001
0000
1000
0001
0100
0000
0010
0000
1000
0000
0010
0000
0100
0000
0000
0000
,
0100
0100
0010
1000
0001
0010
0000
0100
,
0010
0010
0M00
M000
M00M
0000
1001
0101
,
1010
0000
1100
0000
1000
0001
0010
0000
0100
0000
0110
0000
1001
0000
0001
0000
,
0001
1000
1000
1001
0000
0110
0000
2000
,
0000
3010
0200
0320
0000
2030
0000
3100
,
1100
0000
0110
0000
0011
0000
1000
0001
0010
0000
0100
0000
0110
0000
0011
0000
,
0000
1000
0100
0001
0100
0010
0001
0100
,
0010
0000
0000
0000
2000
0000
0000
0000
0000
0000
0000
3000
M011
0000
0000
0000
1100
0000
0000
0000
0011
0000
0000
0000
0101
0000
0000
0000
1000
0000
0010
0000
,
1000
0010
1000
0000
0001
0000
1000
0000
0000
0000
0001
0000
0000
0000
0010
0000
,
0010
0000
0001
0000
0001
0000
0100
0000
0010
0000
1000
0001
1000
0000
0001
0000
,
0100
0020
0000
1030
0000
0101
0011
0110
,
1100
0000
0100
1000
0010
0000
0100
0000
0101
0000
0011
0000
0000
0000
0000
0000
,
1000
0001
0100
0010
1000
0001
0010
0100
,
0010
0001
0100
0010
1000
0010
1000
0010
1000
0001
0010
0100
,
1000
1000
1000
1000
,
0001
0001
0001
0001
,
0100
0100
0100
0100
,
0010
0010
0010
0010
,
1000
0010
1000
0010
,
0100
0001
0100
0001
,
0010
0001
0010
0001
,
0100
0000
0100
0000
0100
0000
0010
0100
,
0001
0100
1000
0100
0010
1000
0010
0001
,
0010
1000
0010
0100
0001
0100
0010
1000
,
0100
0001
0100
0010
0001
0010
1000
0010
,
0100
0010
0001
0100
0010
0100
0001
0010
,
0100
0000
0000
0000
0010
0000
0100
0000
0000
0000
0010
0001
1000
0000
0001
0000
,
0000
1000
0000
0010
0000
1000
0010
0100
,
0001
0010
1000
0010
0000
0100
0010
0001
,
1000
0001
1000
0001
1000
0001
1000
0001
1000
0001
1000
0001
1000
0001
1000
0000
,
M00M
MMMM
M00M
M00M
M00M
0000
0000
0000
MMMM
M00M
MMMM
M00M
M00M
M00M
0000
0000
,
M00M
0000
0MM0
0000
0MM0
0000
M00M
0000
MMMM
M00M
M00M
MMMM
MM00
M0M0
M00M
0000
,
1010
0101
2002
3000
,
1003
1000
0001
0001
0010
0010
0100
0100
,
0010
0001
0010
0001
0010
0001
0010
0001
1000
0100
1000
0100
1000
0100
1000
0100
,
1000
0000
0000
0000
1001
0000
0000
0000
0001
0000
0010
0000
0000
0000
0100
0010
,
0001
1000
0000
0010
0000
0100
0000
0010
,
1000
0000
0100
0000
1000
0000
0001
0000
0010
0000
0100
0000
0000
0000
0010
0001
,
0010
0001
0000
1000
0000
0010
1000
0000
,
0010
0000
0100
0000
0001
0000
0000
0000
1000
0000
0100
0000
0000
0000
0010
0100
,
0010
0100
0000
1000
0000
0010
0000
0100
,
0010
1000
0001
0010
1000
0010
0000
0100
,
0010
0001
1000
0000
1000
0000
0100
0000
,
0010
0100
1000
0001
1000
0000
0000
0000
0100
0000
0001
0000
0000
0000
0001
0100
,
0010
0001
0000
0100
0000
1000
0000
0100
,
0010
0000
1000
0000
0100
0000
0001
0000
0100
0000
0010
0000
0000
0000
0010
0100
,
1000
0100
0000
0010
0000
0100
1000
0000
,
0010
0000
0100
0000
0001
0000
0000
0000
0010
0000
0100
0000
0000
0000
0010
0001
,
1000
0001
0000
0100
0000
1000
0000
0100
,
0010
1000
0000
0000
0101
0000
0000
0011
,
0000
0000
0101
0000
0001
0001
1000
1000
,
0020
0000
0030
0000
1000
0001
0010
0000
0100
0010
0001
0000
0010
0100
0010
0000
,
0100
0000
1000
0001
0100
0000
0010
1000
0100
0000
0010
0100
1000
0000
0100
1000
,
0001
0000
0001
0100
0010
0000
1000
0001
0010
0000
0100
0010
0001
0000
0010
0000
,
0001
0100
0010
0000
1000
0001
0010
0000
0100
1000
0100
0000
0010
0001
0100
0000
,
0010
0100
0001
0001
0100
0100
0010
0010
,
1000
1000
0100
0100
0001
0001
0100
0100
,
0010
0000
0010
0000
0001
0010
0100
0010
0001
0100
0010
1000
0001
0010
0100
0010
,
0001
0100
0010
1000
0000
0000
0001
0000
0100
0000
1000
0000
0010
0000
0001
0000
,
1000
0010
1001
0000
0000
0000
0000
0000
;

//---------------dance-double - ----------------
#NOTEDATA:;
#CHARTNAME:;
#STEPSTYPE:dance-double;
#DESCRIPTION:;
#CHARTSTYLE:;
#DIFFICULTY:Challenge;
#METER:11;
#RADARVALUES:0.785295,1.146815,0.267590,0.107036,0.313463,719.000000,684.000000,35.000000,14.000000,0.000000,0.000000,0.000000,0.000000,0.000000,0.785295,1.146815,0.267590,0.107036,0.313463,719.000000,684.000000,35.000000,14.000000,0.000000,0.000000,0.000000,0.000000,0.000000;
#CREDIT:;
#NOTES:
00000000
00000000
00000000
00000000
,
00000000
00000000
00000000
00000000
,
00000000
00000000
00000000
00000000
,
00000000
00000000
00000000
00000000
,
00000000
00000000
00000000
00000000
,
00000000
00000000
00000000
00000000
,
00000000
00000000
00000000
00000000
,
00000000
00000000
00000000
00000000
,
10000000
00000000
00000000
00100000
00000000
00000000
01000000
00010000
,
00000000
00100000
00000000
00001000
00010000
00000000
00000100
00001000
,
00000010
00000000
00000000
00000100
00000000
00000010
00001000
00000100
,
00000000
00010000
00000000
00001000
00100000
00000000
00100000
00001000
,
00010000
00000000
00000000
00000100
00000000
00001000
00000010
00000100
,
00000000
00000100
00000000
00000001
00001000
00000000
00000100
00000010
,
00000002
00000000
00000000
00000000
,
00000200
00000000
00000303
00000000
,
00000010
00000010
00001000
00000100
00010000
00010000
00001000
00100000
,
10000000
00100000
00010000
01000000
00100000
10000000
00010000
00100000
,
00001000
00001000
00010000
00000100
00001000
00001000
00000010
00000001
,
00000010
00000000
00000100
00000000
00000001
00000000
00000010
00000000
00000100
00000000
00001000
00000100
00001000
00000000
00000100
00000000
,
00001000
00000100
00010000
00001000
00100000
00010000
01000000
00100000
,
10000000
00010000
00100000
00001000
00010000
00000100
00001000
00000010
,
00000100
00000001
00000100
00000001
00000100
00000001
00000100
00000001
00000100
00000001
00000100
00000001
00000100
00000001
00000100
00000001
,
00000100
00000000
00000000
00000000
,
00001001
00000000
00000000
00000000
00001001
00000000
00000000
00000000
00000001
00000000
00000100
00000010
00000100
00000000
00000010
00000000
,
00001000
00000100
00001000
00000000
00000100
00000000
00010000
00001000
00010000
00000000
00001000
00000000
01000000
00010000
01000000
00000000
,
01100000
00000000
00000000
00000000
01100000
00000000
00000000
00000000
10100000
00000000
10000000
00100000
10000000
00000000
00100000
00000000
,
01000000
00010000
01000000
00000000
00010000
00000000
00100000
00000000
00000000
00000000
00001000
00000000
00010000
00000000
00000100
00000000
,
00010100
00000000
00000000
00000000
00010100
00000000
00000000
00000000
00000010
00000000
00000100
00000010
00000100
00000000
00000001
00000000
,
00001000
00000100
00001000
00000000
00000001
00000000
00000010
00000001
00000010
00000000
00000100
00000000
00001000
00000100
00001000
00000000
,
00001100
00000000
00000000
00000000
00001100
00000000
00000000
00000000
00000100
00000000
00000100
00010000
00001000
00100000
02000000
00000000
,
00000000
00000000
00000000
03000000
,
00110000
00000000
00000000
00000000
00110000
00000000
00000000
00000000
01010000
00000000
00010000
01000000
00100000
00000000
01000000
00000000
,
00100000
10000000
00010000
00000000
00100000
00000000
00001000
00010000
00000100
00000000
00001000
00000000
00000010
00000100
00000001
00000000
,
00001001
00000000
00000000
00000000
00001001
00000000
00000000
00000000
00000011
00000000
00000010
00000100
00001000
00000000
00000100
00000000
,
00010000
00010000
00001000
01000000
00000000
01000000
00000000
00000000
,
00100000
00100000
10000000
10000000
00010000
00010000
00100000
00100000
,
00001000
00001000
00010000
00010000
00000100
00000100
00001000
00001000
,
00000010
00000100
00000010
00000100
00000010
00000100
00000010
00000100
00000010
00000100
00000010
00000100
00000010
00000100
00000010
00000100
,
00000010
00000100
00000001
00001000
00000100
00000010
00001000
00000100
,
00010000
00000000
00001000
00000000
00001000
00100000
01000000
00000000
,
00100000
00000000
00010000
00000000
00010000
01000000
00100000
00000000
,
10000000
00000000
01000000
00000000
01000000
10000000
00100000
00000000
,
01000000
00000000
00010000
00000000
00010000
00100000
00001000
00000000
,
00010000
00000000
00000100
00000000
00000100
00001000
00000010
00000000
,
00000100
00000000
00000001
00000000
00000001
00001000
00000010
00000000
,
00000100
00000000
00000001
00000000
00000001
00001000
00000100
00000000
,
00000010
00000010
00000010
00000010
,
00000100
00001000
00000100
00010000
00001000
00010000
00100000
00000000
,
01000000
10000000
01000000
10000000
00100000
01000000
00010000
00000000
,
00100000
00001000
00100000
00001000
00010000
00000010
00000100
00000000
,
00000001
00000100
00000001
00000100
00000010
00001000
00000100
00000000
,
00001000
00000000
00000100
00010000
00001000
00100000
00000000
01000000
,
00100000
00001000
00010000
00000100
00000000
00001000
00000100
00000001
,
00000100
00000000
00000010
00000001
00000100
00000010
00001000
00000100
,
00000000
00000100
00001000
00000010
00000000
00000000
00000000
00000000
,
00000110
00000000
00000010
00001000
00000100
00000000
00000000
00000000
,
00010000
00000100
00010000
00000100
00010000
00000000
00001000
00000000
00000000
00000000
00011000
00000000
00000000
00000000
00000000
00000000
,
00001000
00000000
00100000
01000000
10000000
00000000
11000000
00000000
,
10000000
00100000
00010000
00100000
20000000
00000000
30020000
00000000
,
00130000
00000000
01000000
00100000
00001000
00000000
00000000
00000000
,
00010000
00000100
00010000
00000100
00010000
00000000
00001000
00000000
00000000
00000000
00100000
00000000
00000000
00000000
00000000
00000000
,
01000000
00000000
00100000
00001000
00010000
00000100
00001000
00000100
,
00020200
00000000
00000000
00030300
,
00001100
00000000
00000010
00000001
00000100
00000000
00000000
00000000
,
00000010
00000100
00000010
00000100
00000001
00000000
00001100
00000000
00000000
00000000
00001010
00000000
00000000
00000000
00000000
00000000
,
00000010
00001000
00000100
00010000
00001000
00100000
01000000
10000000
,
00100000
00000000
01000000
00010000
01000000
00000000
00010000
00000000
00200000
00000000
00000000
00000000
00302000
00000000
00000000
00000000
,
00013000
00000000
00001000
00100000
01000000
00000000
00000000
00000000
,
01000000
00100000
01000000
00100000
01000000
00000000
00100000
00000000
00000000
00000000
00010000
00000000
00000000
00000000
00000000
00000000
,
10000000
00100000
01000000
00010000
00100000
00001000
00010000
00000010
,
00000100
00000010
00001000
00000100
00010000
00001000
00100000
01000000
00100000
00001000
00010000
00000100
,
00001000
00000000
00000000
00000000
,
00000010
00000000
00000000
00000000
,
00000100
00000000
00000000
00000000
,
00000001
00000000
00000000
00000000
,
00001000
00000000
00000000
00000000
,
00000100
00000000
00000000
00000000
,
00010000
00000000
00000000
00000000
,
00001000
00001000
00001000
02000000
,
13000000
00010000
00100000
00010000
10000000
00100000
10000000
00010000
,
00100000
00001000
00010000
00001000
00100000
00010000
00100000
00001000
,
00010000
00000100
00001000
00000100
00010000
00001000
00010000
00000100
,
00001000
00000001
00000010
00000001
00001000
00000010
00001000
00000001
,
00000011
00000011
00001100
00001100
,
00010100
00010100
00011000
00011000
,
00001000
00100000
01000000
10000000
00000000
01000000
10000000
00100000
,
01000000
00100000
01000000
00100000
01000000
00100000
01000000
00100000
01000000
00100000
01000000
00100000
01000000
00100000
01000000
00100000
,
01000000
00000000
00000000
00000000
,
00000000
00000000
00000000
00000000
,
00000000
00000000
00000000
00000000
,
00000000
00000000
00000000
00000000
,
10010000
00000000
00000000
00000000
01010000
00000000
00000000
00000000
02002000
00000000
00000000
00000000
00000000
00000000
00000000
03003000
,
00001000
01000000
00001000
01000000
00001000
01000000
00001000
01000000
,
00001000
01000000
00001000
01000000
00001000
01000000
00001000
01000000
00001000
01000000
00001000
01000000
00001000
01000000
00001000
01000000
,
00001000
00000000
00000000
00000000
,
00011000
00000000
00000000
00000000
00010000
00000000
00000100
00000000
00000000
00000000
00001000
00000010
00001000
00000000
00000001
00000000
,
00000000
00001000
00000000
00000100
00000000
00000010
00000100
00001000
,
00000001
00000000
00000100
00000000
00000010
00000000
00001000
00000000
00000000
00000000
00000100
00010000
00000100
00000000
00010000
00000000
,
00000000
00001000
00000000
00100000
01000000
00000000
00100000
00010000
,
10000000
00000000
00000000
00000000
00100000
00000000
01000000
00000000
00000000
00000000
00010000
01000000
00010000
00000000
00100000
00000000
,
00000000
01000000
00000000
00100000
00000000
00010000
00100000
00001000
,
00010000
00000010
00000100
00000001
00000000
00001000
00000100
00000010
,
00000001
00000001
00000001
00000020
,
00000130
00000000
00000000
00000000
00000100
00000000
00000001
00000000
00000000
00000000
00000001
00000100
00000010
00000000
00000001
00000000
,
00000000
00000100
00000000
00000010
00000000
00001000
00000100
00010000
,
00001000
00000000
00100000
00000000
10000000
00000000
00100000
00000000
00000000
00000000
01000000
10000000
00010000
00000000
01000000
00000000
,
00000000
00010000
00000000
00100000
00001000
00000000
00001000
00010000
,
00000100
00000000
00000000
00000000
00001000
00000000
00000010
00000000
00000000
00000000
00000100
00000001
00000010
00000000
00000100
00000000
,
00000000
00000010
00000000
00000001
00001000
00000010
00001000
00000100
,
00000000
00000000
00000100
00000000
00000000
00001000
00000000
00000000
,
00000100
00000000
00001000
00000100
00001000
00000100
00020000
00000000
,
00031000
00001000
00100000
01000000
00100000
00100000
00010000
01000000
,
01000000
00100000
00100000
10000000
10000000
00010000
10000000
00100000
,
01000000
01000000
00010000
00100000
00001000
00001000
00010000
00000100
,
00000100
00000000
00001000
00000000
00001000
00000000
00000010
00000000
00000100
00000000
00000001
00001000
00000001
00000000
00001000
00000000
,
00000001
00000001
00000100
00000100
00000010
00000010
00001000
00001000
,
00000100
00000100
00010000
00010000
00100000
00100000
01000000
01000000
,
10000000
00010000
10000000
00010000
10000000
00010000
10000000
00010000
10000000
00010000
10000000
00010000
10000000
00010000
10000000
00010000
,
00000000
10000000
01000000
00010000
01000000
00100000
00001000
00010000
,
00011000
00000000
00000000
00000000
;
