#VERSION:0.83;
#TITLE:Kung-fu Empire;
#SUBTITLE:;
#ARTIST:飛燕流舞;
#TITLETRANSLIT:;
#SUBTITLETRANSLIT:;
#ARTISTTRANSLIT:;
#GENRE:;
#ORIGIN:;
#CREDIT:;
#BANNER:banner.png;
#BACKGROUND:background.png;
#PREVIEWVID:;
#JACKET:jacket.png;
#CDIMAGE:;
#DISCIMAGE:;
#LYRICSPATH:;
#CDTITLE:;
#MUSIC:Kung-fu Empire.ogg;
#OFFSET:-0.771000;
#SAMPLESTART:65.855751;
#SAMPLELENGTH:10.847458;
#SELECTABLE:YES;
#BPMS:0.000=177.000;
#STOPS:;
#DELAYS:;
#WARPS:;
#TIMESIGNATURES:0.000=4=4;
#TICKCOUNTS:0.000=4;
#COMBOS:0.000=1;
#SPEEDS:0.000=1.000=0.000=0;
#SCROLLS:0.000=1.000;
#FAKES:;
#LABELS:0.000=Song Start;
#BGCHANGES:;
#KEYSOUNDS:;
#ATTACKS:
;

//---------------dance-single - ----------------
#NOTEDATA:;
#CHARTNAME:;
#STEPSTYPE:dance-single;
#DESCRIPTION:;
#CHARTSTYLE:;
#DIFFICULTY:Hard;
#METER:9;
#RADARVALUES:0.524184,0.786685,0.091542,0.152569,0.156383,481.000000,469.000000,12.000000,20.000000,4.000000,0.000000,0.000000,0.000000,0.000000,0.524184,0.786685,0.091542,0.152569,0.156383,481.000000,469.000000,12.000000,20.000000,4.000000,0.000000,0.000000,0.000000,0.000000;
#CREDIT:;
#NOTES:
0000
0000
0000
0000
,
0000
0000
0000
0000
,
0000
0000
0000
0000
,
0000
0000
0000
0000
,
0000
0000
0000
0000
,
0000
0000
0000
0000
,
0000
0000
0000
0000
,
0000
0000
0000
0000
0000
1000
0001
0010
,
0000
0000
0000
0000
0000
0000
0100
1000
,
0000
0000
0000
0000
0000
0000
0010
0001
,
0000
0000
0000
0000
,
0000
0000
0000
1000
0001
0010
0001
0100
,
0000
0000
0000
0000
0000
0000
0010
0100
,
0000
0000
0000
0000
0000
0000
0001
0010
,
0000
0000
0000
0000
,
0000
0000
0000
0100
1000
0010
0100
0001
,
0010
0100
0010
0011
0000
0000
0001
0100
,
0000
0000
0001
0100
0000
0000
0001
1000
,
0100
0010
0100
1100
0000
0000
0000
0000
,
0000
0000
0000
0100
0010
0100
1000
0001
,
0100
0010
1000
1001
0000
0000
0001
0010
,
0000
0000
0001
0010
0000
0000
0001
1000
,
0001
0100
0001
0011
0000
0000
0000
0001
,
0010
1000
0010
0001
0100
1000
0100
0010
,
1000
0000
0001
0010
0000
0001
0000
1000
,
0000
0001
0100
0100
0001
0000
0010
0000
,
0100
0000
1000
0010
0000
0100
0000
0001
,
0000
1000
0001
0001
0010
0100
0010
0001
,
1000
0000
0001
0000
0100
0010
1000
0000
,
0001
0000
0010
0000
0100
0010
0001
0000
,
1000
0000
0001
0100
0000
0100
1000
0000
,
0100
0000
0010
0000
1000
0001
0010
0100
,
0010
0001
0100
0001
0010
0001
2000
0000
,
0000
3001
0010
0100
0010
0000
0100
0010
,
0001
1000
0010
0100
0001
0010
1000
0010
,
0001
0100
1000
0100
0010
1000
0001
1000
,
0200
0000
0000
0000
1300
0000
0100
1000
,
0010
0100
0001
0010
0100
0000
0010
0001
,
0101
0000
0001
0100
0110
0000
0010
1000
,
0001
0000
0000
1000
0100
0000
0000
0100
0010
0000
0000
0010
0001
0000
1000
0000
,
0010
0100
0001
0010
0100
0010
0002
0000
,
0000
1003
0100
0010
0100
0000
0010
0001
,
1000
0010
0001
0010
1000
0010
0001
1000
,
0001
1000
0100
0001
0100
0010
0001
0100
,
0020
0000
0000
0000
1030
0000
0010
0100
,
0001
0010
0100
0010
0001
0000
1000
0001
,
0101
0000
0001
1000
1100
0000
1000
0100
,
0010
0000
0000
0010
0001
0000
0000
0001
0100
0000
0000
0100
0010
0000
0000
0010
,
1000
0100
0001
0100
0010
0001
0000
0010
,
1000
0010
0001
0100
0000
0010
0100
0001
,
1000
0001
0010
1000
0010
0100
0010
0001
,
1000
0010
0100
0001
0010
0100
1000
0001
,
1000
0010
0001
0010
0100
0001
0000
0010
,
1000
0010
0001
1000
0000
0001
0010
0001
,
1000
0010
0001
0010
0100
0001
0000
0010
,
0100
1000
0100
0001
0100
0010
0100
1000
,
0001
0000
1000
0010
1000
0000
0001
0100
0001
0010
0100
0000
0000
0000
0010
0001
,
0010
0000
0001
0100
0001
1000
0100
0000
0000
0000
0000
0000
0000
0000
0000
0000
,
1000
0000
0000
M1M1
0000
0000
0001
0010
,
0100
0010
0001
1000
0100
0010
0100
1000
,
0001
0000
1000
0010
1000
0000
0001
0100
0010
1000
0100
0000
0000
0000
0010
0100
,
0010
0000
0100
1000
0010
0100
0001
0000
0000
0000
0000
0000
0000
0000
0000
0000
,
1000
0000
0000
MM11
0000
0000
0000
0000
,
0001
0010
0100
1000
,
1001
0000
0000
0000
,
0000
0000
0000
0000
0000
0000
0000
0000
0010
0000
0000
0000
0000
0000
0000
0100
,
0001
0000
0000
0001
0010
0000
0000
0010
0100
0000
0000
0100
2000
0000
0000
0000
,
0000
0000
3001
1000
0010
0000
1000
0000
0100
0000
0010
0000
0100
0000
1000
0000
,
0002
0000
0000
0000
0000
0000
1003
0001
0020
0000
0000
0000
0000
0000
0000
0000
,
0130
1000
0001
0100
0010
1000
0100
0010
,
0001
0000
0000
0010
0100
0000
0000
0100
1000
0000
0000
1000
0020
0000
0000
0000
,
0000
0000
0130
0001
1000
0000
0100
0000
0010
0000
0100
0000
1000
0000
0001
0000
,
2000
0000
0000
0000
0000
3000
0010
1000
,
0100
0010
0100
1000
0001
0100
0010
1000
,
0100
0000
0000
0010
0100
0000
0000
1000
0010
0000
0000
0100
0002
0000
0000
0000
,
0000
0000
1003
0001
0100
0000
0010
0000
0100
0000
0001
0000
1000
0000
0100
0000
,
0020
0000
0000
0000
0000
0000
0130
1000
0002
0000
0000
0000
0000
0000
0000
0000
,
1003
0010
0100
0001
0010
0001
1000
0100
,
0010
0000
0000
0100
1000
0000
0000
0100
0010
0000
0000
0010
0002
0000
0000
0000
,
0000
0000
1003
0001
1000
0000
0001
0000
0010
0000
0100
0000
0010
0000
0001
0000
,
0200
0000
0000
0000
0000
0000
0310
0100
,
0001
0010
0001
1000
0100
1000
0010
0100
,
0002
0000
2003
0000
,
3000
0000
0100
0010
0100
1000
0010
0100
,
0002
0000
0000
0000
,
0000
0003
0000
0000
0000
0000
0000
0000
,
0020
0000
0230
0000
,
0300
0000
0010
0001
1000
0010
0100
0001
,
2000
0000
0000
0000
,
0000
0000
3000
0000
,
0101
0001
0100
0010
,
1000
0100
0010
0100
,
1000
0001
0100
0010
,
0000
1000
0000
0010
0000
0100
0000
0001
0000
0010
0000
0000
;

//---------------dance-double - ----------------
#NOTEDATA:;
#CHARTNAME:;
#STEPSTYPE:dance-double;
#DESCRIPTION:;
#CHARTSTYLE:;
#DIFFICULTY:Challenge;
#METER:9;
#RADARVALUES:0.568865,0.786685,0.236482,0.213597,0.125870,522.000000,491.000000,31.000000,28.000000,0.000000,0.000000,0.000000,0.000000,0.000000,0.568865,0.786685,0.236482,0.213597,0.125870,522.000000,491.000000,31.000000,28.000000,0.000000,0.000000,0.000000,0.000000,0.000000;
#CREDIT:;
#NOTES:
00000000
00000000
00000000
00000000
,
00000000
00000000
00000000
00000000
,
00000000
00000000
00000000
00000000
,
00000000
00000000
00000000
00000000
,
00000000
00000000
00000000
00000000
,
00000000
00000000
00000000
00000000
,
00000000
00000000
00000000
00000000
,
00000000
00000000
00000000
00000000
00000000
01000000
00100000
00010000
,
00000000
00000000
00000000
00000000
00000000
00000000
01000000
00010000
,
00000000
00000000
00000000
00000000
00000000
00000000
00100000
00001000
,
00000000
00000000
00000000
00000000
,
00000000
00000000
00000000
00010000
00000100
00001000
00000010
00000100
,
00000000
00000000
00000000
00000000
00000000
00000000
00000001
00000010
,
00000000
00000000
00000000
00000000
00000000
00000000
00000001
00001000
,
00000000
00000000
00000000
00000000
,
00000000
00000000
00000000
00000001
00000100
00000010
00001000
00000100
,
00001100
00000100
00010000
00011000
00000000
00000000
00001000
00100000
,
00000000
00000000
00001000
01000000
00000000
00000000
00001000
00100000
,
01000000
10000000
00100000
01100000
00000000
00000000
00000000
00000000
,
00000000
00000000
00000000
01000000
00100000
10000000
00010000
00100000
,
00101000
00001000
00010000
00011000
00000000
00000000
00010000
00000100
,
00000000
00000000
00010000
00001000
00000000
00000000
00010000
00000010
,
00000100
00000001
00000010
00000100
00000000
00000000
00000010
00000001
,
00000100
00000010
00001000
00000100
00010000
00001000
00100000
01000000
,
10000000
00000000
00100000
10000000
00000000
00010000
00000000
00100000
,
00000000
01000000
00100000
00100000
00010000
01000000
00001000
00010000
,
00000100
00000000
00001000
00000010
00000000
00000100
00000000
00000001
,
00000000
00000010
00000100
00000100
00000010
00000001
00001000
00000010
,
00001000
00000000
00001010
00000000
00000010
00010000
00011000
00000000
,
00001000
00000000
00101000
00000000
00001000
00100000
00110000
00000000
,
01100000
00000000
01000000
11000000
00000000
00000000
00110000
00000000
,
01000000
00000000
01010000
00000000
00010000
00000000
00110000
00100000
,
00001000
00010000
00000100
00010000
00001000
00100000
02000000
00000000
,
00000000
03100000
01000000
10000000
00010000
00000000
01000000
00010000
,
00100000
00001000
00010000
00000100
00000010
00000001
00000010
00001000
,
00000100
00000001
00000100
00000010
00000001
00001000
00000010
00001000
,
00000200
00000000
00000000
00000000
00020300
00000000
00031000
00100000
,
00001000
01000000
00100000
10000000
01000000
00000000
00010000
00100000
,
10000000
00000000
10000000
00100000
00010000
00000000
00010000
01000000
,
10000000
01000000
00100000
10000000
00010000
00100000
01000000
00100000
,
00001000
00010000
00000100
00001000
00000010
00000100
00000002
00000000
,
00000000
00000013
00000100
00000010
00000001
00000000
00001000
00000010
,
00000100
00000001
00000010
00001000
00000010
00000001
00000100
00001000
,
00000100
00000010
00001000
00000100
00010000
00001000
00100000
10000000
,
00200000
00000000
00000000
00000000
02300000
00000000
13000000
01000000
,
00010000
01000000
00100000
00010000
00100000
00000000
00010000
01000000
,
10000000
00000000
10000000
01000000
00010000
00000000
00010000
00100000
,
01000000
00100000
00001000
00010000
00000100
00001000
00000010
00000100
,
00000000
00000001
00000100
00000010
00001000
00001000
00000000
00000010
,
00001000
00000100
00010000
00010000
00000000
00001000
00100000
00001000
,
00010000
00001000
00100000
00010000
01000000
01000000
00100000
10000000
,
00010000
00100000
01000000
10000000
01000000
00100000
01000000
10000000
,
00010000
10000000
01000000
00100000
01000000
01000000
00000000
00100000
,
00010000
00100000
00001000
00001000
00000000
00100000
00001000
00100000
,
00001000
00010000
00000100
00001000
00000010
00000010
00000000
00000100
,
00000010
00001000
00000001
00000001
00000010
00000100
00001000
00000001
,
00000100
00000000
00000010
00001000
00000010
00000000
00000100
00000001
00000100
00000001
00000010
00000000
00000000
00000000
00000100
00001000
,
00000100
00000000
00001000
00000100
00010000
00001000
01000000
00000000
00000000
00000000
00000000
00000000
00000000
00000000
00000000
00000000
,
00100000
00000000
00000000
10010000
00000000
00000000
10000000
00100000
,
01000000
00010000
00100000
00001000
00010000
00000100
00010000
00001000
,
00100000
00000000
01000000
10000000
01000000
00000000
10000000
00100000
10000000
00100000
01000000
00000000
00000000
00000000
00100000
01000000
,
00100000
00000000
10000000
00010000
00100000
00001000
00010000
00000000
00000000
00000000
00000000
00000000
00000000
00000000
00000000
00000000
,
00001000
00000000
00000000
00101000
00000000
00000000
00000000
00000000
,
00100000
00001000
00010000
00000010
,
00000200
00000000
00000000
00000000
,
00000000
00000000
00000000
00000000
00000000
00000000
00000000
00000000
00000010
00000000
00000000
00000000
00000300
00000000
00000000
00000001
,
00001000
00000000
00000000
00001000
00000100
00000000
00000000
00000100
00010000
00000000
00000000
00001000
02000000
00000000
00000000
00000000
,
00000000
03100000
10000000
00010000
00100000
00001000
00010000
00000100
,
00000020
00000000
00000000
00000000
00000000
00000000
00000130
00000001
00002000
00000000
00000000
00000000
00000100
00000000
00000000
00000000
,
00003001
00000100
00000010
00001000
00000100
00010000
00100000
01000000
,
10000000
00000000
00000000
00010000
10000000
00000000
00000000
10000000
00100000
00000000
00000000
00100000
02000000
00000000
00000000
00000000
,
00000000
00000000
03100000
10000000
00100000
00000000
01000000
00000000
00010000
00000000
00100000
00000000
00001000
00000000
00010000
00000000
,
00000200
00000000
00000000
00000000
00000000
00000000
00010300
00001000
,
00100000
00001000
00010000
00000100
00001000
00000010
00000100
00000001
,
00000010
00000000
00000000
00000010
00000100
00000000
00000000
00000100
00001000
00000000
00000000
00000100
00010000
00000000
00000000
00000000
,
00000000
00000000
00000100
00010000
00001000
00000000
01000000
00000000
00100000
00000000
10000000
00000000
01000000
00000000
00100000
00000000
,
02000000
00000000
00000000
00000000
00000000
00000000
03100000
01000000
00200000
00000000
00000000
00000000
00010000
00000000
00000000
00000000
,
01300000
10000000
00100000
01000000
00010000
00100000
00001000
00010000
,
00000100
00000000
00000000
00001000
00000100
00000000
00000000
00000010
00000001
00000000
00000000
00000001
00000200
00000000
00000000
00000000
,
00000000
00000000
00000310
00000100
00000010
00000000
00001000
00000000
00000100
00000000
00010000
00000000
00001000
00000000
01000000
00000000
,
00200000
00000000
00000000
00000000
00000000
00000000
01300000
00010000
,
00100000
00001000
00010000
00000100
00010000
00001000
00100000
01000000
,
10000000
00000000
11000000
00000000
10000000
00100000
01100000
00000000
,
01000000
00000000
01010000
00000000
00010000
00100000
00110000
00000000
,
00100000
00000000
00101000
00000000
00001000
00010000
00011000
00000000
,
00010000
00000000
00010100
00000000
00000100
00001000
00001010
00000000
,
00000010
00000000
00000110
00000000
00000100
00000001
00000011
00000000
,
00000010
00000000
00000110
00000000
00000100
00001000
00001010
00000000
,
00000010
00000000
00010000
00000000
00000100
00010000
00011000
00000000
,
00001000
00011000
00010000
00101000
,
00002000
02003000
03200000
20300000
,
32000000
03200000
02300000
23000000
,
30020000
00230000
00302000
00023000
,
00030000
00000100
00000000
00010000
00000000
00001000
00000000
01000000
00000000
00100000
00000000
00000000
;

//---------------dance-single - ----------------
#NOTEDATA:;
#CHARTNAME:;
#STEPSTYPE:dance-single;
#DESCRIPTION:;
#CHARTSTYLE:;
#DIFFICULTY:Challenge;
#METER:11;
#RADARVALUES:0.709447,0.934677,0.320395,0.152569,0.427194,651.000000,609.000000,42.000000,20.000000,22.000000,0.000000,0.000000,0.000000,0.000000,0.709447,0.934677,0.320395,0.152569,0.427194,651.000000,609.000000,42.000000,20.000000,22.000000,0.000000,0.000000,0.000000,0.000000;
#CREDIT:;
#NOTES:
0000
0000
0000
0000
,
0000
0000
0000
0000
,
0000
0000
0000
0000
,
0000
0000
0000
0000
,
0000
0000
0000
0000
,
0000
0000
0000
0000
,
0000
0000
0000
0000
,
0000
0000
0000
0000
0000
1000
0001
0100
,
0110
0010
1000
1001
0000
0000
0001
0010
,
0100
0010
0000
0010
0001
1000
0010
0100
,
0010
0010
1000
1001
0000
0000
0000
0000
,
0000
0000
0000
1000
0100
0010
0100
1000
,
1001
0001
0010
0110
0000
0000
0100
0010
,
0001
0000
0000
0000
0000
0000
0100
0000
0000
0001
0000
0000
1000
0000
0000
0001
0000
0000
1000
0000
0001
0000
0100
0000
,
0010
0000
0100
0000
0001
0000
0010
0000
0000
0000
0000
0000
0100
0010
0100
0010
,
0001
0010
0001
1000
0001
1000
0001
0100
0010
1000
0010
0100
0001
0010
0100
1000
,
0001
1000
0010
1MM1
0000
0000
0001
0100
,
0000
0000
0001
1000
0000
0000
0001
0010
,
0100
0010
0001
11MM
0000
0000
0000
0000
,
0000
0000
0000
0100
0010
0100
1100
1000
,
0001
0100
0010
1MM1
0000
0000
1000
0010
,
0000
0000
1000
0001
0000
0000
1000
0001
,
0010
0000
0001
0000
1000
0000
M1M1
0000
0000
0000
0000
0000
1000
0001
1000
0001
,
1000
0010
0100
0001
1000
0100
0010
0100
1000
0001
0100
0010
1000
0100
0010
0100
,
1000
0010
1000
0100
0000
1000
0000
0001
,
0000
0100
0010
0010
0100
0001
0010
1000
,
0010
0010
0100
0010
0000
0001
0000
0010
,
0000
0000
0001
0000
1000
0000
1000
0000
1000
0000
0000
0000
0001
0100
0010
1000
,
0100
1000
1010
0000
0010
0000
0110
0000
,
0100
0001
0011
0000
0010
0000
0110
0000
,
0100
0010
0001
0101
0000
0001
1001
0000
,
0101
0000
0000
0000
1010
0000
0000
0000
1100
0000
0000
0000
0110
0000
0100
1000
,
0010
0000
0100
0001
0010
0000
0100
1000
0001
0000
1000
0001
0200
0000
0000
0000
,
0000
0000
0310
1000
0001
0000
0010
0100
1000
0000
0000
0000
0100
0000
0010
0000
,
0001
0000
1000
0000
0010
0000
0001
0000
0010
0000
0100
0001
1000
0000
0100
0000
,
0010
0000
0100
1000
0100
0000
1000
0000
0001
0000
0010
0100
0010
0000
0100
1000
,
0002
0000
0000
0000
0203
0000
0310
1000
,
0100
0010
0100
1000
0001
0000
1000
0010
,
M1M1
0000
0001
0010
11MM
0000
1000
0001
,
0010
0000
0000
0001
0010
0000
0000
0010
0100
0000
0000
0100
1000
0000
0000
1000
,
0001
0000
1000
0001
0100
0000
0010
1000
0100
0000
0010
0100
2000
0000
0000
0000
,
0000
0000
3001
1000
0100
0000
0010
0000
0100
0000
0000
0000
0010
0000
0001
0000
,
0100
0000
0010
1000
0001
0000
0010
0000
0100
0000
0010
0001
1000
0000
0001
1000
,
0001
0000
0100
0001
0100
0000
0010
0100
0010
0000
1000
0010
1000
0000
0100
0000
,
0020
0000
0000
0000
0230
0000
1300
0100
,
0001
0100
0010
0001
1000
0000
0001
0010
,
11MM
0000
1000
0010
M1M1
0000
0001
1000
,
1001
0000
0000
1000
0010
0000
0000
0100
0001
0000
0000
0001
0010
0000
0000
0010
,
0100
0000
0010
0001
0010
0000
0001
0100
0001
1000
0100
0000
0000
0000
0010
0100
,
0010
0000
0100
1000
0010
0100
0001
0000
0000
0000
1000
0000
0010
0000
0100
0000
,
0001
0000
1000
0001
0010
0000
0100
0010
0001
1000
0001
0000
0010
0000
0100
0000
,
0010
0001
1000
0010
0100
0001
0010
0100
,
1000
0000
0001
0100
0001
0000
0100
0010
1000
0100
0010
0000
0000
0000
0100
0010
,
0001
0000
1000
0100
0010
0100
1000
0000
0000
0000
0001
0000
0010
0000
0100
0000
,
0010
0000
0001
0100
0001
0000
0100
0010
0100
0001
1000
0000
0000
0000
0001
1000
,
0010
0000
0010
1000
0001
0010
0100
0000
0010
0000
0001
0000
1000
0000
0010
0000
,
0100
0000
1000
0100
0001
0000
0010
1000
0010
0001
1000
0000
0000
0000
0001
0100
,
1000
0000
1000
0100
0010
1000
0001
0000
0000
0000
0000
0000
0000
0000
0000
0000
,
0010
0100
0001
1MMM
0000
0000
1000
0100
,
0001
0100
0010
0001
1000
0010
0100
0001
,
0010
0000
1000
0010
0001
0000
0001
0100
1000
0100
0010
0000
0000
0000
0100
1000
,
0010
0000
0100
0001
0010
1000
0010
0000
0000
0000
0000
0000
0000
0000
0000
0000
,
0100
0010
0001
1MMM
0000
0000
0000
0000
,
0001
0100
1000
0010
,
2002
0000
0000
0000
,
0000
0000
0000
0000
0000
0000
0003
0000
0000
0000
0000
0000
0020
0000
0000
0000
0000
0000
3030
0000
0000
0000
0000
1000
,
0010
0000
0000
0000
0000
0100
0001
0000
0000
0000
0000
0001
0010
0000
0000
0000
0000
0010
0200
0000
0000
0000
0000
0000
,
0000
0000
0310
0001
1000
0000
0010
0100
0001
0000
0100
0000
0010
0000
1000
0000
,
0002
0000
0000
0000
0000
0000
1003
0001
0020
0000
0000
0000
0100
0000
0000
0000
,
0031
0000
0000
0010
0000
0000
0100
0000
0000
0010
0000
0000
0001
0000
0000
1000
0000
0000
0010
0000
0000
0000
0000
0100
,
0010
0000
0000
0000
0000
0100
0001
0000
0000
0000
0000
1000
0100
0000
0000
0000
0000
0010
0002
0000
0000
0000
0000
0000
,
0000
0000
0013
0001
1000
0000
0010
0000
0100
0000
0010
0000
1000
0000
0100
0000
,
0020
0000
0000
0000
0000
0030
0100
0010
,
0001
0000
0000
1000
0000
0000
0010
0000
0000
1000
0000
0000
0100
0000
0000
1000
0000
0000
0001
0000
0000
0000
0000
1000
,
0001
0000
0000
0000
0000
0001
0100
0000
0000
0000
0000
0100
0010
0000
0000
0000
0000
0010
2000
0000
0000
0000
0000
0000
,
0000
0000
3010
1000
0100
0000
0010
0100
0010
0000
0001
0000
1000
0000
0010
0000
,
0200
0000
0000
0000
0000
0000
0310
1000
0002
0000
0000
0000
1003
0000
0000
0000
,
0100
0010
0001
0010
0100
0010
0001
1000
,
0010
0000
0000
0000
0000
1000
0010
0000
0000
0000
0000
0010
0100
0000
0000
0000
0000
0100
0002
0000
0000
0000
0000
0000
,
0000
0000
1003
0001
0010
0000
0100
0000
0010
0000
0001
0000
1000
0000
0010
0000
,
0200
0000
0000
0000
0000
0300
0010
1000
,
0001
1000
0100
0010
0001
0010
0100
0010
,
0001
0000
1100
0000
1000
0010
0110
0000
,
0100
0000
0101
0000
0001
0010
0110
0000
,
0100
0000
1100
0000
1000
0001
0101
0000
,
0001
0000
1010
0000
1000
0010
0110
0000
,
0010
0000
1001
0000
0001
0010
0110
0000
,
0100
0000
1100
0000
1000
0010
0110
0000
,
0100
0000
0101
0000
0001
0100
0110
0000
,
0100
0110
0010
0110
,
0001
1000
0001
0010
0001
1000
0001
0100
,
0001
1000
0001
0010
0001
1000
0001
0100
,
0001
0000
0000
1000
0000
0000
0001
0000
0000
0010
0000
0000
0001
0000
0000
1000
0000
0000
0001
0000
0000
0000
0100
0000
,
0000
0001
0000
0010
0000
0100
0000
1000
0000
0002
0000
0000
,
0000
0003
0000
0000
;

//---------------dance-single - ----------------
#NOTEDATA:;
#CHARTNAME:;
#STEPSTYPE:dance-single;
#DESCRIPTION:;
#CHARTSTYLE:;
#DIFFICULTY:Medium;
#METER:6;
#RADARVALUES:0.345460,0.464859,0.045771,0.266996,0.000000,317.000000,311.000000,6.000000,35.000000,0.000000,0.000000,0.000000,0.000000,0.000000,0.345460,0.464859,0.045771,0.266996,0.000000,317.000000,311.000000,6.000000,35.000000,0.000000,0.000000,0.000000,0.000000,0.000000;
#CREDIT:;
#NOTES:
0000
0000
0000
0000
,
0000
0000
0000
0000
,
0000
0000
0000
0000
,
0000
0000
0000
0000
,
0000
0000
0000
0000
,
0000
0000
0000
0000
,
0000
0000
0000
0000
,
0000
0000
0000
0000
0000
1000
0001
0010
,
0000
0000
0000
0000
0000
0000
0100
0010
,
0000
0000
0000
0000
0000
0000
0010
0001
,
0000
0000
0000
0000
,
0000
0000
0000
1000
0010
0100
0001
1000
,
0000
0000
0000
0000
0000
0000
0100
1000
,
0000
0000
0000
0000
0000
0000
1000
0001
,
0000
0000
0000
0000
,
0000
0000
0000
0100
0010
1000
0001
0010
,
0000
0000
0000
0000
0000
0000
0100
0010
,
0000
0000
0100
0010
0000
0000
0100
1000
,
0000
0000
0000
0000
,
0000
0000
0000
0100
1000
0010
0100
0001
,
0000
0000
0000
0000
0000
0000
1000
0001
,
0000
0000
1000
0100
0000
0000
1000
0010
,
0000
0000
0000
0000
,
0000
0000
0000
0000
,
0100
0000
0010
1000
0000
0010
0000
0100
,
0000
0001
1000
0001
1000
0000
0000
0000
,
0001
0000
0010
0100
0000
1000
0000
0100
,
0000
1000
0010
0100
0010
0000
0000
0000
,
0100
0000
0110
0000
0010
1000
0001
0000
,
1000
0000
1100
0000
0100
1000
0010
0000
,
0100
0000
0000
0110
0000
0000
0001
0000
,
1000
0010
1000
0001
,
1000
0100
0010
0002
,
0000
0013
0100
1000
0001
0000
1000
0000
,
0001
0100
0010
1000
,
0010
0100
0001
0000
1000
0010
0100
0000
,
0002
0000
2003
3100
,
1000
0000
0010
0000
0100
0000
0001
0100
,
0010
0000
0100
0010
1000
0000
1000
0010
,
0100
0010
1000
0001
,
1000
0100
0010
0200
,
0000
0310
0001
1000
,
0001
0100
0001
0010
,
0100
0010
0001
1000
,
0020
0000
0230
0310
,
1000
0000
0001
0000
0010
0000
0100
0010
,
0001
0000
0001
0010
0100
0000
0100
0010
,
0001
1000
0010
0100
,
0001
0000
0100
0000
0010
1000
0000
0010
,
0100
0000
0001
1000
0000
0001
0010
0000
,
0100
0000
0010
0000
0001
0010
0100
1000
,
0100
1000
0010
0100
,
0001
0000
1000
0010
0000
0100
0010
0000
,
0100
0000
0010
1000
0000
0001
0010
0000
,
0100
0000
0010
0001
0000
1000
0100
0000
,
1000
0010
0100
0001
,
1000
0001
0100
0001
0010
0100
0000
0010
,
0001
0100
0010
0100
0000
0000
0000
0000
,
0010
0000
0000
1001
0000
0000
1000
0000
,
0100
1000
0010
0100
,
0010
0100
0001
0010
0100
1000
0000
0100
,
1000
0010
0100
0001
0000
0000
0000
0000
,
1000
0000
0000
0011
0000
0000
0000
0000
,
1000
1000
0001
0001
,
0110
0000
0000
0000
,
0000
0000
0000
0000
,
2000
3020
0230
0302
,
0000
1003
0100
0010
,
0200
0000
0000
1300
0020
0000
0000
0000
,
0130
0010
0100
0000
0010
1000
0010
0000
,
2000
3002
0023
0230
,
0000
0000
0310
0000
0001
0100
0010
1000
,
0002
0000
0000
1003
,
0100
0001
0100
1000
,
0020
2030
3020
0230
,
0000
0310
1000
0000
0001
0000
0010
0100
,
2000
0000
3200
0000
,
0310
0100
1000
0010
,
0200
0320
2030
3002
,
0000
1003
0001
0000
0010
0100
1000
0100
,
0020
0000
0000
0130
,
0010
0001
0100
0010
,
2000
0000
0002
0000
,
3003
0000
0001
0100
0001
1000
0100
0010
,
0200
0000
0000
0000
,
0300
0000
0000
0000
,
0020
0000
0002
0000
,
0033
0000
0001
0010
0100
0010
0001
1000
,
0020
0000
0000
0000
,
0000
0000
0000
0030
,
0100
0010
1000
0001
,
0010
0100
0010
0001
,
1000
0001
0100
0010
,
2000
0000
0000
3000
;

//---------------dance-single - ----------------
#NOTEDATA:;
#CHARTNAME:;
#STEPSTYPE:dance-single;
#DESCRIPTION:;
#CHARTSTYLE:;
#DIFFICULTY:Easy;
#METER:4;
#RADARVALUES:0.251739,0.393343,0.068656,0.152569,0.000000,231.000000,222.000000,9.000000,20.000000,0.000000,0.000000,0.000000,0.000000,0.000000,0.251739,0.393343,0.068656,0.152569,0.000000,231.000000,222.000000,9.000000,20.000000,0.000000,0.000000,0.000000,0.000000,0.000000;
#CREDIT:;
#NOTES:
0000
0000
0000
0000
,
0000
0000
0000
0000
,
0000
0000
0000
0000
,
0000
0000
0000
0000
,
0000
0000
0000
0000
,
0000
0000
0000
0000
,
0000
0000
0000
0000
,
0000
0000
0000
0000
,
1000
0000
0000
1000
0000
0000
0000
0000
,
0001
0000
0100
0000
,
0010
0000
0000
0010
0000
0000
0000
0000
,
0000
0000
0100
0010
,
1000
0000
0000
0001
0000
0000
0000
0000
,
0010
0000
0001
0000
,
0100
0000
0000
0010
0000
0000
0000
0000
,
0000
0000
0100
0010
,
1000
0000
0000
0001
0000
0000
1000
0000
,
0000
0100
0000
0010
,
0100
0000
0000
0010
0000
0000
0000
0000
,
0000
0000
0100
1000
,
0001
0000
0000
0100
0000
0000
0010
0000
,
0000
0100
0000
0001
,
1000
0000
0000
0001
0000
0000
0000
0000
,
0010
0000
0001
0000
,
1001
0000
0001
0000
,
1000
0010
1000
0000
,
0010
0000
0100
0000
,
0001
0010
0001
0000
,
1000
0010
0000
0100
,
0001
0010
0000
0100
,
0010
0000
0000
0001
0000
0000
1000
0000
,
0001
0100
0010
1000
,
0001
0001
0001
0002
,
0000
1003
0001
0100
,
0010
1000
0010
0100
,
0001
0010
0100
0010
,
0002
0000
2003
3001
,
0100
0001
0100
0010
,
1010
1000
1010
0010
,
1000
1000
0001
0001
,
1000
0100
0010
0200
,
0000
0310
0001
1000
,
0010
0100
0001
0010
,
0100
0010
0001
1000
,
0002
0000
0203
0310
,
1000
0001
0010
0100
,
1100
1000
1100
0100
,
1000
0001
0100
0010
,
1000
0010
0100
0000
,
0010
0100
0000
0000
,
0010
1000
0001
0000
,
0010
0100
1000
0100
,
0010
0001
1000
0000
,
0001
0100
0000
0000
,
0010
0100
0001
0000
,
1000
0001
0010
0001
,
1000
0100
0001
0000
,
0001
0100
0000
0000
,
0010
0000
0000
0110
0000
0000
0000
0000
,
0010
0001
1000
0100
,
1000
0010
0001
0000
,
0010
0100
0000
0000
,
0010
0000
0000
1001
0000
0000
0000
0000
,
0001
0010
0100
1000
,
1001
0000
0000
0000
,
0000
0000
0000
0000
,
1000
0010
0100
0001
,
0000
1000
0100
1000
,
0020
0000
0200
0000
,
0000
0000
0330
0000
,
0010
0100
0001
1000
,
0000
0001
0010
0100
,
2000
0000
0000
3000
,
0100
1000
0010
0100
,
0001
0010
0001
2000
,
0000
3001
0100
0010
,
0200
0000
0002
0000
,
0000
0303
0000
0000
,
0001
1000
0010
1000
,
0000
0100
1000
0010
,
0200
0000
0000
0300
,
0010
1000
0001
0010
,
0200
0000
0020
0000
,
0330
0100
0010
0001
,
2000
0000
0000
0000
,
3000
0000
0000
0000
,
0002
0000
0200
0000
,
0303
0001
0100
0010
,
2000
0000
0000
0000
,
3000
0000
0000
0000
,
1001
0000
0000
0000
,
0001
0000
0000
0000
,
1000
0000
0000
0000
,
0020
0000
0000
0030
;

//---------------dance-single - ----------------
#NOTEDATA:;
#CHARTNAME:;
#STEPSTYPE:dance-single;
#DESCRIPTION:;
#CHARTSTYLE:;
#DIFFICULTY:Beginner;
#METER:2;
#RADARVALUES:0.100260,0.205969,0.061028,0.000000,0.000000,92.000000,84.000000,8.000000,0.000000,0.000000,0.000000,0.000000,0.000000,0.000000,0.100260,0.205969,0.061028,0.000000,0.000000,92.000000,84.000000,8.000000,0.000000,0.000000,0.000000,0.000000,0.000000,0.000000;
#CREDIT:;
#NOTES:
// measure 0
0000
0000
0000
0000
,  // measure 1
0000
0000
0000
0000
,  // measure 2
0000
0000
0000
0000
,  // measure 3
0000
0000
0000
0000
,  // measure 4
0000
0000
0000
0000
,  // measure 5
0000
0000
0000
0000
,  // measure 6
0000
0000
0000
0000
,  // measure 7
0000
0000
0000
0000
,  // measure 8
1000
0000
0000
0000
,  // measure 9
0001
0000
0000
0000
,  // measure 10
0100
0000
0000
0000
,  // measure 11
0000
0000
0000
0000
,  // measure 12
0010
0000
0000
0000
,  // measure 13
1000
0000
0000
0000
,  // measure 14
0100
0000
0000
0000
,  // measure 15
0000
0000
0000
0000
,  // measure 16
1001
0000
0000
0000
,  // measure 17
0001
0000
0000
0000
,  // measure 18
1000
0000
0000
0000
,  // measure 19
0000
0000
0000
0000
,  // measure 20
0110
0000
0000
0000
,  // measure 21
0010
0000
0000
0000
,  // measure 22
0100
0000
0000
0000
,  // measure 23
0000
0000
0000
0000
,  // measure 24
0001
0000
0000
0000
,  // measure 25
1000
0000
0000
0000
,  // measure 26
0010
0000
0000
0000
,  // measure 27
1000
0000
0000
0000
,  // measure 28
0100
0000
0000
0000
,  // measure 29
1000
0000
0000
0000
,  // measure 30
0001
0000
0000
0000
,  // measure 31
0100
0000
0000
0000
,  // measure 32
0010
0000
0000
0000
,  // measure 33
0000
0100
0000
0000
,  // measure 34
0010
0000
0000
0000
,  // measure 35
1000
0000
0000
0000
,  // measure 36
0001
0000
0000
0000
,  // measure 37
0000
0000
0000
0000
,  // measure 38
1000
0000
1000
0000
,  // measure 39
1000
0000
0000
0000
,  // measure 40
0010
0000
0000
0100
,  // measure 41
0000
0000
0001
0000
,  // measure 42
0010
0000
0000
0000
,  // measure 43
0100
0000
0000
0000
,  // measure 44
0010
0000
0000
0000
,  // measure 45
0001
0000
0000
0000
,  // measure 46
1000
0000
0001
0000
,  // measure 47
1000
0000
0000
0000
,  // measure 48
0010
0000
0000
0000
,  // measure 49
0100
0000
0000
0000
,  // measure 50
0001
0000
0000
0000
,  // measure 51
1000
0000
0001
0000
,  // measure 52
0100
0000
0000
0000
,  // measure 53
0010
0000
0000
0000
,  // measure 54
1000
0000
0000
0000
,  // measure 55
0100
0000
1000
0000
,  // measure 56
1001
0000
0000
0000
,  // measure 57
0110
0000
0000
0000
,  // measure 58
0000
0000
0000
0000
,  // measure 59
0000
0000
0000
0000
,  // measure 60
0110
0000
0000
0000
,  // measure 61
1001
0000
0000
0000
,  // measure 62
0000
0000
0000
0000
,  // measure 63
1000
0000
0001
0000
,  // measure 64
0110
0000
0000
0000
,  // measure 65
0000
0000
0000
0000
,  // measure 66
0010
0000
0100
0000
,  // measure 67
0000
0001
0000
0000
,  // measure 68
1000
0000
0001
0000
,  // measure 69
0000
0000
0000
0000
,  // measure 70
0100
0000
0000
0010
,  // measure 71
0000
0000
1000
0000
,  // measure 72
0001
0000
0000
0000
,  // measure 73
0000
0000
0000
0000
,  // measure 74
0010
0000
0001
0000
,  // measure 75
0000
1000
0000
0100
,  // measure 76
1000
0000
0000
0000
,  // measure 77
0000
0000
0000
0000
,  // measure 78
0001
0000
1000
0000
,  // measure 79
0000
0000
0010
0000
,  // measure 80
0100
0000
0000
0000
,  // measure 81
0000
0000
0000
0000
,  // measure 82
0010
0000
1000
0000
,  // measure 83
0000
0000
0001
0001
,  // measure 84
0001
0000
0000
0000
,  // measure 85
0000
0000
0000
0000
,  // measure 86
0010
0000
0100
0000
,  // measure 87
0000
0000
1000
1000
,  // measure 88
1000
0000
0000
0000
,  // measure 89
0000
0000
0000
0000
,  // measure 90
1001
0000
0000
0000
;
