#VERSION:0.83;
#TITLE:Kill The King;
#SUBTITLE:;
#ARTIST:Family Farce;
#TITLETRANSLIT:;
#SUBTITLETRANSLIT:;
#ARTISTTRANSLIT:;
#GENRE:;
#ORIGIN:;
#CREDIT:;
#BANNER:banner.png;
#BACKGROUND:background.png;
#PREVIEWVID:;
#JACKET:jacket.png;
#CDIMAGE:;
#DISCIMAGE:;
#LYRICSPATH:;
#CDTITLE:;
#MUSIC:Kill The King.ogg;
#OFFSET:0.000000;
#SAMPLESTART:60.519711;
#SAMPLELENGTH:11.314285;
#SELECTABLE:YES;
#BPMS:0.000=175.000;
#STOPS:46.000=0.343,
142.000=0.171;
#DELAYS:;
#WARPS:;
#TIMESIGNATURES:0.000=4=4;
#TICKCOUNTS:0.000=4;
#COMBOS:0.000=1;
#SPEEDS:0.000=1.000=0.000=0;
#SCROLLS:0.000=1.000;
#FAKES:;
#LABELS:0.000=Song Start;
#BGCHANGES:;
#KEYSOUNDS:;
#ATTACKS:
;

//---------------dance-single - ----------------
#NOTEDATA:;
#CHARTNAME:;
#STEPSTYPE:dance-single;
#DESCRIPTION:;
#CHARTSTYLE:;
#DIFFICULTY:Hard;
#METER:9;
#RADARVALUES:0.552704,0.940273,0.614867,0.151352,0.454055,409.000000,344.000000,65.000000,16.000000,0.000000,0.000000,0.000000,0.000000,0.000000,0.552704,0.940273,0.614867,0.151352,0.454055,409.000000,344.000000,65.000000,16.000000,0.000000,0.000000,0.000000,0.000000,0.000000;
#CREDIT:;
#NOTES:
0000
0000
0000
0000
,
0000
0000
0000
0000
,
0000
0000
0000
0000
,
0000
0000
0000
0000
,
1001
1001
0011
0011
,
1100
0000
0000
0000
1100
0000
0000
0000
1001
0000
0000
0001
0010
0000
0000
0000
,
0110
0110
1100
1100
,
0001
0001
1000
0000
,
0101
0101
1100
1100
,
1001
0000
0000
0000
1001
0000
0000
0000
0110
0000
0000
1000
0010
0000
0000
0000
,
0101
0101
0011
0011
,
0001
0000
0000
0010
0000
0000
0100
0000
0000
1000
0000
0000
0000
0000
1000
0000
0001
0000
0000
0000
0000
0000
0000
0000
0101
0000
0000
0000
0000
0000
0000
0000
,
0011
1100
1001
1010
,
0011
0000
0000
0000
0110
0000
0000
0010
0001
0000
0000
0000
0101
0000
0000
0000
,
1010
0000
0000
1000
0001
0000
0000
0001
0010
0000
0000
0010
0100
0000
0000
2000
,
0010
3000
0000
0020
0100
0030
0000
0000
0000
0000
0000
1000
0001
0000
0000
0000
,
0011
0110
0011
1001
,
1010
0000
0000
0000
0101
0000
0000
0001
0010
0000
0000
0000
1100
0000
0000
0000
,
0011
0000
0000
0000
0000
0000
0000
0000
0101
0000
0000
0000
0000
0000
0000
0000
0110
0000
0000
0000
0000
0000
0000
0000
0010
0000
0000
1000
0000
0000
0001
0000
,
0000
1000
0000
0001
2000
0000
0000
0000
3000
0000
0000
0000
0011
0000
0000
0000
,
0011
0001
0100
0110
,
0110
0010
0100
1010
,
1010
1000
0001
1100
,
1100
0001
1000
0101
,
0101
1010
1010
1100
,
1100
0000
0000
0000
0000
0000
0000
0000
0011
0000
0000
0000
0000
0000
0010
0000
0100
0000
0000
0000
0000
0000
0000
0000
1000
0000
0000
0001
0000
0000
0010
0000
,
0000
0100
0000
0000
0010
0000
0000
0001
0000
0000
1000
0000
0000
0010
0000
0000
0100
0000
0000
0010
0000
0000
1000
0000
0001
0000
0000
0000
0000
0000
1000
0000
,
0010
0000
0000
0100
0001
0000
0000
0000
0010
0100
0010
0100
0020
0000
0000
0000
,
0000
0000
0000
0000
,
0000
0032
0000
2003
,
0000
0000
0000
0000
,
0000
3020
0000
2030
,
0000
0000
0000
0000
,
0000
0000
0000
0200
,
0000
0000
0000
0000
,
0000
0000
3300
0011
,
0011
0001
0100
0010
,
1000
0000
0000
0000
0001
0000
0000
1000
0010
0000
0000
0000
0101
0000
0000
0000
,
0101
0001
0010
0100
,
0010
0000
0000
0000
0001
0000
0000
1000
0001
0000
0000
0001
0010
0000
0000
0000
,
0110
0100
0010
0001
,
1000
0000
0000
0000
0010
0000
0000
0100
0001
0000
0000
0000
1001
0000
0000
0000
,
1001
0010
0100
0010
,
0001
0000
1000
0020
0000
0030
1001
0000
,
0000
0000
0001
0100
0001
0000
0000
0000
0000
0000
0100
0000
0010
0000
1000
0001
,
1000
0000
0001
0000
0010
0000
0000
0000
0000
0000
0000
0100
1000
0000
0100
0000
,
1000
0000
0010
0000
0100
0001
0100
0000
0001
0000
1000
0000
0001
0010
0001
0000
,
1000
0000
0001
0000
1000
0000
0000
0000
0020
0000
0000
0000
0130
0001
0100
0000
,
0001
0000
0010
0000
0100
1000
0100
1000
0100
0000
1000
0000
0010
1000
0010
1000
,
0010
0000
0100
0000
0001
1000
0001
1000
0020
0000
0000
0000
0130
0000
0010
0000
,
1000
0000
0001
0000
0010
0100
0010
0100
0010
0000
0100
0000
0010
0001
0100
0010
,
1000
0000
0100
0000
0010
0000
0100
0000
1000
0000
0000
0001
0000
0000
0100
0000
0020
0000
0000
0000
0000
0000
0000
0000
0000
0000
0000
0000
0000
0000
0000
0000
,
0000
0000
0000
0000
,
0030
0000
0000
0000
,
0000
0000
0000
0000
,
0000
0000
0000
0000
,
1000
0000
1000
0000
,
0001
0000
0001
0000
,
1000
1000
1000
1000
,
0001
0001
0001
0001
,
1001
0000
0001
0100
0001
0100
0010
1000
0010
0000
0100
0010
0100
0000
0010
0000
,
1000
0010
1000
0010
1000
0010
1000
0010
1000
0000
1000
0001
1000
0000
0001
0000
,
0100
0001
0100
0001
0100
0001
0100
0001
0100
0000
0010
0000
1000
0000
0001
1000
,
0001
0000
0000
0000
0010
0000
0000
0000
0001
0000
0000
0010
0000
0000
0100
0000
1000
0000
0001
0000
1000
0000
0001
0000
0200
0000
0000
0000
0000
0000
0000
0000
,
0310
0000
1000
0000
0001
0010
0001
0010
0001
0000
1000
0000
0010
0100
0010
0100
,
0010
0000
1000
0000
0001
0010
0001
0010
0001
0000
1000
0000
0001
0000
0000
0100
,
0010
1000
0010
1000
0010
1000
0010
1000
0010
1000
0010
1000
0010
1000
0010
1000
,
0001
0000
0000
0010
0000
0000
0100
0000
0000
0010
0000
0000
0001
0000
0000
1000
0000
0000
0010
0000
0000
0100
0000
0000
0010
0000
0000
2000
0000
0002
0000
0000
,
0000
0000
0000
0000
,
0000
0000
0000
0000
,
0000
0000
0000
0000
,
3003
0000
0000
0000
;

//---------------dance-single - ----------------
#NOTEDATA:;
#CHARTNAME:;
#STEPSTYPE:dance-single;
#DESCRIPTION:;
#CHARTSTYLE:;
#DIFFICULTY:Medium;
#METER:7;
#RADARVALUES:0.406758,0.652704,0.236487,0.104054,0.146622,301.000000,276.000000,25.000000,11.000000,2.000000,0.000000,2.000000,0.000000,0.000000,0.406758,0.652704,0.236487,0.104054,0.146622,301.000000,276.000000,25.000000,11.000000,2.000000,0.000000,2.000000,0.000000,0.000000;
#CREDIT:;
#NOTES:
0000
0000
0000
0000
,
0000
0000
0000
0000
,
0000
0000
0000
0000
,
0000
0000
0000
0000
,
1000
0001
0010
0001
,
0100
0000
0000
0000
0010
0000
0000
0000
1000
0000
0000
0010
1000
0000
0000
0000
,
0100
1000
0001
0100
,
0110
0110
1001
0000
,
0001
0010
0001
0100
,
0010
0000
0000
0000
1000
0000
0000
0000
0001
0000
0000
1000
0100
0000
0000
0000
,
1000
0000
0000
0000
0010
0000
0000
0100
0001
0000
0000
0000
1000
0000
0000
0000
,
0001
0000
1010
1000
,
0010
0100
0001
0010
,
0100
0000
0000
0000
0010
0000
0000
0001
0100
0000
0000
0000
0010
0000
0000
0000
,
1000
0000
0000
0001
0010
0000
0000
0010
0100
0000
0000
0100
1000
0000
0000
1000
,
0002
0003
0000
0001
0200
0300
0000
0000
0000
0000
0000
0000
0010
0000
0000
0000
,
1000
0010
0100
0001
,
1000
0000
0000
0000
0001
0000
0000
0001
0100
0000
0000
0000
0010
0000
0000
0000
,
0100
0000
0000
0000
0000
0000
0000
0000
0010
0000
0000
0000
0000
0000
0000
0000
1000
0000
0000
0000
0000
0000
0000
0000
0001
0000
0000
1000
0000
0000
0010
0000
,
0000
0100
0000
0000
0000
0000
0001
0000
0010
0000
0000
0000
0000
0000
0000
0000
0000
0000
0000
0000
0000
0000
0000
0000
0110
0000
0000
0000
0000
0000
0000
0000
,
0110
0010
0001
1001
,
1001
0001
1000
1010
,
1010
1000
0010
0110
,
0110
0010
1001
0011
,
0011
1100
1100
0101
,
0101
1010
1010
4004
,
0000
0000
0000
0000
0000
0000
0000
0000
3003
0000
0000
0000
0101
0000
0000
0001
,
0100
0000
0000
0010
1000
0000
0000
0000
0002
0000
0000
0000
0013
0000
0000
0000
,
0000
0000
0000
0000
,
0000
0100
0000
1000
,
0000
0000
0000
0000
,
0000
0010
0000
0100
,
0000
0000
0000
0000
,
0000
0000
0000
1001
,
0000
0000
0000
M000
,
0000
000M
0000
0000
1001
0000
0001
0000
,
1000
0010
1000
0100
,
0010
0000
0000
0000
0001
0000
0000
0001
0010
0000
0000
0000
0001
0000
0000
0000
,
1000
0010
0100
0001
,
0100
0000
0000
0000
0010
0000
0000
0010
1000
0000
0000
1000
0001
0000
0000
0000
,
1000
0100
1000
0010
,
0100
0000
0000
0000
0001
0000
0000
0001
1000
0000
0000
0000
0100
0000
0000
0000
,
1000
0010
0100
0001
,
1000
0000
0001
0020
0000
0000
0130
0000
,
0000
0010
0001
0000
0000
0010
0001
0100
,
1000
0100
0010
0000
0000
0000
0100
0100
,
0010
1000
0001
0001
1000
0100
0010
0010
,
0100
1000
0001
0000
2000
0000
3010
0100
,
0001
0001
0010
0100
0010
0010
0001
1000
,
0100
0100
1000
0001
0020
0000
0130
0010
,
0001
1000
0010
0100
0001
1000
0200
0000
,
2300
0000
0000
0000
0000
0000
0000
0000
3010
0000
0000
0100
0000
0000
0010
0000
2000
0000
0000
0000
0000
0000
0000
0000
0000
0000
0000
0000
0000
0000
0000
0000
,
0000
0000
3000
0000
,
0000
0000
0000
0000
,
0000
0000
0000
0000
,
0000
0000
0000
0000
,
0001
0000
0001
0000
,
1000
0000
1000
0000
,
0001
1000
0001
1000
,
0010
0100
0010
0100
,
0001
0100
0010
1000
0100
0010
0100
1000
,
0001
1000
0001
1000
0010
1000
0001
0010
,
0100
0010
0100
0010
0001
0100
0010
1000
,
0001
1000
0100
0010
0100
1000
0020
0000
,
0130
0100
0001
1000
0100
0100
1000
1000
,
0100
0000
1000
0000
0010
0000
0100
0000
0001
0000
0001
0000
0010
0000
0000
0010
,
0100
0010
0001
0100
0010
1000
0001
0010
,
0100
0000
1000
0000
0000
0100
0000
0000
1000
0000
0000
0100
0000
0000
1000
0000
0000
0100
0000
0000
1000
0000
0000
0100
0000
0000
1000
0000
0000
0020
0000
0000
,
0000
0000
0000
0000
,
0030
0000
0000
0000
;

//---------------dance-single - X----------------
#NOTEDATA:;
#CHARTNAME:;
#STEPSTYPE:dance-single;
#DESCRIPTION:X;
#CHARTSTYLE:;
#DIFFICULTY:Edit;
#METER:10;
#RADARVALUES:0.639191,1.043943,0.794597,0.122973,0.482434,473.000000,389.000000,84.000000,13.000000,16.000000,0.000000,0.000000,0.000000,0.000000,0.639191,1.043943,0.794597,0.122973,0.482434,473.000000,389.000000,84.000000,13.000000,16.000000,0.000000,0.000000,0.000000,0.000000;
#CREDIT:;
#OFFSET:0.000000;
#BPMS:0.000000=43.750000
,4.000000=175.000000
,16.000000=350.000000
,19.000000=175.000000
,46.000000=350.000000
,49.000000=175.000000
,92.000000=350.000000
,97.000000=43.750000
,104.750000=175.000000
,168.000000=87.500000
,185.000000=350.000000
,248.000000=175.000000
;
#STOPS:16.000000=0.171429
,17.000000=0.171429
,18.000000=0.514285
,33.000000=0.343000
,46.000000=0.171429
,47.000000=0.171429
,48.000000=0.514286
,63.000000=0.342857
,92.000000=0.171429
,93.000000=0.171429
,94.000000=0.171429
,104.750000=0.433859
;
#DELAYS:;
#WARPS:;
#TIMESIGNATURES:0.000000=4=4
;
#TICKCOUNTS:0.000000=4
;
#COMBOS:0.000000=1
;
#SPEEDS:0.000000=1.000000=0.000000=0
;
#SCROLLS:0.000000=1.000000
;
#FAKES:;
#LABELS:0.000000=Song Start
;
#NOTES:
0000
0000
0000
0000
0000
0000
0000
0000
0000
0000
0000
0000
0000
0000
0000
0000
0000
0000
0000
0000
0000
0000
0000
0000
00MM
0000
0MM0
0000
MM00
MM00
MM00
0000
,
1001
0000
0000
0000
0011
0000
0000
1000
0100
0000
0000
0000
0011
0000
0000
0001
,
0100
0000
0000
0000
1010
0000
0000
1000
0001
0000
0000
0010
0100
0000
0000
0000
,
1010
0000
0000
0000
0101
0000
0000
0001
0010
0000
0000
0000
1100
0000
0000
0000
,
1001
0110
1001
1010
,
0101
0000
0000
0001
0010
0000
0000
0000
0110
0000
0000
0100
1000
0000
0000
0000
,
1001
0000
0000
0100
0001
0000
0000
0010
1000
0000
0000
0000
1001
0000
0000
0000
,
0011
0000
0000
0000
0000
0000
0100
0000
1000
0000
0000
0000
0000
0000
0000
0000
1010
0000
0000
0000
0000
0000
0000
0000
0010
0000
0000
0100
0000
0000
0010
0000
,
0000
1000
0000
0000
0000
0000
0001
0000
1000
0000
0000
0000
0000
0000
0000
0000
0011
0000
0000
0000
0000
0000
0000
0000
1100
0000
0000
0000
0000
0000
1000
0000
,
0010
0000
0000
0000
0110
0000
0000
0100
0001
0000
0000
0000
0011
0000
0000
0010
,
0100
0000
0000
0100
0010
0000
0000
0000
0110
0000
0000
0000
1100
0000
0000
1000
,
0100
0000
0000
0010
0001
0000
0000
1000
0200
0300
0010
0000
0002
0003
0100
0000
,
0010
0000
1000
0000
0001
0000
0000
0000
1010
0000
0000
0001
0010
0000
0000
0000
,
0110
0000
0000
0100
1000
0000
0000
0000
1001
0000
0000
0001
0100
0000
0000
0100
,
0010
0000
0000
0000
0110
0000
0000
0000
1010
0000
0000
1000
0010
0000
0000
0010
,
0100
0000
0000
0000
0000
0000
0100
0000
0010
0000
0000
0100
0000
0000
0001
0000
0000
1000
0000
0000
0000
0000
0001
0000
0200
0000
0000
0000
0300
0000
0000
0000
,
1001
1001
0010
0100
,
0110
0000
0000
0000
0110
0000
0000
0000
1001
0000
0000
0001
0010
0000
0000
0000
,
1100
1100
0010
0001
,
0101
0000
0000
0000
0101
0000
0000
0000
1010
0000
0000
1000
0010
0000
0000
0000
,
1001
1001
1001
1001
,
0110
0000
0000
0000
0110
0000
0000
0000
0110
0000
0000
0010
1000
0000
0000
0000
,
0100
0000
0000
0010
0000
0000
1000
0000
0000
0001
0000
0000
0010
0000
0000
0100
0000
0000
0010
0000
0000
0001
0000
0000
0100
0000
0000
1000
0000
0000
0100
0000
,
0010
0000
0000
1000
0000
0000
0200
0000
0000
0310
0000
0000
0002
0000
0000
0003
0000
0000
1000
0000
0001
0000
1000
0000
,
0001
0000
1000
0000
0001
0000
0200
0000
0000
0000
0000
0000
0000
0000
0000
0320
0000
0000
2030
0000
0000
0000
0000
0000
,
0000
3002
2003
0000
0000
0000
0200
0000
,
00MM
0000
0000
00MM
0000
0000
3300
MM00
1001
0000
0000
0000
0000
0000
0000
0000
0101
0000
0000
0000
0000
0000
0000
0000
0011
0000
0000
0000
0000
0000
0000
0000
,
1100
0000
0000
0000
1001
0000
0000
0000
1010
0000
0000
0000
0101
0000
0000
0001
,
0010
0110
0011
0101
,
1010
0000
0000
0000
1001
0000
0000
0000
0011
0000
0000
0000
1100
0000
0000
1000
,
0010
0000
0000
0010
0100
0000
0000
0000
0110
0000
0000
0000
1010
0000
0000
0000
,
0101
0000
0000
0000
0011
0000
0000
0000
0110
0000
0000
0000
1001
0000
0000
0100
,
0010
1010
0101
0011
,
0110
0000
0000
0000
0000
0000
1100
0000
0000
0000
0000
0000
1001
0000
0000
0000
0000
0000
0100
0000
0000
0001
0100
0001
,
0100
0000
0001
0000
0100
0000
0001
0000
0100
0000
0001
0000
0010
0000
0000
0000
0000
0000
0000
0000
0000
0000
0000
0000
0000
0000
0000
0000
0000
0000
0100
0000
0000
1000
0000
0000
0001
0000
0000
0000
0000
0000
0000
0000
0000
0000
0000
0000
,
0000
0000
0100
0000
1001
0000
0001
0100
0010
0000
1000
0000
0101
0000
0000
0000
,
0000
0000
0000
0000
0000
0000
0010
0000
0001
0000
0010
0000
0001
0000
0000
0000
0000
0000
1000
0000
0000
0000
0000
0000
0110
0000
0000
0000
0000
0000
0100
0000
0000
0000
0000
0000
0001
0000
0000
1000
0000
0000
0100
0000
0000
0000
0000
0000
,
0110
0000
0100
0000
1000
0010
0100
0000
0001
0000
0010
0000
1001
0000
0000
0000
,
1000
0000
0010
0000
1000
0000
0010
0000
1000
0000
0010
0000
0100
0000
0000
0000
0000
0000
0010
0000
0000
0000
0000
0000
1010
0000
0000
0000
0000
0000
0101
0000
0000
0000
0000
0000
0001
0000
0000
0010
0000
0000
0100
0000
0000
0010
0000
0000
,
0100
0000
0011
0000
0010
0001
1000
0010
1000
0000
0101
0000
0001
1000
0001
0100
,
0010
0000
0100
0000
0010
0000
0100
0000
0010
0000
0100
0000
0010
0000
0000
0000
0000
0000
1000
0000
0000
0000
0000
0000
0011
0000
0000
0000
0000
0000
0110
0000
0000
0000
0000
0000
0100
0000
0000
1000
0000
0000
0010
0000
0000
0100
0000
0000
,
0001
0000
0000
0000
0000
0000
0000
0000
0000
0000
0000
0000
0000
0000
0000
0000
0000
0000
0000
0000
0000
0000
0000
0000
1000
0000
0000
0000
0000
0000
0000
0000
0000
0000
0000
0000
0000
0000
0000
0000
0000
0000
0000
0000
0000
0000
0000
0000
0001
0000
0000
0000
0000
0000
0000
0000
0100
0000
0000
0000
0000
0000
0000
0000
0001
0000
0000
0000
0000
0000
0000
0000
0100
0000
0000
0000
0000
0000
0000
0000
0001
0000
0000
0000
0000
0000
0000
0000
0100
0000
0000
0000
0000
0000
0000
0000
0001
0000
0000
0000
0000
0000
0000
0000
1000
0000
0000
0000
0000
0000
0000
0000
0010
0000
0000
0000
0000
0000
0000
0000
1000
0000
0000
0000
0000
0000
0000
0000
0010
0000
0000
0000
0000
0000
0000
0000
1000
0000
0000
0000
0000
0000
0000
0000
0010
0000
0000
0000
0000
0000
0000
0000
0000
0000
0000
0000
0000
0000
0000
0000
0000
0000
0100
0000
0000
0000
0000
0000
0000
0000
0000
0000
0000
0000
0000
0000
0000
0000
0000
0000
0001
0000
0000
0000
0000
0000
0000
0000
0000
0000
0000
0000
,
1001
0000
0000
0000
,
0000
0000
0000
0000
,
0000
0100
0100
0100
,
0100
0000
0010
0010
0010
0010
0100
0100
,
0100
0100
1001
0000
1000
0010
1000
0010
,
0100
0001
0010
0000
0100
0010
0001
0000
,
1000
0000
0001
0100
0010
1000
0100
0010
,
0100
1000
0001
0000
1000
0001
1000
0000
,
0001
0000
0100
0010
1000
0010
0100
0001
,
0010
0100
1000
0000
1000
0000
0001
0000
,
1000
0000
0000
0000
0001
0000
0000
0000
1000
0000
0000
0000
0001
0000
0000
0000
0000
0000
0000
0000
0000
0000
0000
0000
0100
0000
0000
0000
0000
0000
0000
0000
0000
0000
0000
0000
0010
0000
0000
0000
0000
0000
0000
0000
0000
0100
0000
0000
,
0000
0001
1000
0100
0010
0100
2000
0000
,
0000
0000
3001
0000
0010
0000
0100
0010
,
0001
1000
0001
0000
0100
0000
0001
0010
,
0100
0010
0001
0000
1000
0000
0010
0100
,
0010
1000
0100
0000
0010
0000
0010
0000
,
0000
0100
0010
0001
1000
0010
0100
0001
,
0010
0100
0010
0001
1000
0010
0100
0001
,
0010
0000
0100
0000
1000
0000
0100
0000
0010
0000
0000
0001
0000
0000
0010
0000
,
0000
0100
0000
0000
1000
0000
0000
0010
0000
0000
0100
0000
0000
0001
0000
0000
,
0000
2000
0000
0000
0000
0000
0000
0000
0000
0000
0000
0000
0000
0000
0000
0000
,
0000
3000
0000
0000
0000
0000
0000
0000
0000
0000
0000
0000
0000
0000
0000
0000
;

//---------------dance-single - ----------------
#NOTEDATA:;
#CHARTNAME:;
#STEPSTYPE:dance-single;
#DESCRIPTION:;
#CHARTSTYLE:;
#DIFFICULTY:Easy;
#METER:5;
#RADARVALUES:0.341893,0.577856,0.472974,0.047297,0.004730,253.000000,203.000000,50.000000,5.000000,0.000000,0.000000,0.000000,0.000000,0.000000,0.341893,0.577856,0.472974,0.047297,0.004730,253.000000,203.000000,50.000000,5.000000,0.000000,0.000000,0.000000,0.000000,0.000000;
#CREDIT:;
#NOTES:
0000
0000
0000
0000
,
0000
0000
0000
0000
,
0000
0000
0000
0000
,
0000
0000
0000
0000
,
1000
0001
1000
0001
,
1000
0001
0010
0010
,
0001
1000
0001
0001
,
0101
1010
0101
0000
,
0100
0010
0100
0010
,
0100
0010
0100
0100
,
0010
0100
0010
1000
,
1001
0110
1001
1000
,
0001
0010
0001
0100
,
0010
1000
0010
0100
,
0001
0010
0100
0110
,
0011
0110
0000
0100
,
1000
0010
0100
0010
,
1000
0001
0010
0100
,
0010
0001
1000
1001
,
1001
0110
0000
1010
,
1010
0000
0000
0101
,
0101
0000
0000
0011
,
0011
0000
0000
1100
,
1100
0000
1001
0001
,
0001
1000
1000
0010
,
0010
0100
0100
0010
,
1000
0001
0100
1001
,
0110
1001
0020
1030
,
0000
0000
0000
0000
,
0000
0000
0000
0000
,
0000
0000
0000
0000
,
0000
0000
0000
0000
,
0000
0000
0000
0000
,
0000
0000
0000
0000
,
0000
0000
0000
0000
,
0000
0000
1001
1000
,
0001
1000
0001
1000
,
0001
1000
1001
0010
,
0100
0010
0100
0010
,
0100
0010
0110
1001
,
0001
0100
0010
1000
,
0010
0100
0101
0001
,
0010
0100
0010
0001
,
1000
0000
0001
0200
0000
0300
1010
0000
,
0000
0101
0000
0001
,
1000
1100
0000
1001
,
0001
0011
0001
1001
,
1000
1010
0020
0130
,
1000
1010
0010
0101
,
0001
1001
0200
0301
,
0010
0011
0100
1100
,
0011
0110
1001
0000
,
0000
0000
0000
0000
,
0000
0000
0000
0000
,
0000
0000
0000
0000
,
0000
0000
0000
0000
,
1000
0000
1000
0000
,
1000
0000
1000
0000
,
0001
0001
0001
0001
,
1000
1000
1000
1000
,
1001
0000
0001
0000
0100
0001
0100
0000
,
0001
0000
0100
0000
0010
1000
0010
0000
,
0100
0000
0010
0000
1000
0001
1000
0000
,
0001
0000
0010
0000
0100
0010
0002
0000
,
0013
0000
0001
0000
0010
0100
1000
0000
,
0100
0000
1000
0010
0100
0000
0001
0000
,
1000
0001
1000
0001
1000
0001
1000
0001
,
1001
0000
0000
0000
0110
0000
0000
0000
1001
0000
0000
0110
0000
0000
1001
0000
;

//---------------dance-single - ----------------
#NOTEDATA:;
#CHARTNAME:;
#STEPSTYPE:dance-single;
#DESCRIPTION:;
#CHARTSTYLE:;
#DIFFICULTY:Beginner;
#METER:2;
#RADARVALUES:0.113514,0.256352,0.047297,0.000000,0.000000,84.000000,79.000000,5.000000,0.000000,0.000000,0.000000,0.000000,0.000000,0.000000,0.113514,0.256352,0.047297,0.000000,0.000000,84.000000,79.000000,5.000000,0.000000,0.000000,0.000000,0.000000,0.000000,0.000000;
#CREDIT:;
#NOTES:
// measure 0
0000
0000
0000
0000
,  // measure 1
0000
0000
0000
0000
,  // measure 2
0000
0000
0000
0000
,  // measure 3
0000
0000
0000
0000
,  // measure 4
1000
0000
0000
0000
,  // measure 5
0001
0000
0000
0000
,  // measure 6
1000
0000
0000
0000
,  // measure 7
0010
0010
0010
0000
,  // measure 8
0100
0000
0000
0000
,  // measure 9
0010
0000
0000
0000
,  // measure 10
1000
0000
0000
0000
,  // measure 11
0001
0001
1000
0001
,  // measure 12
0000
0000
0000
0100
,  // measure 13
0000
0000
0000
0010
,  // measure 14
0000
0000
0000
1000
,  // measure 15
1000
1000
0000
0001
,  // measure 16
0000
0000
0000
0010
,  // measure 17
0000
0000
0000
0100
,  // measure 18
0000
0010
0000
1001
,  // measure 19
0000
0000
0000
1000
,  // measure 20
1000
0000
0000
0001
,  // measure 21
0001
0000
0000
1000
,  // measure 22
1000
0000
0000
0001
,  // measure 23
0001
0000
1001
0010
,  // measure 24
0000
0000
0000
0100
,  // measure 25
0000
0000
0000
0010
,  // measure 26
0000
1000
0000
0001
,  // measure 27
0001
0001
1000
0110
,  // measure 28
0000
0000
0000
0000
,  // measure 29
0000
0000
0000
0000
,  // measure 30
0000
0000
0000
0000
,  // measure 31
0000
0000
0000
0000
,  // measure 32
0000
0000
0000
0000
,  // measure 33
0000
0000
0000
0000
,  // measure 34
0000
0000
0000
0000
,  // measure 35
0000
0000
0000
1000
,  // measure 36
0000
0000
0000
0000
,  // measure 37
0000
0010
0000
0100
,  // measure 38
0000
0000
0000
0000
,  // measure 39
0000
0001
0000
0010
,  // measure 40
0000
0000
0000
0000
,  // measure 41
0000
0000
0000
0100
,  // measure 42
0000
0000
0000
0000
,  // measure 43
0000
0000
0000
1001
,  // measure 44
0000
0001
0000
1000
,  // measure 45
1000
1000
0000
0010
,  // measure 46
0000
0100
0000
0001
,  // measure 47
0000
1000
0000
0100
,  // measure 48
0000
1000
0000
0010
,  // measure 49
0000
0100
0000
0010
,  // measure 50
0000
1000
0000
0001
,  // measure 51
0001
1000
0110
0000
,  // measure 52
0000
0000
0000
0000
,  // measure 53
0000
0000
0000
0000
,  // measure 54
0000
0000
0000
0000
,  // measure 55
0000
0000
0000
0000
,  // measure 56
0000
0000
0000
0000
,  // measure 57
0000
0000
0000
0000
,  // measure 58
0000
0000
0000
0000
,  // measure 59
0000
0000
0000
0000
,  // measure 60
0010
0000
0000
0000
,  // measure 61
1000
0000
0000
0000
,  // measure 62
0100
0000
0000
0000
,  // measure 63
1000
0000
0001
0000
,  // measure 64
0100
0000
0000
0000
,  // measure 65
0010
0000
0000
0000
,  // measure 66
1000
0000
0001
0000
,  // measure 67
0100
0100
0100
0100
;

//---------------dance-double - ----------------
#NOTEDATA:;
#CHARTNAME:;
#STEPSTYPE:dance-double;
#DESCRIPTION:;
#CHARTSTYLE:;
#DIFFICULTY:Challenge;
#METER:9;
#RADARVALUES:0.548650,0.927030,0.671623,0.113514,0.430407,406.000000,335.000000,71.000000,12.000000,0.000000,0.000000,0.000000,0.000000,0.000000,0.548650,0.927030,0.671623,0.113514,0.430407,406.000000,335.000000,71.000000,12.000000,0.000000,0.000000,0.000000,0.000000,0.000000;
#CREDIT:;
#NOTES:
00000000
00000000
00000000
00000000
,
00000000
00000000
00000000
00000000
,
00000000
00000000
00000000
00000000
,
00000000
00000000
00000000
00000000
,
10100000
01010000
00110000
00101000
,
00011000
00000000
00000000
00000000
00001100
00000000
00000000
00000000
00000110
00000000
00000000
00000010
00000001
00000000
00000000
00000000
,
00000101
00001010
00001100
00000011
,
00001001
00010010
00011000
00000000
,
00101000
00110000
10100000
11000000
,
00110000
00000000
00000000
00000000
01001000
00000000
00000000
00000000
00011000
00000000
00000000
00010000
00000100
00000000
00000000
00000000
,
00001010
00001100
00000011
00001001
,
00000001
00000000
00000000
00000100
00000000
00000000
00000010
00000000
00000000
00001000
00000000
00000000
00000000
00000000
00000100
00000000
00010000
00000000
00000000
00000000
00000000
00000000
00000000
00000000
00011000
00000000
00000000
00000000
00000000
00000000
00000000
00000000
,
00110000
01100000
11000000
01100000
,
00110000
00000000
00000000
00000000
00101000
00000000
00000000
00010000
00001000
00000000
00000000
00000000
00011000
00000000
00000000
00000000
,
00001100
00000000
00000000
00000100
00000010
00000000
00000000
00000010
00000001
00000000
00000000
00000000
00001001
00000000
00000000
00000002
,
00000103
00000000
00000000
00000020
00001030
00000000
00000000
00000000
00000000
00000000
00000000
00000001
00001000
00000000
00000000
00000000
,
00001010
00001100
00010100
00011000
,
00101000
00000000
00000000
00000000
00110000
00000000
00000000
01000000
10000000
00000000
00000000
00000000
10010000
00000000
00000000
00000000
,
10100000
00000000
00000000
00000000
00000000
00000000
00000000
00000000
01010000
00000000
00000000
00000000
00000000
00000000
00000000
00000000
00110000
00000000
00000000
00000000
00000000
00000000
00000000
00000000
00001000
00000000
00000000
00010000
00000000
00000000
00000100
00000000
,
00000000
00001000
00000000
00000000
00000000
00000000
00000010
00000000
00000200
00000000
00000000
00000000
00000300
00000000
00000000
00000000
00000000
00000000
00000000
00000000
00000000
00000000
00000000
00000000
00001001
00000000
00000000
00000000
00000000
00000000
00000000
00000000
,
00001001
00000001
00000100
00001010
,
00001010
00002000
00003100
00010100
,
00010100
00010000
00001000
00110000
,
00110000
00200000
01300000
10010000
,
10010000
00110000
00110000
00101000
,
00101000
00000000
00000000
00000000
00000000
00000000
00000000
00000000
00011000
00000000
00000000
00000000
00000000
00000000
00000000
00000000
00011000
00000000
00000000
00000000
00000000
00000000
00000000
00000000
00001000
00000000
00000000
00010000
00000000
00000000
00000100
00000000
,
00000000
00010000
00000000
00000000
00001000
00000000
00000000
01000000
00000000
00000000
00010000
00000000
00000000
00100000
00000000
00000000
00001000
00000000
00000000
00010000
00000000
00000000
00000100
00000000
00000000
00000000
00000000
00000000
00000000
00000000
00001000
00000000
,
00000010
00000000
00000000
00000100
00000001
00000000
00000000
00000000
00001000
00000001
00001000
00000001
00001000
00000000
00000000
00000000
,
00000000
00000000
00000000
00000000
,
00000000
00000000
00000000
00000000
,
00000000
00000000
00000000
00000000
,
00000000
00000000
00000000
00000000
,
00000000
00000000
00000000
00000000
,
00000000
00000000
00000000
00000000
,
00000000
00000000
00000000
00000000
,
00000000
00000000
00011000
00101000
,
00101000
00001000
00100000
10000000
,
00100000
00000000
00000000
00000000
00010000
00000000
00000000
01000000
00010000
00000000
00000000
00000000
01010000
00000000
00000000
00000000
,
01010000
01000000
00010000
00100000
,
00001000
00000000
00000000
00000000
00010000
00000000
00000000
00001000
00010000
00000000
00000000
00010000
00000100
00000000
00000000
00000000
,
00001100
00001000
00000010
00000001
,
00000010
00000000
00000000
00000000
00001000
00000000
00000000
00000001
00001000
00000000
00000000
00000000
00001010
00000000
00000000
00000000
,
00001010
00001000
00000001
00001000
,
00000100
00000000
00010000
00002000
00000000
00000000
01003000
00000000
,
00000000
00000000
00100000
10000000
00100000
00000000
00000000
00000000
00000000
00000000
10000000
00000000
00010000
00000000
00100000
00001000
,
00100000
00000000
00001000
00000000
00010000
00000000
00000000
00000000
00000000
00000000
00000000
00001000
00010000
00000000
00000100
00000000
,
00001000
00000000
00000010
00000000
00000100
00000001
00000100
00000000
00000001
00000000
00000010
00000000
00000100
00000010
00000100
00000000
,
00000010
00000001
00001000
00000000
00000020
00000000
00001030
00000100
,
00010000
00000000
00001000
00000000
00100000
00010000
00100000
00010000
00100000
00000000
00001000
00000000
00010000
00000100
00010000
00000100
,
00010000
00000000
00010000
00000000
00001000
01000000
00001000
01000000
00002000
00000000
00000000
00000000
00013000
00000000
00000100
00000000
,
00001000
00000000
00000010
00000000
00000100
00000001
00000100
00000001
00000100
00000000
00000010
00000000
00001000
00000010
00010000
00001000
,
00010000
00000000
00001000
00000000
00100000
00000000
01000000
00000000
10000000
00000000
00000000
01000000
00000000
00000000
00100000
00000000
00010000
00000000
00000000
00000000
00000000
00000000
00000000
00000000
00000000
00000000
00000000
00000000
00000000
00000000
00000000
00000000
,
00000000
00000000
00000000
00000000
,
00000000
00000000
00000000
00000000
,
00000000
00000000
00000000
00000000
,
00000000
00000000
10000000
00000000
,
10000000
00000000
00010000
00000000
,
00010000
00000000
00100000
00000000
,
00100000
00100000
00001000
00001000
,
00010000
00010000
00000100
00000100
,
00001100
00000000
00001000
00000010
00001000
00000010
00001000
00000001
00000100
00000000
00000010
00001000
00000100
00000000
00010000
00000000
,
00001000
00010000
00001000
00010000
00001000
00010000
00001000
00100000
00010000
00000000
01000000
10000000
00100000
00000000
01000000
00000000
,
00010000
10000000
00010000
10000000
00010000
10000000
00010000
00100000
00010000
00000000
10000000
00000000
10000000
00000000
00200000
00300000
,
01000000
00000000
00000000
00000000
00010000
00000000
00000000
00000000
00100000
00000000
00000000
00001000
00000000
00000000
00010000
00000000
00000100
00000000
00001000
00000000
00000100
00000000
00001000
00000000
00000020
00000000
00000000
00000000
00000000
00000000
00000000
00000000
,
00000130
00000000
00000001
00000000
00001000
00000100
00001000
00000100
00001000
00000000
00000100
00000000
00010000
00001000
00010000
00001000
,
00010000
00000000
00001000
00000000
01000000
00010000
01000000
00010000
01000000
00000000
00100000
00000000
00100000
00000000
00000000
10000000
,
01000000
00100000
01000000
00100000
01000000
00100000
01000000
00100000
01000000
00100000
01000000
00100000
01000000
00100000
01000000
00100000
,
00010000
00000000
00000000
00100000
00000000
00000000
00001000
00000000
00000000
00010000
00000000
00000000
00000010
00000000
00000000
00000100
00000000
00000000
00000001
00000000
00000000
00000010
00000000
00000000
00000100
00000000
00000000
00002200
00000000
00000000
00000000
00000000
,
00000000
00000000
00000000
00000000
,
00000000
00000000
00000000
00000000
,
00003300
00000000
00000000
00000000
;
