#VERSION:0.83;
#TITLE:Juice;
#SUBTITLE:;
#ARTIST:Lizzo;
#TITLETRANSLIT:;
#SUBTITLETRANSLIT:;
#ARTISTTRANSLIT:;
#GENRE:;
#ORIGIN:;
#CREDIT:;
#BANNER:;
#BACKGROUND:Juice-bg;
#PREVIEWVID:;
#JACKET:Juice-jacket.png;
#CDIMAGE:;
#DISCIMAGE:;
#LYRICSPATH:;
#CDTITLE:;
#MUSIC:Juice.ogg;
#OFFSET:0.000000;
#SAMPLESTART:40.040001;
#SAMPLELENGTH:16.000000;
#SELECTABLE:YES;
#BPMS:0.000=120.000;
#STOPS:176.000=1.000;
#DELAYS:;
#WARPS:;
#TIMESIGNATURES:0.000=4=4;
#TICKCOUNTS:0.000=4;
#COMBOS:0.000=1;
#SPEEDS:0.000=1.000=0.000=0;
#SCROLLS:0.000=1.000;
#FAKES:;
#LABELS:0.000=Song Start;
#BGCHANGES:;
#KEYSOUNDS:;
#ATTACKS:
;

//---------------dance-single - ----------------
#NOTEDATA:;
#CHARTNAME:;
#STEPSTYPE:dance-single;
#DESCRIPTION:;
#CHARTSTYLE:;
#DIFFICULTY:Hard;
#METER:7;
#RADARVALUES:0.429525,0.436334,0.179260,0.008148,0.130371,369.000000,347.000000,22.000000,1.000000,0.000000,0.000000,0.000000,0.000000,0.000000,0.429525,0.436334,0.179260,0.008148,0.130371,369.000000,347.000000,22.000000,1.000000,0.000000,0.000000,0.000000,0.000000,0.000000;
#CREDIT:;
#NOTES:
0000
0000
0000
0000
,
0000
0000
0000
0000
,
0000
0000
0000
0000
,
0000
0000
0000
0000
,
0001
0100
0000
0000
0001
0100
0000
0000
0001
0000
1000
0000
0100
0000
0000
0000
,
1000
0001
0100
0001
0011
0000
0000
0000
,
0001
0010
0000
0000
0100
1000
0000
0000
0100
0000
1000
0000
0010
0000
0000
0000
,
0100
0001
0010
0001
1001
0000
0000
0000
,
1000
0100
0000
0000
0100
0010
0000
0000
0001
0000
0010
0000
0100
0000
0000
0000
,
0010
0001
0100
0001
1001
0000
0000
0000
,
1000
0010
0000
0000
0010
0100
0000
0000
0010
0000
1000
0000
0100
0000
0000
0000
,
0010
0000
0001
0000
0100
0000
0001
0000
1000
0000
0100
0000
0010
0100
0000
0000
,
1001
0000
0000
0000
0001
0010
0000
0000
0010
0100
0000
0000
0100
1000
0000
0000
,
1000
0010
0000
0000
0010
0100
0000
0000
0001
0000
0000
0000
1000
0010
0000
0000
,
0101
0000
0000
0000
0001
0010
0000
0000
0001
1000
0000
0000
1000
0010
0000
0000
,
1000
0001
0000
0000
0001
1000
0000
0000
0010
0000
0000
0000
0100
0010
0000
0000
,
1001
0000
0000
0000
0001
0010
0000
0000
0010
0100
0000
0000
0010
0001
0000
0000
,
1000
0010
0000
0000
0010
0100
0000
0000
0001
0000
0000
0000
1000
0010
0000
0000
,
1001
0000
0001
0010
0001
0000
1000
0000
,
0010
0000
1000
0010
0100
0000
0000
0000
,
1001
0000
0001
0100
0010
0000
0100
0010
,
1000
0001
0010
1000
0010
0000
0100
0010
,
0001
0100
1000
0100
0001
0000
1000
0001
,
0010
1000
0010
0001
1000
0000
0000
0000
,
0110
0000
0100
0010
1000
0000
0001
1000
,
0001
0010
1000
0010
0001
0000
1000
0001
,
0100
1000
0100
0001
1000
0000
0001
0010
,
0001
0010
1000
0010
0001
0000
1000
1000
,
0001
0000
0100
0000
0010
0000
1000
1000
,
0001
0000
0010
0010
0001
0000
1000
0000
,
0001
0100
1000
0100
0001
0000
1000
0001
,
1000
0010
0001
0010
1000
0000
0001
0001
,
1000
0000
0100
0000
1000
0000
0010
0010
,
0100
0000
0001
0001
1000
0000
0100
0000
,
1000
0100
0001
0100
1000
0000
0001
1000
,
0001
0010
1000
0010
0001
0000
0010
0100
,
1000
0000
0001
0010
0001
0000
1000
0000
,
0001
0000
0100
0010
0100
0000
0010
0000
,
1000
0000
0100
1000
0100
0000
1000
0000
,
0001
0000
0000
0000
0100
0000
0010
0000
0100
0010
0000
0100
0010
0000
1000
0000
,
0001
0000
0010
0001
0010
0000
0100
0000
,
0010
0000
0001
1000
0001
0000
0100
0001
,
0010
0000
0100
0000
1000
0000
0001
0000
0010
0100
0000
1000
0000
0010
0100
0000
,
0102
0100
0100
0103
,
1010
0000
0101
0000
0001
1000
0010
1000
,
0001
0000
1000
0100
0001
0100
1000
0010
,
1010
0000
1000
0010
0001
0010
1000
0001
,
1001
0000
0001
1000
0100
0000
1000
0001
,
0100
0000
0001
1000
0001
0100
1000
0010
,
0001
0000
0010
0001
1000
0001
0100
1000
,
0001
0000
1000
0001
1000
0010
0001
0100
,
1000
1001
0110
0100
,
0010
0000
1000
1000
0010
0000
0100
0100
,
0001
0000
1000
0000
0001
0100
1000
0100
,
0101
0000
0001
1000
0001
0010
1000
0010
,
0011
0000
0001
0001
1000
0000
0010
0000
,
1000
0000
0100
0100
0010
0000
0010
0010
,
0001
0000
0010
0010
0001
0100
0010
1000
,
1001
0000
1000
0100
0001
0100
1000
0010
,
1001
0011
1100
0000
;

//---------------dance-single - ----------------
#NOTEDATA:;
#CHARTNAME:;
#STEPSTYPE:dance-single;
#DESCRIPTION:;
#CHARTSTYLE:;
#DIFFICULTY:Medium;
#METER:6;
#RADARVALUES:0.372488,0.387853,0.545927,0.000000,0.000000,320.000000,253.000000,67.000000,0.000000,0.000000,0.000000,0.000000,0.000000,0.000000,0.372488,0.387853,0.545927,0.000000,0.000000,320.000000,253.000000,67.000000,0.000000,0.000000,0.000000,0.000000,0.000000,0.000000;
#CREDIT:;
#NOTES:
0000
0000
0000
0000
,
0000
0000
0000
0000
,
0000
0000
0000
0000
,
0000
0000
0000
0000
,
1010
0000
1010
0000
0100
0001
0001
0000
,
1000
0001
0010
0100
1000
0000
0000
0000
,
0011
0000
0011
0000
0001
0001
1000
0000
,
0010
0100
0001
1000
0100
0000
0000
0000
,
1001
0000
1001
0000
1000
1000
0100
0000
,
1000
0010
1000
0001
0010
0000
0000
0000
,
0110
0000
0110
0000
0100
0100
1000
0000
,
0001
0000
1000
0100
0001
0000
0101
0000
,
1001
0001
0100
1000
,
0100
0001
1000
1001
,
0110
1000
0010
0001
,
0010
1000
0010
0110
,
1010
1000
0100
0001
,
0100
0010
0001
0011
,
1010
0000
1000
0010
0100
0000
1001
0000
,
0010
0000
0100
0001
1000
0000
0010
0000
,
1001
0000
0001
1000
0100
0000
1000
0000
,
0110
1001
1010
0100
,
1001
0110
0101
0001
,
1001
0000
1010
0000
1001
0000
1000
0001
,
0100
0000
0001
0001
0010
0000
0100
0000
,
1100
0110
1001
1000
,
0011
1100
1001
0001
,
0101
0000
1010
0000
1001
0000
0001
0100
,
0001
0000
0000
0000
0000
0000
0100
0010
,
0000
0000
0100
0010
0000
0000
0100
0010
,
1000
0001
1100
1000
,
1000
0000
0100
0000
0011
0000
0001
0100
,
0010
0000
0000
0000
0000
0000
1000
0001
,
0000
0000
1000
0001
0000
0000
1000
0001
,
0100
0010
1010
1000
,
0001
0000
0010
0000
1100
0000
0100
1000
,
0001
0000
0100
0000
0010
0010
1000
0000
,
0001
0000
0010
0000
0100
0000
1000
0100
,
1000
0000
0100
0000
1000
0000
0010
1000
,
0010
0000
0100
0000
0001
0000
1000
0001
,
0100
0000
0001
0000
0010
0010
0001
0000
,
0100
0000
0001
0000
1000
0000
0100
1000
,
0010
0000
0100
0000
0010
0000
0100
0010
,
1000
0001
0010
0100
,
1001
0000
0101
1010
,
1001
1000
0110
1010
,
1001
0001
0101
1010
,
1001
0000
1000
0001
0100
0000
0010
0010
,
0100
0001
0101
1010
,
1100
1000
1100
0110
,
1001
0010
1001
0101
,
1001
0000
0001
1000
0010
0000
1000
0000
,
0100
0000
0010
0100
0010
0000
0100
1000
,
0100
0000
0100
0010
0100
0000
1000
0000
,
1001
0001
0001
1000
,
1010
0000
1000
0010
0100
0000
0010
0000
,
1000
0000
0001
0010
0100
0000
0100
0010
,
0001
0000
0001
0010
0100
0000
0100
0000
,
0110
0010
0110
1001
,
0110
0110
1001
0000
;

//---------------dance-single - ----------------
#NOTEDATA:;
#CHARTNAME:;
#STEPSTYPE:dance-single;
#DESCRIPTION:;
#CHARTSTYLE:;
#DIFFICULTY:Easy;
#METER:3;
#RADARVALUES:0.236297,0.315130,0.244445,0.000000,0.000000,203.000000,173.000000,30.000000,0.000000,0.000000,0.000000,0.000000,0.000000,0.000000,0.236297,0.315130,0.244445,0.000000,0.000000,203.000000,173.000000,30.000000,0.000000,0.000000,0.000000,0.000000,0.000000,0.000000;
#CREDIT:;
#NOTES:
0000
0000
0000
0000
,
0000
0000
0000
0000
,
0000
0000
0000
0000
,
0000
0000
0000
0000
,
1000
0000
1000
0000
,
0001
1000
0100
0000
,
0010
0000
0010
0000
,
0100
1000
0010
0000
,
0100
0000
0100
0000
,
0100
0001
0010
0000
,
0100
0000
0100
0000
,
0010
0001
1000
1001
,
0110
1000
1000
0001
,
0001
1000
0001
1001
,
0110
0100
0100
0010
,
0010
0100
0010
0110
,
1001
1000
1000
0001
,
0001
1000
0001
1001
,
0110
0000
0010
0000
,
0100
0010
0100
0000
,
1001
0001
1000
0100
,
1000
1000
1010
1000
,
0010
0010
0110
0100
,
0001
0001
1001
1000
,
0000
0001
0100
0010
,
1000
1000
1100
0100
,
1000
1000
1001
0001
,
0100
0100
0110
0010
,
0100
0000
0000
0001
,
0000
0001
0000
0001
,
1000
0010
1001
1000
,
1000
0001
1001
0001
,
0100
0000
0000
0010
,
0000
0100
0000
0001
,
1000
0100
0110
0100
,
0100
0010
1001
0001
,
0100
0000
0001
0000
,
1000
0000
0100
0000
,
1000
0000
0000
1000
,
1000
0000
0000
0000
,
1001
0000
0001
0000
,
0100
0000
0010
0000
,
0100
0000
0000
0001
,
0001
0000
1000
0000
,
0110
0000
1000
1000
,
0001
0010
0001
0001
,
1000
0001
0100
0100
,
1001
0110
0000
0010
,
1000
0100
0010
0010
,
0100
0010
0001
0001
,
1000
0100
1000
1000
,
1100
0100
1000
0000
,
0000
0010
0000
0100
,
0000
0010
0100
0100
,
1001
1000
1000
0001
,
1001
1000
0010
0000
,
0000
0100
0000
0100
,
0000
0100
0010
0010
,
1010
1000
1000
0001
,
1001
0110
1001
0000
;

//---------------dance-double - ----------------
#NOTEDATA:;
#CHARTNAME:;
#STEPSTYPE:dance-double;
#DESCRIPTION:;
#CHARTSTYLE:;
#DIFFICULTY:Challenge;
#METER:7;
#RADARVALUES:0.413228,0.436334,0.236297,0.048889,0.077408,355.000000,326.000000,29.000000,6.000000,2.000000,0.000000,0.000000,0.000000,0.000000,0.413228,0.436334,0.236297,0.048889,0.077408,355.000000,326.000000,29.000000,6.000000,2.000000,0.000000,0.000000,0.000000,0.000000;
#CREDIT:;
#NOTES:
00000000
00000000
00000000
00000000
,
00000000
00000000
00000000
00000000
,
00000000
00000000
00000000
00000000
,
00000000
00000000
00000000
00000000
,
10000000
01000000
00000000
00000000
10000000
01000000
00000000
00000000
00100000
00000000
00000000
00010000
00000000
00000000
01000000
00000000
,
00100000
01000000
00010000
00100000
00011000
00000000
00000000
00000000
,
00010000
00000100
00000000
00000000
00000100
00001000
00000000
00000000
00000100
00000000
00000000
00001000
00000000
00000000
00000010
00000000
,
00000100
00000001
00001000
00000100
00001001
00000000
00000000
00000000
,
00000001
00000100
00000000
00000000
00000010
00001000
00000000
00000000
00000100
00000000
00000000
00010000
00000000
00000000
00001000
00000000
,
00100000
00010000
01000000
00100000
10100000
00000000
00000000
00000000
,
10000000
00010000
00000000
00000000
00010000
00100000
00000000
00000000
01000000
00000000
00000000
00100000
00000000
00000000
00001000
00000000
,
00010000
00000000
00000100
00000000
00001000
00000000
00000010
00000000
00000100
00000000
00000001
00000000
00001000
00000010
00000000
00000000
,
00000101
00000001
00000100
00001000
,
00010000
01000000
10000000
01100000
,
10010000
10000000
01000000
00010000
,
00001000
00000100
00000001
00000110
,
00001001
00000001
00000010
00001000
,
00010000
01000000
10000000
01100000
,
10010000
00000000
00010000
00100000
00001000
00000000
00010000
00000000
,
00011000
00000000
00000100
00010000
00001010
00000000
00000000
00000000
,
00000101
00000000
00000001
00001000
00000100
00000000
00001000
00000100
,
00001000
00000100
00010000
00001000
00100000
00000000
00010000
00100000
,
01000000
10000000
00100000
01000000
00010000
00000000
00100000
00001000
,
00010000
00000100
00000010
00000100
00001000
00000000
00001001
00000000
,
00000110
00000000
00000100
00000010
00001000
00000000
00000100
00001000
,
00000100
00010000
00001000
00100000
01000000
00000000
00100000
00010000
,
01000000
00100000
10000000
00010000
00100000
00000000
00010000
00100000
,
00010000
00100000
00001000
00010000
00000010
00000000
00000100
00000100
,
00000001
00000000
00000010
00000000
00000100
00000000
00001000
00001000
,
00000100
00000000
00001000
00001000
00000100
00000000
00001000
00001000
,
00000100
00010000
00001000
00100000
01100000
00000000
01000000
00100000
,
01000000
00100000
00010000
00100000
00101000
00000000
00011000
00000000
,
00010100
00000000
00000100
00000000
00010000
00000000
00001000
00001000
,
00010000
00000000
00001000
00001000
01000000
00000000
00001000
00001000
,
00010000
00100000
10000000
00100000
00110000
00000000
00010000
01000000
,
00010000
01000000
10000000
01000000
01010000
00000000
00010000
00100000
,
00002000
00000000
00013000
00000000
00000100
00001000
00000100
00000000
,
00002000
00000000
00003010
00000000
00000100
00000001
00000100
00000010
,
00001000
00000000
00000000
00000M00
00000000
00000000
00000001
00001000
,
00000010
00000000
00000000
00000000
00000000
00000000
00000M00
00000000
00000000
00000010
00000000
00000100
00000001
00000000
00001000
00000000
,
00000000
00000000
00000000
00000001
00000010
00000000
00000100
00000000
00001000
00000000
00000100
00000000
00010000
00000000
00000000
00000000
,
00000000
00001000
00100000
00010000
01000000
10000000
01000000
00100000
,
10000000
00000000
01000000
00000000
00100000
00000000
00010000
00000000
00100000
00001000
00000000
00010000
00000000
00000100
00001000
00000000
,
00000020
00000000
00000000
00000030
,
00001001
00000000
00000110
00000000
00000001
00000100
00001000
00000010
,
00010000
00000000
00001000
00010000
00001000
00100000
10000000
00100000
,
00010000
00000000
01000000
00010000
01000000
10000000
01000000
00100000
,
10000000
00000000
00010000
10000000
10010000
00000000
00010000
00100000
,
00001000
00000000
00100000
00001000
00010000
00000100
00001000
00000100
,
00000001
00000000
00000100
00000001
00000100
00001000
00000100
00000010
,
00000001
00000000
00000100
00000010
00000100
00001000
00000100
00000010
,
00010000
00000000
00001000
00001000
00020000
00000000
00030100
00000000
,
00010000
00001000
01000000
00000000
00100000
01000000
00010000
00000000
,
10000000
00010000
00100000
00000000
01000000
00100000
00010000
10000000
,
10100000
00000000
10000000
10000000
00010000
00010000
00100000
00001000
,
00101000
00000000
00011000
00000000
00010100
00000100
00001000
00000000
,
00000200
00000000
00001300
00000000
00000010
00000100
00000001
00000000
,
00002000
00000000
00003001
00000000
00000001
00000001
00000100
00000010
,
00001000
00000000
00000100
00000100
00001000
00000100
00010000
01000000
,
10000000
00100000
10010000
00000000
;

//---------------dance-single - ----------------
#NOTEDATA:;
#CHARTNAME:;
#STEPSTYPE:dance-single;
#DESCRIPTION:;
#CHARTSTYLE:;
#DIFFICULTY:Beginner;
#METER:1;
#RADARVALUES:0.103598,0.169686,0.048889,0.000000,0.000000,89.000000,83.000000,6.000000,0.000000,0.000000,0.000000,0.000000,0.000000,0.000000,0.103598,0.169686,0.048889,0.000000,0.000000,89.000000,83.000000,6.000000,0.000000,0.000000,0.000000,0.000000,0.000000,0.000000;
#CREDIT:;
#NOTES:
// measure 0
0000
0000
0000
0000
,  // measure 1
0000
0000
0000
0000
,  // measure 2
0000
0000
0000
0000
,  // measure 3
0000
0000
0000
0000
,  // measure 4
1000
0000
0000
0000
,  // measure 5
0001
0000
0000
0000
,  // measure 6
0100
0000
0000
0000
,  // measure 7
0010
0000
0000
0000
,  // measure 8
1000
0000
0000
0000
,  // measure 9
0001
0000
0000
0000
,  // measure 10
0010
0000
0000
0000
,  // measure 11
0001
0000
0000
0000
,  // measure 12
1001
0000
0000
0000
,  // measure 13
0010
0000
0010
0000
,  // measure 14
0100
0000
0000
0000
,  // measure 15
0001
0000
0001
0000
,  // measure 16
1000
0000
0000
0000
,  // measure 17
0010
0000
0010
0000
,  // measure 18
0100
0000
0000
0000
,  // measure 19
0001
0001
0001
0000
,  // measure 20
1001
0000
0000
0000
,  // measure 21
0100
0000
0000
0000
,  // measure 22
0010
0000
0000
0000
,  // measure 23
1000
0000
0001
0000
,  // measure 24
1000
0000
0000
0000
,  // measure 25
0010
0000
0000
0000
,  // measure 26
0100
0000
0000
0000
,  // measure 27
0001
0000
0010
0000
,  // measure 28
0001
0000
0000
1000
,  // measure 29
0000
1000
0000
1000
,  // measure 30
0001
0000
0000
0001
,  // measure 31
0001
0000
0000
0100
,  // measure 32
0000
0000
0000
0010
,  // measure 33
0000
0010
0000
0010
,  // measure 34
0100
0000
0000
0100
,  // measure 35
0100
0000
0100
0000
,  // measure 36
1001
0000
0000
0000
,  // measure 37
0000
0000
0000
0000
,  // measure 38
0000
0000
0000
0000
,  // measure 39
0000
0000
1000
0000
,  // measure 40
0001
0000
0000
0000
,  // measure 41
0000
0000
0000
0000
,  // measure 42
0100
0000
0000
0010
,  // measure 43
0100
0000
0000
0000
,  // measure 44
1001
0000
0010
0000
,  // measure 45
1000
0000
0001
0000
,  // measure 46
0000
0000
1000
1000
,  // measure 47
1000
0000
0001
0000
,  // measure 48
0000
0000
0100
0000
,  // measure 49
0001
0000
0010
0000
,  // measure 50
0000
0100
0010
0010
,  // measure 51
0010
0000
1001
0000
,  // measure 52
0000
1000
0000
1000
,  // measure 53
0000
1000
0001
0000
,  // measure 54
0000
0001
0001
0000
,  // measure 55
0000
0100
0000
0000
,  // measure 56
0000
0010
0000
0010
,  // measure 57
0000
0010
0100
0000
,  // measure 58
0000
0010
0010
0000
,  // measure 59
0100
0000
1001
0000
;
