#VERSION:0.83;
#TITLE:Hidden Ending;
#SUBTITLE:;
#ARTIST:ARForest;
#TITLETRANSLIT:;
#SUBTITLETRANSLIT:;
#ARTISTTRANSLIT:;
#GENRE:;
#ORIGIN:;
#CREDIT:;
#BANNER:Hidden Ending-banner.png;
#BACKGROUND:Hidden Ending-background.png;
#PREVIEWVID:;
#JACKET:Hidden Ending-jacket.png;
#CDIMAGE:;
#DISCIMAGE:;
#LYRICSPATH:;
#CDTITLE:;
#MUSIC:Hidden Ending.ogg;
#OFFSET:-0.500000;
#SAMPLESTART:101.552628;
#SAMPLELENGTH:10.105263;
#SELECTABLE:YES;
#BPMS:0.000=190.000;
#STOPS:;
#DELAYS:;
#WARPS:;
#TIMESIGNATURES:0.000=4=4;
#TICKCOUNTS:0.000=4;
#COMBOS:0.000=1;
#SPEEDS:0.000=1.000=0.000=0;
#SCROLLS:0.000=1.000;
#FAKES:;
#LABELS:0.000=Song Start;
#BGCHANGES:;
#KEYSOUNDS:;
#ATTACKS:
;

//---------------dance-single - ----------------
#NOTEDATA:;
#CHARTNAME:;
#STEPSTYPE:dance-single;
#DESCRIPTION:;
#CHARTSTYLE:;
#DIFFICULTY:Hard;
#METER:9;
#RADARVALUES:0.558821,1.026009,0.000000,0.102555,0.080579,534.000000,534.000000,0.000000,14.000000,0.000000,0.000000,0.000000,0.000000,0.000000,0.558821,1.026009,0.000000,0.102555,0.080579,534.000000,534.000000,0.000000,14.000000,0.000000,0.000000,0.000000,0.000000,0.000000;
#CREDIT:;
#NOTES:
0000
0000
0000
0000
,
0000
0000
0000
0000
,
0000
0000
0000
0000
,
0000
0000
0000
0000
,
0000
0000
0000
0000
,
0000
0000
0000
0000
,
0000
0000
0000
0000
,
0000
0000
0000
0000
,
0001
0100
0000
0001
1000
0000
0001
0010
,
0000
0001
1000
0000
0000
0000
0000
0000
,
1000
0010
0000
1000
0001
0000
1000
0100
,
0000
1000
0001
0000
1000
0010
0100
0001
,
0010
0100
0000
0010
0001
0000
0010
0100
,
0000
0010
0001
0000
0000
0000
0000
0000
,
0100
1000
0000
0100
0001
0000
0100
1000
,
0000
0100
0001
0000
0100
0010
0100
0010
,
0100
1000
0000
1000
0010
0000
0010
0100
,
0000
0100
0001
0000
0000
0000
0000
0000
,
1000
0001
0000
0001
0010
0000
0010
0001
,
0000
0001
0100
0000
0100
0010
1000
0001
,
0010
0001
0000
0001
0100
0000
0100
0010
,
0000
0010
1000
0000
0000
0000
0000
0000
,
1000
0001
0000
0001
1000
0000
1000
0010
,
0000
0010
0100
0000
0010
1000
0001
0010
,
0200
0000
0000
0000
0000
0310
0001
2000
,
0000
0000
0000
0000
0000
3001
1000
0200
,
0000
0000
0000
0000
0000
0310
0100
2000
,
0000
0000
0000
0000
,
3001
0000
0000
0000
,
0000
0000
0000
0000
,
0000
0000
0000
0000
,
1000
0010
1000
0010
1000
0000
0000
0000
0100
0000
0100
0000
0100
0000
0000
0000
,
0010
0000
0001
0100
0000
0010
0000
2000
,
0000
0000
0000
0000
3000
0001
0010
0001
,
1000
0000
0100
1000
0000
0010
0000
0200
,
0000
0000
0000
0000
0300
0010
1000
0100
,
0010
0000
0100
1000
0000
0001
0000
2000
,
0000
0000
0000
0000
3000
0001
0010
0001
,
0100
1000
0100
0010
0000
0100
0010
1000
,
0001
0010
0100
0010
0000
0100
0010
0001
,
1000
0000
0001
0100
0000
1000
0000
0200
,
0000
0000
0000
0000
0300
0010
1000
0010
,
0100
0000
0001
0010
0000
1000
0000
0020
,
0000
0000
0000
0000
0000
0130
0010
0001
,
1000
0000
0001
0100
0000
0001
0000
0020
,
0000
0000
0000
0000
0030
0100
0010
0001
,
1000
0010
0001
0010
0000
0100
1000
0100
,
0001
0100
0010
1000
0000
0010
1000
0100
,
0010
0001
0010
0001
1000
0001
1000
0010
,
1000
0001
1000
0000
0000
0000
0000
0000
,
0100
1000
0100
0010
0100
0010
0001
0010
,
0001
0000
0100
0000
0001
0000
0010
0000
0001
1000
0001
0000
0010
0000
0100
0000
,
1000
0100
1000
0001
0010
0001
1000
0010
,
1000
0001
0100
0000
0000
0000
0000
0000
,
0010
0100
0010
1000
0001
1000
0001
0010
,
0001
1000
0010
0100
0001
0001
0100
0100
,
0020
0000
0000
0000
,
0000
0000
0000
0000
,
1030
0100
0001
0100
1000
0100
0010
0001
,
0010
0000
1000
0000
0010
0000
0100
0000
0001
0010
0001
0000
0010
0000
0100
0000
,
1000
0010
0001
0010
1000
0100
0001
0100
,
1000
0010
0100
0001
0010
0010
0001
1000
,
0002
0000
0000
0000
,
2000
0000
0000
3003
,
0000
1000
0010
1000
0000
0010
1000
0010
,
0000
0100
0001
0100
0000
0001
0100
0001
,
1000
0001
1000
0001
1000
0001
1000
0001
,
1000
0100
0010
0001
0000
0010
0100
1000
,
0001
0100
0010
1000
0000
1000
0010
0100
,
0001
0010
0100
0010
0000
0100
0010
0001
,
1000
0010
1000
0100
1000
0010
1000
0010
,
0100
0001
1000
0010
0100
0100
0100
0000
,
0001
1000
1000
0001
0010
0010
0001
0100
,
0100
0001
1000
1000
0001
0100
0010
1000
,
0100
1000
1000
0100
0010
0010
0100
0001
,
0001
0100
0010
0010
0100
0010
0001
1000
,
0010
1000
1000
0010
0100
0100
0010
0001
,
0001
0010
0100
0100
0010
1000
0001
0010
,
0100
1000
0100
1000
0100
1000
0100
1000
0100
1000
0100
1000
0100
1000
0100
1000
,
0001
0100
0001
0100
0001
0000
0000
0000
1000
0000
1000
0000
1000
0000
0000
0000
,
0001
0100
1000
0100
0010
1000
0010
0001
,
0010
1000
0010
0100
0010
1000
0010
0100
,
0001
1000
0001
1000
0001
1000
0001
1000
,
0001
0010
0100
0010
0100
0010
0001
0100
,
0001
0100
1000
0100
0001
0100
0010
1000
,
0010
0001
1000
0010
1000
0010
0001
0010
,
0100
0100
0010
1000
1000
0001
0010
0010
,
0100
1000
1000
0100
1000
0100
0010
0001
,
1000
0000
0001
1000
0001
0000
1000
0000
0001
1000
0001
0000
0100
0000
0010
0000
,
1000
0000
0001
0010
0001
0000
0010
0000
0001
0010
0001
0000
0010
0000
0001
0000
,
1000
0100
0010
0100
1000
0001
0010
0100
,
0010
0001
0100
0010
1000
0001
0010
0100
,
1000
0000
0010
1000
0010
0000
1000
0000
0010
1000
0010
0000
0100
0000
0001
0000
,
1000
0000
0001
0010
0001
0000
0010
0000
0001
0010
0001
0000
0010
0000
0100
0000
,
1000
0100
0001
0100
1000
0010
0001
0010
,
1000
0001
0100
0010
1000
0100
0010
0001
,
2000
0000
0000
0000
,
0000
0000
0000
0000
,
3000
0000
0000
0000
,
0000
0000
0000
0000
,
0000
0000
0000
0000
,
0000
0000
0000
0000
,
0000
0000
0000
0000
,
0000
0001
1000
0010
;

//---------------dance-single - ----------------
#NOTEDATA:;
#CHARTNAME:;
#STEPSTYPE:dance-single;
#DESCRIPTION:;
#CHARTSTYLE:;
#DIFFICULTY:Medium;
#METER:8;
#RADARVALUES:0.381965,0.608005,0.000000,0.168483,0.000000,365.000000,365.000000,0.000000,23.000000,0.000000,0.000000,0.000000,0.000000,0.000000,0.381965,0.608005,0.000000,0.168483,0.000000,365.000000,365.000000,0.000000,23.000000,0.000000,0.000000,0.000000,0.000000,0.000000;
#CREDIT:;
#NOTES:
0000
0000
0000
0000
,
0000
0000
0000
0000
,
0000
0000
0000
0000
,
0000
0000
0000
0000
,
0000
0000
0000
0000
,
0000
0000
0000
0000
,
0000
0000
0000
0000
,
0000
0000
0000
0000
,
2000
0000
0000
0000
0000
3001
0100
0020
,
0000
0000
0000
0000
0000
0130
0001
2000
,
0000
0000
0000
0000
0000
3100
0010
0200
,
0000
0000
0000
0000
0000
0310
0001
2000
,
0000
0000
0000
0000
0000
3001
0010
0002
,
0000
0000
0000
0000
0000
0013
0100
2000
,
0000
0000
0000
0000
0000
3100
1000
0020
,
0000
0000
0000
0000
0000
0130
0001
1000
,
0001
1000
0000
1000
0100
0000
0010
0001
,
0000
1000
0001
0000
0000
0000
0000
0000
,
0100
0001
0000
0010
0100
0000
0010
0001
,
0000
0100
0010
0000
2000
0000
3002
0000
,
0013
0001
0000
0100
0010
0000
0100
0001
,
0000
1000
0100
0000
0000
0000
0000
0000
,
0010
0100
0000
1000
0010
0000
0100
0001
,
0000
0010
0100
0000
0010
0000
0001
0000
,
1000
0001
0000
0001
1000
0000
1000
0010
,
0000
0010
0100
0000
0000
0000
0000
0000
,
0010
1000
0000
1000
0001
0000
0001
0010
,
0000
0010
0100
0000
0020
0000
0032
0000
,
0103
0000
0000
0000
,
0000
0000
0000
0000
,
0000
0000
0000
0000
,
0001
0100
1000
0000
0100
0100
0010
0000
,
1000
0000
0001
0010
0000
0100
0000
0020
,
0000
0000
0000
0000
0000
0130
1000
0001
,
0100
0000
0001
1000
0000
0100
0000
2000
,
0000
0000
0000
0000
0000
3100
0010
0100
,
1000
0000
0001
0100
0000
0001
0000
0020
,
0000
0000
0000
0000
0000
0130
0010
0001
,
1000
0000
0001
0100
0000
0001
0100
0000
,
0010
0000
1000
0010
0000
1000
0100
0000
,
0010
0000
0100
0010
0000
0001
0000
2000
,
0000
0000
0000
0000
0000
3010
1000
0100
,
1000
0000
0100
1000
0000
0001
0000
2000
,
0000
0000
0000
0000
0000
3100
0010
0001
,
0010
0000
0100
0010
0000
0001
0000
0200
,
0000
0000
0000
0000
0000
0310
1000
0001
,
0010
0000
0100
0010
0000
0001
0100
0000
,
0010
0000
1000
0001
0000
0010
0100
1000
,
0001
0000
0000
0001
0000
0000
1000
0000
,
0000
1000
0000
0000
0000
0000
0000
0000
,
0010
0000
0000
0010
0000
0000
0100
0000
,
0000
0100
0000
0000
0010
1000
0001
0010
,
0100
0000
0000
0100
0000
0000
0010
0000
,
0000
0001
0000
0000
0000
0000
0000
0000
,
1000
0000
0001
0000
,
0100
0000
0000
0010
1000
0010
0100
0001
,
0020
0000
0000
0000
,
0000
0000
0000
0030
,
0100
0000
0000
0010
0000
0000
0001
0000
,
0000
1000
0000
0000
1000
0001
0010
0100
,
1000
0000
0000
0100
0000
0000
1000
0000
,
0000
0010
0000
0100
0010
1000
0001
0010
,
0200
0000
0000
0000
,
2000
0000
0000
3300
,
1000
0000
0001
0000
,
0100
0000
0010
0000
,
1000
1000
1000
1000
,
0001
1000
0000
0010
,
1000
0100
0000
0010
,
0001
0100
0000
0010
,
1000
0001
1000
0001
,
0010
0000
0100
0000
1000
1000
1000
0000
,
0001
0000
0100
0001
0000
0010
0100
0000
,
0010
0001
0000
0100
0010
0000
0010
1000
,
0001
0000
0010
0100
0000
0010
0001
0000
,
1000
0010
0000
0100
0010
0000
0010
1000
,
0001
1000
0010
0000
0100
0001
0010
0000
,
0100
0010
0001
0000
0010
0100
1000
0000
,
0002
0000
0000
0000
,
1003
0100
0001
0000
0100
0100
0010
0000
,
0100
0000
1000
0010
0000
0100
0000
0001
,
1000
0000
0001
0010
0000
0100
0000
0010
,
0001
0100
0010
0000
0100
0010
1000
0000
,
0001
1000
0010
1000
0001
0010
0100
1000
,
0001
0000
1000
0100
0000
1000
0000
0010
,
0100
0000
0001
0010
0000
0100
0000
0010
,
0001
0000
0001
0100
0000
0100
0010
0000
,
0010
1000
0000
1000
0001
0000
1000
0000
,
0001
0000
0100
0010
0000
1000
0010
0100
,
0010
0000
1000
0100
0000
0010
0100
1000
,
0001
0100
0010
1000
,
0001
0010
0100
0010
0100
0010
0100
1000
,
0001
1000
0010
0100
0000
0010
0100
0001
,
1000
0100
0010
0001
0000
0010
0100
1000
,
0001
0000
0010
1000
0000
1000
0010
0000
,
0010
0100
1000
0100
0001
0100
1000
0010
,
0200
0000
0000
0000
,
0000
0000
0000
0000
,
0300
0000
0000
0000
,
0000
0000
0000
0000
,
0000
0000
0000
0000
,
0000
0000
0000
0000
,
0000
0000
0000
0000
,
0000
0010
1000
0001
;

//---------------dance-single - ----------------
#NOTEDATA:;
#CHARTNAME:;
#STEPSTYPE:dance-single;
#DESCRIPTION:;
#CHARTSTYLE:;
#DIFFICULTY:Easy;
#METER:5;
#RADARVALUES:0.234412,0.418004,0.000000,0.131857,0.000000,224.000000,224.000000,0.000000,18.000000,0.000000,0.000000,0.000000,0.000000,0.000000,0.234412,0.418004,0.000000,0.131857,0.000000,224.000000,224.000000,0.000000,18.000000,0.000000,0.000000,0.000000,0.000000,0.000000;
#CREDIT:;
#NOTES:
0000
0000
0000
0000
,
0000
0000
0000
0000
,
0000
0000
0000
0000
,
0000
0000
0000
0000
,
0000
0000
0000
0000
,
0000
0000
0000
0000
,
0000
0000
0000
0000
,
0000
0000
0000
0000
,
0020
0000
0000
0030
,
0200
0000
0000
0300
,
0002
0000
0000
0003
,
2000
0000
0000
3000
,
0200
0000
0000
0300
,
2000
0000
0000
3000
,
0020
0000
0000
0030
,
0200
0000
0000
0300
,
0010
0000
0000
0010
0000
0000
1000
0000
,
0000
0001
0000
0000
0000
0000
0000
0000
,
0010
0000
0000
0100
0000
0000
1000
0000
,
0000
0100
0000
0000
0010
0000
0001
0000
,
1000
0000
0000
1000
0000
0000
0001
0000
,
0000
0010
0000
0000
0000
0000
0000
0000
,
0100
0000
0000
0010
0000
0000
0001
0000
,
0000
0100
0000
0000
0010
0000
1000
0000
,
0001
0000
0000
0100
0000
0000
1000
0000
,
0000
0100
0000
0000
0000
0000
0000
0000
,
0010
0000
0000
1000
0000
0000
0001
0000
,
0000
0010
0000
0000
1000
0000
0010
0000
,
0100
0000
0000
0000
,
0000
0000
0000
0000
,
0000
0000
0000
0000
,
0001
0100
0010
0000
1000
1000
0001
0000
,
1000
0000
0000
0001
0000
0100
0000
0020
,
0000
0000
0030
0100
,
0010
0000
0000
1000
0000
0100
0000
2000
,
0000
0000
3000
0001
,
1000
0000
0000
0100
0000
1000
0000
0020
,
0000
0000
0030
0100
,
0010
0000
0000
1000
0000
0000
0001
0000
,
0010
0000
0000
0100
0000
0000
0010
0000
,
0001
0000
0000
1000
0000
0100
0000
0020
,
0000
0000
0000
0130
,
0010
0000
0000
0001
0000
1000
0000
0020
,
0000
0000
0000
0130
,
0001
0000
0000
1000
0000
0100
0000
2000
,
0000
0000
0000
3100
,
1000
0000
0000
0010
0000
0000
0100
0000
,
0001
0000
0000
0010
0000
0000
0100
0000
,
0010
0000
0000
0010
0000
0000
0010
0000
,
0000
0010
0000
0000
0000
0000
0000
0000
,
0100
0000
0000
0100
0000
0000
0100
0000
,
0000
0100
0000
0000
0010
0000
0001
0000
,
1000
0000
0000
1000
0000
0000
1000
0000
,
0000
1000
0000
0000
0000
0000
0000
0000
,
0001
0000
1000
0000
,
0010
0000
0100
0000
,
0002
0000
0000
0000
,
0000
0000
0000
0003
,
1000
0000
0000
1000
0000
0000
0010
0000
,
0000
0010
0000
0000
0100
0000
0001
0000
,
0010
0000
0000
0100
0000
0000
0010
0000
,
0000
0001
0000
0000
1000
0000
0100
0000
,
0020
0000
0000
0000
,
0200
0000
0000
0330
,
0100
0000
1000
0000
,
0010
0000
0100
0000
,
0001
0000
1000
0000
,
0010
0000
1000
0000
,
0100
0000
1000
0000
,
0010
0000
0100
0000
,
0001
0000
0010
0000
,
0100
0000
0000
0000
0001
1000
0001
0000
,
1000
0000
0000
0100
0000
0000
0010
0000
,
0000
0100
0000
0000
1000
0000
0000
0000
,
0010
0000
0000
0100
0000
0000
0001
0000
,
0000
1000
0000
0000
0100
0000
0000
0000
,
1000
0100
0010
0001
,
0010
0100
1000
0010
,
0100
0001
1000
0010
,
0100
0001
0010
0000
0100
0100
0010
0000
,
0100
0000
0000
0010
0000
0000
0001
0000
,
0100
0000
0000
0010
0000
0000
1000
0000
,
0001
1000
0010
1000
,
0100
0010
0100
1000
,
0100
0000
0000
1000
0000
0000
0010
0000
,
0100
0000
0000
0001
0000
0000
0010
0000
,
0100
0000
0000
0010
0000
0000
0001
0000
,
0000
1000
0000
0000
0010
0000
1000
0000
,
0001
0000
0000
0100
0000
0000
1000
0000
,
0100
0000
0000
0001
0000
0000
0010
0000
,
1000
0010
0001
0100
,
0010
1000
0001
0010
,
0100
0000
0000
0010
0000
0000
0001
0000
,
1000
0000
0000
0010
0000
0000
0100
0000
,
0010
1000
0001
0010
,
0100
0010
0001
1000
,
0020
0000
0000
0000
,
0000
0000
0000
0000
,
0030
0000
0000
0000
,
0000
0000
0000
0000
,
0000
0000
0000
0000
,
0000
0000
0000
0000
,
0000
0000
0000
0000
,
0000
1000
0001
0010
;

//---------------dance-single - ----------------
#NOTEDATA:;
#CHARTNAME:;
#STEPSTYPE:dance-single;
#DESCRIPTION:;
#CHARTSTYLE:;
#DIFFICULTY:Beginner;
#METER:3;
#RADARVALUES:0.130810,0.304003,0.036627,0.000000,0.000000,125.000000,120.000000,5.000000,0.000000,0.000000,0.000000,0.000000,0.000000,0.000000,0.130810,0.304003,0.036627,0.000000,0.000000,125.000000,120.000000,5.000000,0.000000,0.000000,0.000000,0.000000,0.000000,0.000000;
#CREDIT:;
#NOTES:
0000
0000
0000
0000
,
0000
0000
0000
0000
,
0000
0000
0000
0000
,
0000
0000
0000
0000
,
0000
0000
0000
0000
,
0000
0000
0000
0000
,
0000
0000
0000
0000
,
0000
0000
0000
0000
,
1000
0000
0000
1000
,
0000
0000
0000
0000
,
0001
0000
0000
0001
,
0000
0000
0000
0000
,
0100
0000
0000
0100
,
0000
0000
0000
0000
,
0010
0000
0000
0010
,
0000
0000
0000
0000
,
1000
0000
0000
0001
,
0000
0000
0000
0000
,
0100
0000
0000
0010
,
0000
0000
0000
0000
,
1000
0000
0000
0010
,
0000
0000
0000
0000
,
0100
0000
0000
0001
,
0000
0000
0000
0000
,
1000
0000
0000
1000
0000
0000
1000
0000
,
0000
1000
0000
0000
0000
0000
0000
0000
,
0001
0000
0000
0001
0000
0000
0001
0000
,
0000
0001
0000
0000
1000
0000
0001
0000
,
0110
0000
0000
0000
,
0000
0000
0000
0000
,
0000
0000
0000
0000
,
0010
0000
0000
0000
,
0100
0000
0000
0000
,
0001
0000
0000
0000
,
1000
0000
0000
0000
,
0100
0000
0000
0000
,
1000
0000
0000
0000
,
0010
0000
0000
0000
,
0100
0000
0000
0000
,
0010
0000
0000
0000
,
1000
0000
0000
0000
,
0001
0000
0000
0010
,
0001
0000
0000
0000
,
0100
0000
0000
0010
,
1000
0000
0000
0000
,
0100
0000
0000
1000
,
0100
0000
0000
1000
,
0001
0000
0000
0000
,
0100
0000
0000
0100
0000
0000
0100
0000
,
0000
0100
0000
0000
0000
0000
0000
0000
,
0010
0000
0000
0010
0000
0000
0010
0000
,
0000
0010
0000
0000
0000
0000
0000
0000
,
1000
0000
0000
1000
0000
0000
1000
0000
,
0000
1000
0000
0000
0000
0000
0000
0000
,
0001
0000
0001
0000
,
0001
0000
0001
0000
,
0100
0000
0000
0000
,
0000
0000
0000
0000
,
0010
0000
0000
0000
,
0000
0000
1000
0001
,
1000
0000
0000
0000
,
0000
0000
0100
0010
,
0001
0000
0000
0000
,
1000
0000
0000
0000
,
0010
0000
0000
0000
,
0100
0000
0000
0000
,
0001
0000
0000
0000
,
1000
0000
0000
0000
,
0100
0000
0000
0000
,
1000
0000
0000
0000
,
0010
0000
0000
0000
,
0100
0000
0000
0000
,
0001
0000
0000
0000
,
1000
0000
0000
0000
,
0010
0000
0000
0000
,
0100
0000
0000
0000
,
0010
0000
0000
1000
,
0000
0000
0001
0000
,
0010
0000
0001
0000
,
0100
0000
0000
0000
,
0110
0000
0000
0000
,
0010
0000
0000
0000
,
1000
0000
1000
0000
,
0001
0000
0001
0000
,
1001
0000
0000
0000
,
0110
0000
0000
0000
,
0100
0000
0000
0100
0000
0000
0100
0000
,
0000
0100
0000
0000
0100
0000
0000
0000
,
0010
0000
0000
0000
,
1000
0000
0000
0000
,
0001
0000
1000
0000
,
0010
0000
0100
0000
,
0001
0000
0000
0000
,
0001
0000
0000
0000
,
1000
0000
0001
0000
,
0100
0000
0010
0000
,
1001
0000
0000
0000
,
0000
0000
0000
0000
,
0000
0000
0000
0000
,
0000
0000
0000
0000
,
0000
0000
0000
0000
,
0000
0000
0000
0000
,
0000
0000
0000
0000
,
0000
1000
0001
0010
;

//---------------dance-single - ----------------
#NOTEDATA:;
#CHARTNAME:;
#STEPSTYPE:dance-single;
#DESCRIPTION:;
#CHARTSTYLE:;
#DIFFICULTY:Challenge;
#METER:12;
#RADARVALUES:0.749280,1.254011,0.263713,0.249062,0.435859,716.000000,680.000000,36.000000,34.000000,0.000000,0.000000,0.000000,0.000000,0.000000,0.749280,1.254011,0.263713,0.249062,0.435859,716.000000,680.000000,36.000000,34.000000,0.000000,0.000000,0.000000,0.000000,0.000000;
#CREDIT:;
#NOTES:
0000
0000
0000
0000
,
0000
0000
0000
0000
,
0000
0000
0000
0000
,
0000
0000
0000
0000
,
0000
0000
0000
0000
,
0000
0000
0000
0000
,
0000
0000
0000
0000
,
0000
0000
0000
0000
,
1000
0100
0000
0010
0100
0000
1000
0010
,
0000
0100
0001
0000
0000
0000
0000
0000
,
1000
0001
0000
0010
0100
0000
0010
0001
,
0000
1000
0100
0000
0010
0010
0100
0100
,
1000
0010
0000
0100
0001
0000
0010
0100
,
0000
0010
0001
0000
0000
0000
0000
0000
,
1000
0010
0000
0100
0001
0000
0010
0100
,
0000
0010
0001
0000
0010
0010
0100
0100
,
0010
0002
0000
0103
0020
0000
1030
0200
,
0000
1300
0002
0000
0003
0000
0000
0000
,
1000
0020
0000
0130
0020
0000
0130
0002
,
0000
0013
0200
0000
0310
0010
0001
0001
,
1000
0020
0000
0130
0002
0000
0013
0200
,
0000
1300
0020
0000
0030
0000
0000
0000
,
0100
0020
0000
1030
0200
0000
1300
0002
,
0000
0103
0020
0000
0130
0100
0001
0001
,
0010
2000
0000
3010
0002
0000
0103
2000
,
0000
3100
0020
0000
0030
0000
0000
0000
,
1000
0200
0000
0301
0020
0000
0130
0020
,
0000
0031
2000
0000
3001
0100
1000
0100
,
0110
0000
0000
0000
,
0000
0000
0000
0000
,
0000
0000
0000
0000
,
1000
0001
1000
0001
0020
0000
0000
0000
0001
0000
0031
0000
0201
0000
0000
0000
,
0301
0000
1000
0100
0000
1000
0000
0010
,
0100
0000
0000
0001
0000
0000
0010
0000
0000
0000
0100
0000
0000
0000
0010
0000
,
0001
0000
0000
0000
1000
0000
0100
0000
0000
0000
1000
0000
0000
0000
0001
0100
,
0001
0000
0000
0100
0000
0000
0010
0100
0000
0010
0100
0000
0001
0000
1000
0100
,
1000
0000
0001
0100
0000
0010
0000
0100
,
0001
0000
0000
1000
0000
0000
0100
0000
0000
0000
0010
0000
0100
0000
1000
0000
,
0001
0100
1000
0200
0000
0310
1000
0001
,
0010
1000
0010
0002
0000
0013
0100
1000
,
1001
0000
0010
1001
0000
0100
1001
0000
,
0010
1001
0000
0100
1001
0000
0110
0000
,
0110
0000
1000
0110
0000
0001
0110
0000
,
1000
0110
0000
0001
0110
0000
1001
0000
,
0110
0000
0001
1100
0000
0001
1010
0000
,
0001
1100
0000
0001
1010
1000
0100
0001
,
0100
0010
0001
0010
0000
0100
0001
0100
,
1000
0000
0010
0000
0001
0000
0010
0000
0000
0000
0100
0000
0010
0100
0010
1000
,
0001
0001
0010
1000
1000
0010
0001
0001
,
0001
0001
0001
0000
0000
0000
0000
0000
,
0001
0001
0010
0100
0100
1000
0010
0010
,
0010
0000
0010
0000
0010
0000
0000
0000
0100
0010
1000
0001
0010
0100
0010
0001
,
1000
1000
0100
0010
0010
0100
1000
1000
,
1000
1000
1000
0000
0000
0000
0000
0000
,
0001
0001
0001
0001
0100
0100
0100
0100
,
0010
0010
0010
0010
1000
0100
1000
0010
,
0200
0000
0000
0000
,
0000
0000
0000
0300
,
0010
0010
1000
0001
0001
0010
0100
0100
,
0100
0000
0100
0000
0100
0000
0000
0000
0010
0001
1000
0010
0100
0001
0010
0100
,
1000
1000
0100
0010
0010
0001
0100
0100
,
0100
0100
0100
0010
1000
0001
0010
0100
,
0020
0000
0000
0000
,
0002
0000
0000
0000
0000
0000
0000
0033
,
0000
0001
0100
0010
0000
0100
0010
1000
,
0000
0001
1000
0100
0000
0010
0100
1000
,
0001
0100
0001
0100
0001
0100
0001
0100
,
0010
1000
0100
0010
0000
0100
1000
0001
,
0100
1000
0100
0010
0000
1000
0001
0010
,
0100
0001
0100
1000
0000
0100
0010
0001
,
1000
0001
1000
0001
1000
0001
1000
0001
,
1000
0010
0100
0001
0010
0010
0010
0000
,
1100
0100
1000
1010
0010
0100
0110
0100
,
0001
0000
0101
0000
0001
0000
0010
0000
0110
0000
0100
0000
0110
0000
0010
0001
,
1000
0010
0100
0110
0001
0010
0011
0010
,
0100
0000
1100
0000
0010
0000
0001
0000
1001
0000
0001
0100
0010
0000
1000
0100
,
0010
0001
0010
0001
0010
0001
0010
0001
1000
0100
1000
0100
1000
0100
1000
0100
,
1000
0010
1000
0010
1000
0010
1000
0010
0100
0001
0100
0001
0100
0001
0100
0001
,
0100
0010
1000
0001
0010
0100
0010
0001
0100
0010
1000
0001
0010
0100
1000
0001
,
1000
0010
1000
0010
0200
0000
0000
0000
0001
0000
0301
0000
0102
0000
0000
0000
,
0013
0000
0100
1000
0010
0000
0100
0000
0001
0010
0100
0000
0010
0001
0100
0010
,
1000
0000
0001
1000
0010
0000
0100
0000
0010
1000
0100
0000
0010
0100
1000
0001
,
0100
0001
0100
0000
0010
0100
0010
0000
1000
0010
1000
0000
0001
1000
0001
0000
,
0010
0100
1000
0000
0100
0010
0001
0000
0100
1000
0010
0000
0100
0010
1000
0001
,
0010
0000
0100
1000
0010
0000
0100
0000
0010
1000
0001
0000
1000
0100
1000
0010
,
0100
0000
0001
0010
0100
0000
0010
0000
0001
0100
0010
0000
0100
0010
1000
0001
,
0010
0100
0100
1100
1000
1000
1010
0010
,
0010
0110
0100
0100
0001
0100
0010
1000
,
0100
0000
0010
0001
0100
0000
0010
0000
0100
0010
1000
0000
0001
1000
0010
1000
,
0100
0000
1000
0010
0100
0000
0010
0000
1000
0001
0010
0000
0100
0010
0001
1000
,
0010
1000
0010
0100
0001
0010
0100
0010
0100
0010
0001
0100
0010
1000
0001
0010
,
0100
0010
0001
0100
0010
1000
0010
1000
0010
0100
0001
0010
0100
0010
0001
1000
,
0010
0000
0100
0001
0010
0000
0100
0000
0010
0001
0100
0000
0010
0100
0001
0000
,
1000
0000
0001
0010
0100
0000
0010
0000
0001
0100
0010
0000
0100
0010
1000
0000
,
0001
1000
0100
0010
0001
0010
0100
0010
0001
0010
0100
1000
0100
0010
0100
1000
,
0010
0100
0001
0010
0100
0010
1000
0010
0100
0001
0010
0100
0010
0001
1000
0010
,
0200
0001
0010
0301
,
1000
0001
0010
0100
,
0010
0001
1000
0100
,
0010
0100
1000
0010
,
0100
0001
0010
0100
,
1000
0100
0010
0100
,
1000
0010
0100
0001
,
1000
1001
0110
1001
;

//---------------dance-double - ----------------
#NOTEDATA:;
#CHARTNAME:;
#STEPSTYPE:dance-double;
#DESCRIPTION:;
#CHARTSTYLE:;
#DIFFICULTY:Challenge;
#METER:9;
#RADARVALUES:0.492892,0.646006,0.007325,0.183134,0.014651,471.000000,470.000000,1.000000,25.000000,0.000000,0.000000,0.000000,0.000000,0.000000,0.492892,0.646006,0.007325,0.183134,0.014651,471.000000,470.000000,1.000000,25.000000,0.000000,0.000000,0.000000,0.000000,0.000000;
#CREDIT:;
#NOTES:
// measure 0
00000000
00000000
00000000
00000000
,  // measure 1
00000000
00000000
00000000
00000000
,  // measure 2
00000000
00000000
00000000
00000000
,  // measure 3
00000000
00000000
00000000
00000000
,  // measure 4
00000000
00000000
00000000
00000000
,  // measure 5
00000000
00000000
00000000
00000000
,  // measure 6
00000000
00000000
00000000
00000000
,  // measure 7
00000000
00000000
00000000
00000000
,  // measure 8
10000000
01000000
00000000
00100000
00010000
00000000
01000000
00010000
,  // measure 9
00000000
00100000
00001000
00000000
00000000
00000000
00000000
00000000
,  // measure 10
00010000
00001000
00000000
00010000
00000100
00000000
00001000
00000010
,  // measure 11
00000000
00000100
00000001
00000000
00000010
00000100
00000010
00000100
,  // measure 12
00000010
00000001
00000000
00000010
00000100
00000000
00000010
00001000
,  // measure 13
00000000
00000100
00010000
00000000
00000000
00000000
00000000
00000000
,  // measure 14
00001000
01000000
00000000
00100000
10000000
00000000
01000000
00100000
,  // measure 15
00000000
01000000
10000000
00000000
00100000
01000000
00100000
01000000
,  // measure 16
00010000
00100000
00000000
00001000
00010000
00000000
00000100
00001000
,  // measure 17
00000000
00000001
00000100
00000000
00000000
00000000
00000000
00000000
,  // measure 18
00000001
00001000
00000000
00000100
00010000
00000000
00001000
00100000
,  // measure 19
00000000
00010000
01000000
00000000
00010000
00100000
00010000
00100000
,  // measure 20
00010000
10000000
00000000
01000000
00100000
00000000
01000000
10000000
,  // measure 21
00000000
00100000
01000000
00000000
00000000
00000000
00000000
00000000
,  // measure 22
00100000
10000000
00000000
00010000
00100000
00000000
01000000
00100000
,  // measure 23
00000000
00001000
00010000
00000000
00000100
00001000
00000100
00001000
,  // measure 24
00000020
00000000
00000000
00000000
00000000
00000130
00000001
00002000
,  // measure 25
00000000
00000000
00000000
00000000
00000000
00003100
00000010
00000002
,  // measure 26
00000000
00000000
00000000
00000000
00000000
00000103
00000010
00002000
,  // measure 27
00000000
00000000
00000000
00000000
,  // measure 28
00003100
00000000
00000000
00000000
,  // measure 29
00000000
00000000
00000000
00000000
,  // measure 30
00000000
00000000
00000000
00000000
,  // measure 31
00010000
00001000
00010000
00001000
00010000
00000000
00000000
00000000
00000100
00000000
00000100
00000000
00000100
00000000
00000000
00000000
,  // measure 32
00010000
00000000
00001000
01000000
00000000
00200000
00000000
20000000
,  // measure 33
00000000
00000000
00000000
00000000
30300000
10000000
00100000
01000000
,  // measure 34
00010000
00000000
00100000
00001000
00000000
00020000
00000000
00000200
,  // measure 35
00000000
00000000
00000000
00000000
00030300
00010000
00000100
00001000
,  // measure 36
00000010
00000000
00000100
00000001
00000000
00000020
00000000
00000200
,  // measure 37
00000000
00000000
00000000
00000000
00000330
00000100
00001000
00000100
,  // measure 38
00000001
00000100
00000010
00000001
00000000
00000100
00000010
00001000
,  // measure 39
00000100
00010000
00001000
00100000
00000000
00010000
00100000
01000000
,  // measure 40
10000000
00000000
00100000
10000000
00000000
00200000
00000000
02000000
,  // measure 41
00000000
00000000
00000000
00000000
03300000
01000000
00010000
00100000
,  // measure 42
00001000
00000000
00010000
00000100
00000000
00002000
00000000
00000020
,  // measure 43
00000000
00000000
00000000
00000000
00003030
00000010
00001000
00000100
,  // measure 44
00010000
00000000
00001000
00100000
00000000
00020000
00000000
20000000
,  // measure 45
00000000
00000000
00000000
00000000
30030000
10000000
00010000
00100000
,  // measure 46
00001000
00010000
00000100
00000010
00000000
00000100
00000010
00000001
,  // measure 47
00000100
00000010
00001000
00000100
00000000
00010000
00001000
00100000
,  // measure 48
01000000
01000000
10000000
00100000
00100000
01000000
00010000
00010000
,  // measure 49
10000000
10000000
10000000
00000000
00000000
00000000
00000000
00000000
,  // measure 50
00010000
00010000
01000000
00001000
00001000
00010000
00001000
00001000
,  // measure 51
00010000
00010000
00010000
00000000
00001000
00100000
00001000
00010000
,  // measure 52
00000100
00000100
00001000
00000010
00000010
00000100
00000001
00000001
,  // measure 53
00001000
00001000
00001000
00000000
00000000
00000000
00000000
00000000
,  // measure 54
00000001
00000100
00000001
00000100
00000010
00001000
00000010
00001000
,  // measure 55
00000100
00010000
00000100
00010000
00001000
00010000
00001000
00100000
,  // measure 56
02000000
00000000
00000000
00000000
,  // measure 57
00000000
00000000
03000000
00000000
,  // measure 58
00100000
00100000
01000000
10000000
10000000
00010000
01000000
01000000
,  // measure 59
00010000
00010000
00010000
00000000
00100000
00001000
00010000
00000100
,  // measure 60
00001000
00001000
00000010
00000100
00000100
00000001
00000010
00000010
,  // measure 61
00000100
00000100
00000100
00000010
00000001
00000100
00000010
00001000
,  // measure 62
00000200
00000000
00000000
00000000
,  // measure 63
00020000
00000000
00000000
00030300
,  // measure 64
00001000
00100000
00010000
01000000
,  // measure 65
00100000
10000000
00010000
00100000
,  // measure 66
00001000
00001000
00001000
00001000
,  // measure 67
00010000
00000000
00000100
00001000
00000000
00000010
00000001
00000100
,  // measure 68
00000010
00000000
00001000
00000001
00000000
00000010
00000100
00001000
,  // measure 69
00000100
00000000
00010000
00000100
00000000
00000100
00010000
00001000
,  // measure 70
00100000
00100000
01000000
01000000
,  // measure 71
10000000
00000000
10000000
00000000
00010000
00010000
00010000
00000000
,  // measure 72
10000000
00000000
00100000
01000000
00000000
00010000
00100000
00000000
,  // measure 73
00001000
00010000
00000000
00000100
00001000
00000000
00000100
00001000
,  // measure 74
00000010
00000000
00000100
00000001
00000000
00000010
00000100
00000000
,  // measure 75
00000100
00001000
00000000
00000100
00010000
00000000
00000100
00010000
,  // measure 76
00001000
00100000
00010000
00000000
00100000
01000000
10000000
00000000
,  // measure 77
01000000
10000000
00100000
00000000
01000000
00010000
00100000
00000000
,  // measure 78
00100000
00001000
00010000
00000100
00001000
00000010
00000100
00000001
,  // measure 79
00000010
00000100
00000010
00000100
00000010
00000000
00000000
00000000
00000001
00000000
00000001
00000000
00000001
00000000
00000000
00000000
,  // measure 80
00000100
00000000
00000010
00001000
00000000
00000100
00001000
00000000
,  // measure 81
00000100
00000000
00010000
00001000
00000000
00010000
00000100
00000000
,  // measure 82
00001000
00000100
00010000
00001000
00100000
01000000
10000000
01000000
,  // measure 83
00100000
01000000
10000000
00100000
01000000
00010000
00100000
00001000
,  // measure 84
00010000
00000000
00000100
00001000
00000000
00000010
00000100
00000000
,  // measure 85
00000001
00000000
00000010
00000100
00000000
00000010
00000001
00000000
,  // measure 86
00000100
00000100
00000010
00001000
00001000
00000100
00010000
00010000
,  // measure 87
00001000
00100000
00100000
01000000
10000000
01000000
00010000
01000000
,  // measure 88
00100000
00010000
00100000
01000000
10000000
01000000
10000000
00100000
,  // measure 89
01000000
00010000
00100000
00001000
00100000
00001000
00010000
00001000
,  // measure 90
00010000
00000100
00001000
00000010
00000100
00000001
00000010
00000100
,  // measure 91
00000010
00000001
00000100
00000010
00001000
00000100
00010000
00001000
,  // measure 92
00200000
01300000
00100000
00020000
10030000
00100000
01000000
00000000
,  // measure 93
00200000
10300000
00010000
00200000
00301000
00010000
00000200
00001300
,  // measure 94
00010000
00010000
00001000
00100000
00100000
00001000
00010000
00000100
,  // measure 95
00001000
00000010
00000100
00000001
00000010
00000100
00000010
00000001
,  // measure 96
00002000
00000000
00000000
00000000
,  // measure 97
00003000
00000000
00000000
00000000
,  // measure 98
00000000
00000000
00000000
00000000
,  // measure 99
00000000
00000000
00000000
00000000
,  // measure 100
00000000
00000000
00000000
00000000
,  // measure 101
00000000
00000000
00000000
00000000
,  // measure 102
00000000
00000000
00000000
00000000
,  // measure 103
00000000
00000100
00010000
00011000
;
