#VERSION:0.83;
#TITLE:HI SCHOOL DREAM;
#SUBTITLE:;
#ARTIST:PINK PONG;
#TITLETRANSLIT:;
#SUBTITLETRANSLIT:;
#ARTISTTRANSLIT:;
#GENRE:;
#ORIGIN:;
#CREDIT:;
#BANNER:banner.png;
#BACKGROUND:Background.png;
#PREVIEWVID:;
#JACKET:jacket.png;
#CDIMAGE:;
#DISCIMAGE:;
#LYRICSPATH:;
#CDTITLE:;
#MUSIC:HI SCHOOL DREAM.ogg;
#OFFSET:-5.330998;
#SAMPLESTART:89.744789;
#SAMPLELENGTH:13.241379;
#SELECTABLE:YES;
#BPMS:0.000=145.000;
#STOPS:;
#DELAYS:;
#WARPS:;
#TIMESIGNATURES:0.000=4=4;
#TICKCOUNTS:0.000=4;
#COMBOS:0.000=1;
#SPEEDS:0.000=1.000=0.000=0;
#SCROLLS:0.000=1.000;
#FAKES:;
#LABELS:0.000=Song Start;
#BGCHANGES:;
#KEYSOUNDS:;
#ATTACKS:
;

//---------------dance-single - ----------------
#NOTEDATA:;
#CHARTNAME:;
#STEPSTYPE:dance-single;
#DESCRIPTION:;
#CHARTSTYLE:;
#DIFFICULTY:Hard;
#METER:8;
#RADARVALUES:0.553322,0.613890,0.258217,0.116614,0.374831,465.000000,434.000000,31.000000,14.000000,0.000000,0.000000,2.000000,0.000000,0.000000,0.553322,0.613890,0.258217,0.116614,0.374831,465.000000,434.000000,31.000000,14.000000,0.000000,0.000000,2.000000,0.000000,0.000000;
#CREDIT:;
#NOTES:
0000
0000
0000
0000
,
1000
0001
0100
0001
1000
0010
1000
0010
,
0100
0001
0010
0001
1000
0100
1000
0100
,
0010
0100
1000
0001
0100
0010
0100
0010
,
1000
0001
0010
0001
1000
0010
1000
0010
,
0100
0001
0010
1000
0010
0100
0010
0100
,
0010
0001
0100
1000
0100
0010
0100
0010
,
0100
0001
1000
0100
0001
0100
0010
0001
,
2002
0000
0000
0000
0000
0000
0000
3003
0000
0000
0000
0000
0000
0000
0000
0000
,
0101
0001
0100
0000
0010
1000
0000
0100
,
0110
0001
1000
0000
0010
0100
0000
0010
,
1010
1000
0010
0000
0100
0010
0000
1000
,
1001
0000
0010
1000
0101
0000
0010
0100
,
1001
1000
0010
0000
1000
0001
0000
0100
,
0101
0000
0001
0000
0010
0000
0000
0000
0010
0000
0100
0000
0000
0000
0010
0001
,
0010
0001
0100
0000
0010
1000
0000
0001
,
0000
1000
0000
0100
0000
0001
0000
0100
,
0010
0001
1000
0100
1000
0010
0000
0010
,
0100
0001
1000
0100
0010
0100
0000
0100
,
0010
0001
1000
0010
1000
0001
0000
0001
,
1000
0010
0100
0001
0010
0100
0000
0100
,
0010
0001
0100
0010
2000
0000
0010
0000
,
3001
0000
0010
0100
2000
0000
3020
0000
,
0130
0000
0010
1000
1001
0000
0001
0010
,
0001
0100
1000
0100
0001
0100
1000
0100
,
0000
0010
0000
0100
0000
0001
0000
1000
,
0000
1001
0000
0010
0000
0100
1001
0000
,
0001
0000
0100
0001
0000
0100
0000
0001
0000
0000
0100
0000
0010
0000
1000
0000
,
0100
0000
0010
0100
0000
0010
0000
0100
0000
0000
0000
0000
0000
0000
0000
0000
,
0010
0000
0100
1000
0000
0100
0000
1000
0000
0000
0100
0000
1000
0000
0010
0000
,
0100
0000
0001
0010
0000
0001
0000
0010
0000
0000
0000
0000
0000
0000
0000
0000
,
0001
0000
1000
0001
0000
1000
0000
0001
0000
0000
0100
0000
0010
0000
1000
0000
,
0100
0000
0010
0100
0000
0010
0000
0100
0000
0000
0000
0000
0000
0000
0000
0000
,
0010
0000
0001
0100
0000
0010
0000
1000
0001
0000
0010
0100
0000
1000
0000
0004
,
0400
0000
0000
0303
,
0000
0000
1000
0000
0000
0000
0001
0000
0010
0000
0000
0100
0000
0000
0010
0000
,
0000
0000
0001
1000
0010
0000
0010
1000
0001
0000
0000
0010
0000
0000
0100
0000
,
0000
0000
0010
0000
0000
0000
0001
0000
0100
0000
0000
0001
0000
0000
1000
0000
,
0000
0000
0001
1000
0010
0000
0010
1000
0100
0000
0000
0000
0010
0000
0000
0100
,
0000
0000
0010
0000
0000
0000
0100
0000
1000
0000
0000
0001
0000
0000
0110
0000
,
0000
0000
1001
0000
0000
0000
0001
0000
0010
0000
0000
0100
0000
0000
1100
0000
,
0000
0000
1001
0000
0000
0000
0001
0000
0101
0000
0000
0011
0000
0000
0110
0000
,
0001
0200
0000
1000
0000
0000
0301
0000
,
0001
0010
0001
1000
0010
0100
0001
0010
,
0100
0010
0001
1000
0010
0100
0010
1000
,
0001
0010
0100
0010
0001
1000
0100
0010
,
0100
1000
0010
0100
0001
0010
0100
0010
,
0001
0000
0000
0000
0000
0000
0000
1000
0001
0000
0001
0000
0000
0000
0000
0000
,
1001
0000
0000
0000
0001
0000
0000
0001
,
1001
1000
0010
0100
1001
1000
0010
0100
,
1001
0000
1001
0000
1001
0000
0000
1001
0000
0000
0110
0000
0000
0000
0000
0000
,
0010
0000
1000
0100
0000
0010
0000
0100
0000
0000
0010
0000
0001
0000
0100
0000
,
0010
0000
1000
0010
0000
0100
0000
0001
0000
0000
0000
0000
1001
0000
0000
0000
,
0001
0000
0010
0001
0000
0100
0000
0010
0000
0000
0100
0000
0010
0000
1000
0000
,
0001
0000
0010
0001
0000
0100
0000
0010
0000
0000
0000
0000
1001
0000
0000
0000
,
1000
0000
0100
1000
0000
0010
0000
0100
0000
0000
0010
0000
0100
0000
0001
0000
,
1000
0000
0001
0010
0000
0001
0000
1000
0000
0000
0000
0000
1001
0000
0000
0000
,
0001
0000
0100
0001
0000
0010
0000
0100
0000
0000
0010
0000
0001
0000
1000
0000
,
0010
0000
0100
0001
0000
0010
0000
0100
0020
0000
0000
0000
0032
0000
0000
0000
,
0103
0000
0010
1000
0000
0001
0000
0010
0000
0000
0100
0000
0010
0000
0100
0000
,
1000
0000
0010
0100
0000
0001
0000
0010
0200
0000
0000
0000
2300
0000
0000
0000
,
3010
0000
1000
0010
0000
0100
0000
0001
0000
0000
0010
0000
0100
0000
0010
0000
,
0001
0000
1000
0001
0000
0100
0000
0010
0200
0000
0000
0000
0302
0000
0000
0000
,
0013
0000
0100
0010
0000
0100
0000
1000
0000
0000
0100
0000
1000
0000
0001
0000
,
0100
0000
0001
0100
0000
0010
0000
1000
0002
0000
0000
0000
0023
0000
0000
0000
,
0130
0000
0010
0001
0000
1000
0000
0010
1000
0000
0010
0100
0000
0001
0000
1000
,
0001
0000
0100
0000
1000
0000
0100
0000
0001
0000
0010
0000
1000
0000
0000
0000
0000
0000
0110
0000
0000
0001
0000
0000
,
1001
0000
0000
0000
;

//---------------dance-single - ----------------
#NOTEDATA:;
#CHARTNAME:;
#STEPSTYPE:dance-single;
#DESCRIPTION:;
#CHARTSTYLE:;
#DIFFICULTY:Medium;
#METER:7;
#RADARVALUES:0.422429,0.474370,0.233228,0.149933,0.333183,355.000000,327.000000,28.000000,18.000000,0.000000,0.000000,2.000000,0.000000,0.000000,0.422429,0.474370,0.233228,0.149933,0.333183,355.000000,327.000000,28.000000,18.000000,0.000000,0.000000,2.000000,0.000000,0.000000;
#CREDIT:;
#NOTES:
0000
0000
0000
0000
,
1000
0010
0200
0301
,
0010
0100
0020
0031
,
1000
0001
0200
0310
,
0100
0001
0020
0130
,
0010
0001
0200
0310
,
0100
0010
2000
3001
,
1000
0001
0100
0010
1000
0100
0010
0100
,
2000
0000
0000
3000
0000
0000
0000
0000
,
1001
0001
0010
0100
,
1100
0010
0100
0001
,
1001
0001
1000
0010
,
1010
0010
0101
0001
,
1100
0100
1000
0010
,
0110
0000
0100
0000
0010
0000
1000
0001
,
0011
0010
0001
0100
,
0010
1000
0000
0001
0000
0010
0000
0001
,
1000
0000
1000
0000
0001
1000
0000
1000
,
0010
0000
0010
0000
0010
0100
0000
0100
,
0001
0000
0001
0000
0001
0010
0000
0010
,
0100
0000
0100
0000
0100
0010
0000
0010
,
0011
0001
0200
0310
,
1001
0000
0001
1000
0020
0000
2030
0000
,
3100
1000
0010
0100
,
0001
1000
0100
1000
0100
1000
0100
0010
,
0000
0100
0000
0010
0000
0001
0000
1000
,
0000
1010
0000
0101
0000
0001
1001
0000
,
1000
0000
0000
0010
0000
0100
0000
0001
0000
0000
0010
0000
0100
0000
1000
0000
,
0001
0000
0000
1000
0000
0010
0000
0100
0000
0000
0000
0000
0000
0000
0000
0000
,
0010
0000
0000
0100
0000
0010
0000
1000
0000
0000
0001
0000
0010
0000
0001
0000
,
0100
0000
0000
0001
0000
1000
0000
0001
0000
0000
0000
0000
0000
0000
0000
0000
,
1001
0000
0000
1000
0000
0010
0000
0100
0000
0000
0010
0000
0100
0000
0001
0000
,
0010
0000
0000
0100
0000
0010
0000
0100
0000
0000
0000
0000
0000
0000
0000
0000
,
0001
0000
0000
0100
0000
0100
0000
0000
0010
0000
0000
1000
0000
1000
0000
0000
,
4004
0000
0000
3003
,
0000
0000
1000
0000
0000
0000
0100
0000
1000
0000
0000
0010
0000
0000
0100
0000
,
0000
0000
0010
0000
0000
0000
0100
0000
0001
0000
0000
1000
0000
0000
0001
0000
,
0000
0000
0100
0000
0000
0000
0010
0000
1000
0000
0000
0100
0000
0000
0010
0000
,
0000
0000
0100
0000
0000
0000
0010
0000
0001
0000
0000
0000
1000
0000
0000
0010
,
0000
0000
0100
0000
0000
0000
0010
0000
1000
0000
0000
1000
0000
0000
1000
0000
,
0000
0000
0010
0000
0000
0000
0100
0000
0001
0000
0000
0001
0000
0000
0001
0000
,
0000
0000
0010
0000
0000
0000
0100
0000
0010
0000
0000
0001
0000
0000
1000
0000
,
1010
0000
0000
0101
0000
0000
1001
0000
,
1000
0001
0010
0010
,
0001
1000
0100
0100
,
1000
0010
0100
0100
,
0001
0010
0100
0100
,
1001
0000
0010
0000
,
1001
0000
0100
0000
,
1001
0010
1001
0100
,
1001
0000
0001
0000
0001
0000
0000
0001
0000
0000
1001
0000
0000
0000
0000
0000
,
1000
0000
0000
0010
0000
0100
0000
0010
0000
0000
0100
0000
0001
0000
0010
0000
,
0100
0000
0000
0010
0000
0001
0000
1000
0000
0000
0000
0000
1001
0000
0000
0000
,
1000
0000
0000
0010
0000
0100
0000
0001
0000
0000
0010
0000
0100
0000
1000
0000
,
0001
0000
0000
1000
0000
0010
0000
1000
0000
0000
0000
0000
0101
0000
0000
0000
,
0001
0000
0000
0010
0000
0100
0000
0010
0000
0000
0100
0000
1000
0000
0001
0000
,
0100
0000
0000
0010
0000
1000
0000
0100
0000
0000
0000
0000
0011
0000
0000
0000
,
0010
0000
0000
0100
0000
1000
0000
0010
0000
0000
0100
0000
0010
0000
1000
0000
,
0001
0000
0000
1000
0000
0010
0000
0100
0002
0000
0000
0000
0023
0000
0000
0000
,
0130
0000
0000
0010
0000
0001
0000
0100
0000
0000
0010
0000
0100
0000
0001
0000
,
1000
0000
0000
0100
0000
1000
0000
0010
0200
0000
0000
0000
0302
0000
0000
0000
,
0013
0000
0000
0001
0000
1000
0000
0100
0000
0000
0010
0000
0100
0000
1000
0000
,
0010
0000
0000
0100
0000
0010
0000
1000
0002
0000
0000
0000
2003
0000
0000
0000
,
3100
0000
0000
1000
0000
0010
0000
0100
0000
0000
0010
0000
1000
0000
0001
0000
,
0010
0000
0000
0100
0000
0010
0000
0001
0200
0000
0000
0000
0320
0000
0000
0000
,
1030
0000
0000
0001
0000
0001
0000
0000
0100
0000
0000
0010
0000
0010
0000
0000
,
1000
0000
0001
0000
0100
0000
0010
0000
1000
0000
0001
0000
0100
0000
0000
0000
0000
0000
0010
0000
0000
0100
0000
0000
,
1001
0000
0000
0000
;

//---------------dance-single - ----------------
#NOTEDATA:;
#CHARTNAME:;
#STEPSTYPE:dance-single;
#DESCRIPTION:;
#CHARTSTYLE:;
#DIFFICULTY:Easy;
#METER:3;
#RADARVALUES:0.211809,0.362753,0.149933,0.166592,0.000000,178.000000,160.000000,18.000000,20.000000,0.000000,0.000000,0.000000,0.000000,0.000000,0.211809,0.362753,0.149933,0.166592,0.000000,178.000000,160.000000,18.000000,20.000000,0.000000,0.000000,0.000000,0.000000,0.000000;
#CREDIT:;
#NOTES:
0000
0000
0000
0000
,
1000
0000
0001
0000
,
0100
0000
0010
0000
,
1000
0000
0010
0000
,
0100
0000
0001
0000
,
1000
0000
0001
0000
,
0100
0000
0010
0000
,
1000
0001
0100
0010
,
2002
0000
3003
0000
,
0110
0010
1000
0000
,
0101
0001
0010
0000
,
1100
0100
1000
0000
,
1001
0000
1010
0000
,
0101
0001
0010
0000
,
0110
0000
0100
0000
1000
0000
0000
0001
,
1000
0001
0100
0000
,
0001
0010
0100
1000
,
0001
1000
0010
0000
,
0100
0001
0010
0000
,
0100
1000
0100
0000
,
1000
0001
0100
0001
,
0010
0001
2000
0000
,
0000
3001
2000
3010
,
0100
0000
0010
0000
,
1000
0010
0100
0001
,
1001
0000
0000
0000
,
0000
0000
0000
0000
,
0001
0100
0001
0100
,
0001
0100
0001
0000
,
1000
0010
1000
0010
,
1000
0010
1000
0000
,
0001
1000
0001
1000
,
0001
1000
0001
0000
,
0110
0000
1001
0000
,
0220
0000
0000
0330
,
0100
0000
0010
0000
,
0001
1000
0010
1000
,
0000
1000
0000
0100
,
0000
1000
0001
0100
,
0010
0000
0100
0000
,
0001
0000
0010
0000
,
0100
0000
0010
0000
,
0001
0000
0000
1000
0000
0000
0010
0000
,
0200
0000
0000
0000
,
0000
0000
0000
0300
,
0020
0000
0000
0000
,
0000
0000
0000
0030
,
2000
0000
0000
3000
,
0002
0000
0000
0003
,
2000
3000
0002
0003
,
0220
0000
0000
0000
0000
0330
0000
0000
,
0100
0000
0010
0000
,
1000
0001
0100
0000
,
0001
0000
1000
0000
,
0100
1000
0010
0000
,
0100
0000
0010
0000
,
0100
0001
1000
0000
,
0100
0000
1000
0000
,
0010
0100
0001
1000
,
0200
0000
0000
0020
0000
0000
0000
0000
,
0000
0330
0100
1000
,
0020
0000
0000
0200
0000
0000
0000
0000
,
0000
0330
0100
0001
,
0020
0000
0000
0002
0000
0000
0000
0000
,
0000
0033
0100
1000
,
1001
0000
0110
0000
,
1001
0000
0110
0000
1001
0000
0010
0100
,
0010
0000
0000
0000
;

//---------------dance-single - ----------------
#NOTEDATA:;
#CHARTNAME:;
#STEPSTYPE:dance-single;
#DESCRIPTION:;
#CHARTSTYLE:;
#DIFFICULTY:Beginner;
#METER:1;
#RADARVALUES:0.091625,0.195329,0.049978,0.000000,0.000000,77.000000,71.000000,6.000000,0.000000,0.000000,0.000000,0.000000,0.000000,0.000000,0.091625,0.195329,0.049978,0.000000,0.000000,77.000000,71.000000,6.000000,0.000000,0.000000,0.000000,0.000000,0.000000,0.000000;
#CREDIT:;
#NOTES:
0000
0000
0000
0000
,
1000
0000
0000
0000
,
0000
0000
0000
0000
,
0001
0000
0000
0000
,
0000
0000
0000
0000
,
0100
0000
0000
0000
,
0000
0000
0000
0000
,
0010
0000
0000
0000
,
1001
0000
0000
0000
,
1000
0000
0000
0000
,
0010
0000
0000
0000
,
0100
0000
0000
0000
,
0001
0000
1000
0000
,
0001
0000
0000
0000
,
0010
0000
0000
0000
,
0100
0000
0000
0000
,
0000
0010
0000
0000
,
0001
0000
0000
0000
,
1000
0000
0000
0000
,
0100
0000
0000
0000
,
1000
0000
0010
0000
,
0100
0000
0000
0000
,
0010
0000
0000
0000
,
1000
0000
0000
0000
,
0001
0000
1000
0000
,
0110
0000
0000
0000
,
0000
0000
0000
0000
,
0010
0000
0000
0000
,
0010
0000
0000
0000
,
0100
0000
0000
0000
,
0100
0000
0000
0000
,
0001
0000
0000
0000
,
0001
0000
0000
0000
,
1000
0000
1000
0000
,
0110
0000
0000
0010
,
0100
0000
0000
0000
,
0000
0000
0010
0010
,
0000
0000
0000
0000
,
0000
0000
1000
1000
,
0000
0000
0000
0000
,
0001
0000
0000
0000
,
1000
0000
0000
0000
,
0110
0000
0000
0000
,
0100
0000
0000
0000
,
0000
0000
0000
0000
,
0010
0000
0000
0000
,
0000
0000
0000
0000
,
1000
0000
0000
0000
,
0001
0000
0000
0000
,
1000
0000
0001
0000
,
0110
0000
0000
0000
,
0010
0000
0000
0000
,
0000
0000
0000
0000
,
1000
0000
0000
0000
,
0000
0000
0000
0000
,
0001
0000
0000
0000
,
0000
0000
0000
0000
,
0100
0000
0000
0000
,
0000
0000
0010
0010
,
0010
0000
0000
0000
,
0000
0000
0100
0100
,
0100
0000
0000
0000
,
0000
0000
0001
0001
,
0001
0000
0000
0000
,
0000
0000
1000
1000
,
1000
0000
0001
0000
,
0100
0100
0100
0000
,
1001
0000
0000
0000
;

//---------------dance-double - ----------------
#NOTEDATA:;
#CHARTNAME:;
#STEPSTYPE:dance-double;
#DESCRIPTION:;
#CHARTSTYLE:;
#DIFFICULTY:Challenge;
#METER:8;
#RADARVALUES:0.565222,0.585986,0.316524,0.099955,0.391490,475.000000,437.000000,38.000000,12.000000,0.000000,0.000000,0.000000,0.000000,0.000000,0.565222,0.585986,0.316524,0.099955,0.391490,475.000000,437.000000,38.000000,12.000000,0.000000,0.000000,0.000000,0.000000,0.000000;
#CREDIT:;
#NOTES:
// measure 0
00000000
00000000
00000000
00000000
,  // measure 1
10000000
00100000
01000000
00010000
00100000
00001000
00010000
00000100
,  // measure 2
00010000
00001000
00100000
01000000
00100000
00010000
01000000
00100000
,  // measure 3
01000000
00010000
00100000
00001000
00010000
00000100
00001000
00000010
,  // measure 4
00000100
00000001
00001000
00000100
00000010
00000100
00001000
00000001
,  // measure 5
00000100
00000010
00010000
00000100
00010000
00001000
00100000
00010000
,  // measure 6
01000000
00100000
10000000
01000000
00100000
01000000
10000000
00010000
,  // measure 7
00100000
00001000
00010000
00000100
00000010
00000100
00001000
00000100
,  // measure 8
00002200
00000000
00000000
00003300
00000000
00000000
00000000
00000000
,  // measure 9
00011000
00001000
00100000
00000000
01000000
10000000
00000000
10000000
,  // measure 10
10100000
00100000
01000000
00000000
00001000
00010000
00000000
00000100
,  // measure 11
00001100
00000001
00000010
00000000
00000001
00001000
00000000
00000010
,  // measure 12
00001010
00000000
00000010
00001000
00001100
00000000
00000100
00010000
,  // measure 13
00011000
00001000
00100000
00000000
00010000
01000000
00000000
00100000
,  // measure 14
10100000
00000000
10000000
00000000
00010000
00000000
00000000
00000000
00100000
00000000
00001000
00000000
00000000
00000000
00010000
00000100
,  // measure 15
00001000
00000010
00000100
00000000
00000010
00001000
00000000
00000001
,  // measure 16
00001000
00001100
00000000
00000011
00000000
00001100
00000000
00000011
,  // measure 17
00000001
00000100
00000010
00001000
00000100
00001000
00000000
00001000
,  // measure 18
00000100
00010000
00001000
00100000
01000000
10000000
00000000
10000000
,  // measure 19
01000000
00010000
01000000
00100000
00010000
00100000
00000000
00100000
,  // measure 20
00001000
00010000
00000100
00001000
00000100
00000001
00000000
00000001
,  // measure 21
00000100
00000010
00000001
00000100
00000020
00000000
00001000
00000000
,  // measure 22
00000130
00000000
00000010
00001000
00000200
00000000
00010300
00000000
,  // measure 23
00011000
00000000
00001000
00100000
00110000
00000000
00010000
01000000
,  // measure 24
00100000
10000000
00100000
10000000
00100000
10000000
00100000
10000000
,  // measure 25
00100000
01100000
00000000
01010000
00000000
00101000
00000000
00011000
,  // measure 26
00000000
00010100
00000000
00101000
00000000
00010000
00011000
00000000
,  // measure 27
00001000
00000000
00010000
00001000
00000000
00100000
00000000
00010000
00000000
00000000
01000000
00000000
00100000
00000000
10000000
00000000
,  // measure 28
00010000
00000000
00100000
00001000
00000000
00010000
00000000
00000100
00000000
00000000
00000000
00000000
00000000
00000000
00000000
00000000
,  // measure 29
00010000
00000000
00000100
00001000
00000000
00000010
00000000
00000100
00000000
00000000
00000010
00000000
00001000
00000000
00000001
00000000
,  // measure 30
00000010
00000000
00000100
00001000
00000000
00000100
00000000
00010000
00000000
00000000
00000000
00000000
00000000
00000000
00000000
00000000
,  // measure 31
00011000
00000000
00001000
00100000
00000000
00010000
00000000
01000000
00000000
00000000
00100000
00000000
01000000
00000000
00010000
00000000
,  // measure 32
00100000
00000000
00001000
00010000
00000000
00000100
00000000
00001000
00000000
00000000
00000000
00000000
00000000
00000000
00000000
00000000
,  // measure 33
00001001
00000000
00000001
00000100
00000000
00000010
00000000
00001000
00000100
00000000
00000010
00000001
00000000
00000100
00000000
00000010
,  // measure 34
00001000
00000000
00000100
00010000
00000000
00010000
00001000
00000000
00010000
00001000
00010000
00001000
00100000
00000000
00000000
00000000
,  // measure 35
00000000
00000000
01000000
00000000
00000000
00000000
10000000
00000000
00100000
00000000
00000000
01000000
00000000
00000000
00010000
00000000
,  // measure 36
00000000
00000000
00100000
00001000
00010000
00000000
00010000
00000100
00001000
00000000
00000000
00000010
00000000
00000000
00001000
00000000
,  // measure 37
00000000
00000000
00000001
00000000
00000000
00000000
00000001
00000000
00000010
00000000
00000000
00000001
00000000
00000000
00000100
00000000
,  // measure 38
00000000
00000000
00000010
00001000
00000100
00000000
00001000
00000100
00010000
00000000
00000000
00000000
00001000
00000000
00000000
00100000
,  // measure 39
00000000
00000000
01000000
00000000
00000000
00000000
00100000
00000000
00010000
00000000
00000000
01000000
00000000
00000000
00100000
00000000
,  // measure 40
00000000
00000000
01100000
00000000
00000000
00000000
01000000
00000000
00010000
00000000
00000000
00100000
00000000
00000000
00001000
00000000
,  // measure 41
00000000
00000000
00001100
00000000
00000000
00000000
00001000
00000000
00001010
00000000
00000000
00000101
00000000
00000000
00001001
00000000
,  // measure 42
00000001
00000100
00000000
00010100
00000000
00000000
00101000
00000000
,  // measure 43
01000000
00000000
10000000
00000000
00100000
01000000
00010000
00100000
,  // measure 44
00001000
00000000
00010000
00000000
00000100
00001000
00000010
00000100
,  // measure 45
00000001
00000000
00001000
00000000
00000100
00010000
00001000
00100000
,  // measure 46
01000000
00000000
10000000
00000000
01000000
10000000
00100000
01000000
,  // measure 47
01010000
00000000
00000000
00000000
00000000
00000000
00000000
01000000
00010000
00000000
00010000
00000000
00000000
00000000
00000000
00000000
,  // measure 48
00011000
00000000
00000000
00000000
00000100
00000000
00000000
00001000
,  // measure 49
00001100
00000100
00000010
00000001
00000100
00000010
00001000
00000100
,  // measure 50
00010000
00000000
00010000
00000000
00010000
00000000
00000000
00010000
00000000
00000000
00011000
00000000
00000000
00000000
00000000
00000000
,  // measure 51
00001000
00000000
00010000
00100000
00000000
00010000
00000000
01000000
00000000
00000000
00100000
00000000
10000000
00000000
00010000
00000000
,  // measure 52
00100000
00000000
00001000
00100000
00000000
01000000
00000000
10000000
00000000
00000000
00000000
00000000
00011000
00000000
00000000
00000000
,  // measure 53
00010000
00000000
00000010
00000100
00000000
00000001
00000000
00001000
00000000
00000000
00000100
00000000
00000010
00000000
00001000
00000000
,  // measure 54
00000010
00000000
00000001
00000100
00000000
00000010
00000000
00001000
00000000
00000000
00000000
00000000
00011000
00000000
00000000
00000000
,  // measure 55
00001000
00000000
00010000
00000100
00000000
00010000
00000000
00001000
00000000
00000000
00100000
00000000
01000000
00000000
10000000
00000000
,  // measure 56
00100000
00000000
01000000
00010000
00000000
00100000
00000000
00001000
00000000
00000000
00000000
00000000
00011000
00000000
00000000
00000000
,  // measure 57
00010000
00000000
00000100
00001000
00000000
00000010
00000000
00000100
00000000
00000000
00000001
00000000
00000010
00000000
00000100
00000000
,  // measure 58
00000010
00000000
00000001
00000100
00000000
00000010
00000000
00001000
00000200
00000000
00000000
00000000
00020300
00000000
00000000
00000000
,  // measure 59
00031000
00000000
00100000
01000000
00000000
00100000
00000000
00010000
00000000
00000000
01000000
00000000
00100000
00000000
10000000
00000000
,  // measure 60
01000000
00000000
10000000
00100000
00000000
01000000
00000000
00010000
00200000
00000000
00000000
00000000
00302000
00000000
00000000
00000000
,  // measure 61
00013000
00000000
00000100
00010000
00000000
00000010
00000000
00000100
00000000
00000000
00000010
00000000
00001000
00000000
00000100
00000000
,  // measure 62
00000010
00000000
00000001
00000010
00000000
00000100
00000000
00000010
00000002
00000000
00000000
00000000
00002003
00000000
00000000
00000000
,  // measure 63
00003010
00000000
00001000
00000010
00000000
00000100
00000000
00000010
00000000
00000000
00001000
00000000
00000100
00000000
00010000
00000000
,  // measure 64
00001000
00000000
00100000
00010000
00000000
01000000
00000000
00100000
20000000
00000000
00000000
00000000
32000000
00000000
00000000
00000000
,  // measure 65
03100000
00000000
00001000
00010000
00000000
00000100
00000000
00000100
00010000
00000000
00001000
00100000
00000000
00001000
00000000
00010000
,  // measure 66
00000100
00000000
00010000
00000000
00001000
00000000
00100000
00000000
00001000
00000000
00010000
00000000
00000100
00000000
00000000
00000000
00000000
00000000
00010000
00000000
00000000
00001000
00000000
00000000
,  // measure 67
00011000
00000000
00000000
00000000
;
