#VERSION:0.83;
#TITLE:Ground Shake;
#SUBTITLE:;
#ARTIST:kors k;
#TITLETRANSLIT:;
#SUBTITLETRANSLIT:;
#ARTISTTRANSLIT:;
#GENRE:;
#ORIGIN:;
#CREDIT:;
#BANNER:Ground Shake.png;
#BACKGROUND:Ground Shake-bg.png;
#PREVIEWVID:;
#JACKET:;
#CDIMAGE:;
#DISCIMAGE:;
#LYRICSPATH:;
#CDTITLE:;
#MUSIC:Ground Shake.mp3;
#OFFSET:-0.588000;
#SAMPLESTART:77.368004;
#SAMPLELENGTH:14.400002;
#SELECTABLE:YES;
#BPMS:0.000=200.000;
#STOPS:;
#DELAYS:;
#WARPS:;
#TIMESIGNATURES:0.000=4=4;
#TICKCOUNTS:0.000=4;
#COMBOS:0.000=1;
#SPEEDS:0.000=1.000=0.000=0;
#SCROLLS:0.000=1.000;
#FAKES:;
#LABELS:0.000=Song Start;
#BGCHANGES:;
#KEYSOUNDS:;
#ATTACKS:
;

//---------------dance-single - X----------------
#NOTEDATA:;
#CHARTNAME:;
#STEPSTYPE:dance-single;
#DESCRIPTION:X;
#CHARTSTYLE:;
#DIFFICULTY:Edit;
#METER:10;
#RADARVALUES:0.678796,0.891868,0.303672,0.419782,0.415316,532.000000,498.000000,34.000000,47.000000,61.000000,0.000000,0.000000,0.000000,0.000000,0.678796,0.891868,0.303672,0.419782,0.415316,532.000000,498.000000,34.000000,47.000000,61.000000,0.000000,0.000000,0.000000,0.000000;
#CREDIT:;
#OFFSET:-0.588000;
#BPMS:0.000000=200.000000
,60.000000=100.000000
,62.000000=200.000000
,88.000000=100.000000
,90.000000=200.000000
,102.000000=100.000000
,104.000000=200.000000
,119.000000=100.000000
,151.000000=200.000000
,211.000000=100.000000
,212.000000=200.000000
,213.000000=400.000000
,215.000000=200.000000
,271.000000=100.000000
,273.000000=200.000000
,283.000000=100.000000
,285.000000=200.000000
,297.000000=400.000000
,301.000000=200.000000
,305.000000=100.000000
,306.000000=50.000000
;
#STOPS:72.000000=0.150000
,72.500000=0.150000
,87.000000=0.150000
,87.500000=0.150000
,118.000000=0.149998
,118.500000=0.149998
,237.500000=0.150002
,238.500000=0.149994
,240.000000=0.150002
,242.500000=0.150002
,261.000000=0.299995
,264.000000=0.299995
,276.000000=0.150002
,278.500000=0.150002
,282.000000=0.149994
,282.500000=0.150002
,297.000000=0.074997
,297.500000=0.075005
,298.000000=0.075005
,298.500000=0.075005
,299.000000=0.075005
,299.500000=0.075005
,300.000000=0.075005
,300.500000=0.075005
;
#DELAYS:;
#WARPS:;
#TIMESIGNATURES:0.000000=4=4
;
#TICKCOUNTS:0.000000=4
;
#COMBOS:0.000000=1
;
#SPEEDS:0.000000=1.000000=0.000000=0
;
#SCROLLS:0.000000=1.000000
;
#FAKES:;
#LABELS:0.000000=Song Start
;
#NOTES:
0000
0000
0000
0000
,
0000
0000
0000
0000
,
0000
0000
0000
0000
,
0000
0000
0000
0000
,
0000
0000
0000
0000
,
0000
0000
0000
0000
,
0000
0000
0000
0000
,
0000
0000
0000
0000
,
1001
0001
0010
0001
1000
0001
0000
1000
,
0010
1000
0001
0100
0000
0000
0010
0000
,
1000
0000
0100
0000
1000
0001
0100
0001
,
1000
0100
0010
0001
0000
0000
0000
0000
,
1001
1000
0010
0100
0010
1000
0000
0001
,
0100
0010
0100
0001
0000
0000
1000
0000
,
0100
0000
1000
0000
0010
0100
0001
1000
,
0000
1001
0110
0000
1001
0000
0100
0001
,
0010
0100
1000
0000
0100
0000
1000
0000
,
0010
0000
0100
0010
0100
0000
0001
0000
1000
0000
0000
0000
1000
0000
0000
0000
,
1010
0000
0101
0000
0001
0000
0100
0001
0100
0000
0001
0000
0100
0000
0010
1000
,
0010
0000
1000
0000
0100
0010
0001
1000
,
0010
0000
0000
0000
0100
0000
0000
0000
0100
0000
0000
0000
0010
0000
1000
0010
,
1000
0001
0010
0000
0010
0000
1100
1010
,
0100
1000
0100
0001
0200
0000
0302
0000
0013
0000
0100
0000
0010
0000
0001
0000
,
1000
0010
1000
0000
0001
1000
0100
1000
,
0001
0000
0010
0100
0010
0000
0001
0000
1000
0000
0010
0000
1000
0000
0001
0000
,
0011
0000
0000
0000
0000
0000
0000
0000
1010
0000
0000
0000
0000
0000
0000
0000
1000
0000
0001
0100
0001
0000
0020
0000
0230
0000
0300
0000
0200
0000
0320
0000
,
0031
1000
0010
1000
0001
0010
0100
0000
,
0010
0000
0001
0000
1000
0000
0010
0000
0100
0000
0001
1000
0001
0000
1000
0000
,
0001
0100
0000
0010
1000
0000
0011
0000
,
1000
0000
0001
0000
0100
0000
1000
0000
1100
0000
0101
0000
10M1
00M0
00M0
00M0
,
00M0
00M0
00M0
00M0
00M0
00M0
00M0
00M0
00M0
00M0
00M0
00M0
10M0
00M0
00M1
00M0
,
01M0
00M1
10M0
01M0
00M1
01M0
10M0
00M0
01M0
00M0
10M0
0M01
1M10
0M00
0M00
0M00
,
0M10
0M00
0M00
0M00
1M00
0M00
0M00
0M00
0M01
0M00
0M10
0M01
2M00
0M00
3M02
0M00
,
0M13
0M01
0M10
0M01
1M00
0M01
0M00
0M20
0M30
0002
0000
0003
0210
0000
0000
0000
,
0310
0000
0000
0000
0000
0000
0000
0000
2001
0000
0000
0000
0000
0000
0000
0000
3010
0100
0010
0100
0010
0100
0010
0100
0020
0000
0000
0000
0000
0000
1030
0000
,
1002
0000
0000
0000
0023
0000
0000
0130
0120
0000
0000
0000
0031
0000
0000
0000
,
1000
0000
0100
0000
0010
0000
0001
0000
1000
0000
0100
0000
1000
0000
0000
0000
0000
0000
0000
0000
0000
0001
0000
0000
0010
0000
0000
0100
0000
0000
0010
0000
0000
0000
0000
0000
0100
0000
0000
0000
0000
0000
0000
0000
0000
0010
0000
0000
,
0100
0000
0000
1000
0000
0000
0001
0000
0000
1000
0000
0000
0001
0000
0000
0000
0000
0000
1000
0000
0010
0000
1000
0000
0020
0000
0000
0000
0000
0000
0230
0000
0000
0000
0000
0000
0301
0000
0000
0000
0000
0000
0000
0000
0000
0000
0000
0000
,
1000
0001
0010
0010
0100
0010
0001
0000
,
1000
1000
1000
0001
0100
0001
0010
0000
,
0100
1000
1000
0001
0100
0001
0010
0000
,
0100
0100
0100
0010
0001
1000
0010
0000
,
0100
0001
0001
0010
0001
1000
0001
0000
,
0100
0100
0100
0010
1000
0100
0010
0000
,
0100
0010
0010
0001
1000
0010
0200
0000
,
0010
0310
0000
1001
,
0001
0010
0001
1000
,
0001
0000
0000
0000
1000
0000
0001
1000
0002
0000
0000
0000
0103
0000
0000
0000
,
0010
0000
0000
0000
1000
0000
0001
1000
0001
0000
1000
0000
0100
0000
0000
0000
,
0010
0100
1000
1001
,
1001
1001
1001
1001
,
1001
0000
0000
0000
1001
0000
0000
1000
0001
0000
1000
0000
0001
0000
0100
0010
,
1000
0001
0101
0000
1100
0000
0022
0000
,
0000
0000
0000
0000
0033
0000
1100
0100
,
1000
0010
0100
0001
0010
0100
0010
0001
,
1000
0000
0010
0000
0100
0000
0001
1000
0002
0000
0000
0000
0013
0000
0001
0000
,
0100
0001
1000
0100
1000
0010
0100
0010
,
1000
0000
0001
0000
0010
0000
0100
0010
0100
0000
0010
0000
0001
0000
1000
0000
,
0010
1000
0001
0100
0001
0010
0001
1000
,
0100
0010
0001
0100
0100
0010
1000
0001
,
1000
0000
1001
0000
0000
0000
0001
0000
1000
0010
1000
0000
0100
0000
0000
0000
,
0010
0000
0100
0010
0100
0000
0010
0000
0001
0000
0100
0000
0010
0000
1000
0000
,
0001
0000
0010
0000
0100
0000
0010
0000
0001
0000
1000
0000
0010
0000
0100
0010
,
0200
0000
0301
1000
0100
1000
0010
0100
,
0001
0010
0100
0010
0000
0100
0010
0000
,
0200
0300
1000
0001
0010
0002
0103
0000
,
0010
0100
0100
0020
2030
3002
0013
0100
,
1000
0001
1000
0000
0001
0000
1000
0001
1000
0000
0001
0000
0100
0010
0010
0010
,
0010
0100
0002
0000
1003
0001
1000
0000
0100
0000
0010
0000
0100
0000
1000
0000
,
0010
0000
0100
0000
0001
0000
0010
0000
0001
0000
1000
0000
0001
0100
0000
0100
,
0010
0000
1000
0000
0001
0010
0001
0010
0200
0000
0320
0000
0031
0010
0100
1000
,
0001
0000
1000
0001
2000
0000
0000
0000
3010
0000
0000
0000
0000
0000
0000
0000
0100
0000
0010
0000
0100
0000
0010
0000
0200
0000
0300
0000
0010
0000
0000
0000
,
1000
0000
0000
0000
0001
1000
0001
0000
0020
0030
0001
0000
1000
0000
0010
1000
,
0020
0000
0000
0000
0130
0000
0001
0000
1000
0001
1000
0001
1000
0000
0001
0000
,
1000
0000
0000
0000
0000
0000
0000
0000
0000
0000
0000
0000
0001
0000
0000
0000
0000
0000
0000
0000
0000
0000
0000
0000
1000
0000
0000
0000
0000
0000
0000
0000
0000
0000
0000
0000
0001
0000
0000
0000
0000
0000
0000
0000
0000
0000
0000
0000
2000
3000
0000
0000
0000
0000
0000
0000
0000
0000
0000
0000
0000
0000
0000
0000
0000
0000
0000
0000
0000
0000
0000
0000
0020
0030
0000
0000
0000
0000
0000
0000
0000
0000
0000
0000
0000
0000
0000
0000
0000
0000
0000
0000
0000
0000
0000
0000
0002
0003
0000
0000
0000
0000
0000
0000
0000
0000
0000
0000
0000
0000
0000
0000
0000
0000
0000
0000
0000
0000
0000
0000
0020
0030
0000
0000
0000
0000
0000
0000
0000
0000
0000
0000
0000
0000
0000
0000
0000
0000
0000
0000
0000
0000
0000
0000
2000
3000
0000
0000
0000
0000
0000
0000
0000
0000
0000
0000
0000
0000
0000
0000
0000
0000
0000
0000
0000
0000
0000
0000
0200
0300
0000
0000
0000
0000
0000
0000
0000
0000
0000
0000
0000
0000
0000
0000
0000
0000
0000
0000
0000
0000
0000
0000
,
0002
0003
0000
0000
0000
0000
0000
0000
0000
0000
0000
0000
0000
0000
0000
0000
0000
0000
0000
0000
0000
0000
0000
0000
0200
0000
0000
0000
0000
0000
0000
0000
0000
0000
0000
0000
0000
0000
0000
0000
0000
0000
0000
0000
0000
0000
0000
0000
0020
0000
0000
0000
0000
0000
0000
0000
0000
0000
0000
0000
0000
0000
0000
0000
0000
0000
0000
0000
0000
0000
0000
0000
0000
0000
0000
0000
0000
0000
0000
0000
0000
0000
0000
0000
0000
0000
0000
0000
0000
0000
0000
0000
0000
0000
0000
0000
0000
0000
0000
0000
0000
0000
0000
0000
0000
0000
0000
0000
0000
0000
0000
0000
0000
0000
0000
0000
0000
0000
0000
0000
0000
0000
0000
0000
0000
0000
0000
0000
0000
0000
0000
0000
0000
0000
0000
0000
0000
0000
0000
0000
0000
0000
0000
0000
0000
0000
0000
0000
0000
0000
0000
0000
0000
0000
0000
0000
0000
0000
0000
0000
0000
0000
0000
0000
0000
0000
0000
0000
0000
0000
0000
0000
0000
0000
0000
0000
0000
0000
0000
0000
0000
0000
0000
0000
0000
0000
0000
0000
0000
0000
0000
0000
,
0000
0000
0000
0000
0000
0000
0000
0000
0000
0330
2002
0000
0000
3003
0000
0000
;

//---------------dance-single - ----------------
#NOTEDATA:;
#CHARTNAME:;
#STEPSTYPE:dance-single;
#DESCRIPTION:;
#CHARTSTYLE:;
#DIFFICULTY:Hard;
#METER:8;
#RADARVALUES:0.544823,0.729482,0.419782,0.223288,0.008932,427.000000,380.000000,47.000000,25.000000,0.000000,0.000000,0.000000,0.000000,0.000000,0.544823,0.729482,0.419782,0.223288,0.008932,427.000000,380.000000,47.000000,25.000000,0.000000,0.000000,0.000000,0.000000,0.000000;
#CREDIT:;
#NOTES:
0000
0000
0000
0000
,
0000
0000
0000
0000
,
0000
0000
0000
0000
,
0000
0000
0000
0000
,
0000
0000
0000
0000
,
0000
0000
0000
0000
,
0000
0000
0000
0000
,
0000
0000
0000
0000
,
1001
0001
0010
0001
,
0100
0010
1000
0001
0000
0000
1000
0000
,
1000
0001
0001
1000
,
0001
0010
0100
1000
0000
0000
0000
0000
,
1001
0001
0010
0001
,
1000
0010
0100
0001
0000
0000
0010
0000
,
0010
0100
0100
0010
,
0000
1001
1001
0000
,
0001
0000
0100
0010
1000
0000
0100
0000
,
0010
0000
0100
0000
1000
0000
0001
1000
,
0010
0100
0101
0011
,
0010
0001
0100
0000
0010
1000
0100
0010
,
0001
0000
0010
0001
1000
0000
0001
0000
,
0100
0000
0010
0000
0100
0010
1000
0001
,
0010
0100
0110
1100
,
0100
0100
0010
0001
2000
0000
3002
0000
,
0103
0000
0001
1000
0100
0000
0010
0000
,
0100
0000
1000
0000
0010
0100
0010
1000
,
0001
0000
0010
0100
0110
0000
0110
0000
,
0100
0010
0001
0100
1000
0100
0010
1000
,
0001
0000
1000
0000
0010
1000
0100
0000
,
0010
0000
0100
0000
0010
0001
0100
0010
,
1000
0001
0000
0001
1000
0000
0110
0000
,
0001
0100
1000
0100
0101
0000
1100
0000
,
0101
0000
0000
0000
,
0000
0000
0000
0000
,
0002
0000
2003
0000
3100
0010
0001
0100
,
0010
0100
0010
0000
0100
0000
0001
0000
,
1001
0000
1000
0000
,
0000
0000
1000
0020
,
2030
0000
3200
0000
0310
0100
1000
0001
,
0200
0320
2030
3001
,
0021
0000
0130
0000
,
1020
0000
0000
0000
0230
0000
0000
0300
,
2001
0000
0000
0100
3100
0000
0000
0000
,
1002
0000
0000
0010
0013
0000
0000
0000
,
1020
0000
0130
0000
,
0102
0000
0013
0000
,
0210
0000
1300
0000
,
0120
0000
0000
0000
0031
0000
1000
0001
,
1000
0000
0100
0010
0001
1000
0001
1000
,
0100
0000
0010
0001
0010
0001
0010
0100
,
1000
0000
0001
0100
0010
0100
0010
1000
,
0001
0000
1000
0100
1000
0100
0020
0000
,
0130
0000
0010
0001
0100
0001
0100
0001
,
1000
0000
0010
0100
0010
0100
0010
1000
,
0001
0000
1000
0100
0010
0100
0010
0001
,
1000
0110
0110
0000
,
1001
0001
0100
1000
,
0100
0001
0100
2000
,
3001
0100
0020
1030
,
0001
0010
1000
0010
,
0011
0011
0011
0011
,
1100
1100
1100
1100
,
0011
1100
0011
1100
,
1002
0000
0000
0000
,
0103
0001
0100
0010
,
1000
0010
0100
0001
,
1000
0001
0010
0100
,
0010
0000
0001
0000
0100
0001
0010
0100
,
1000
0001
0100
0001
,
0010
0000
0100
0000
0010
0001
0000
0001
,
1000
0000
0010
0100
0010
0000
0100
0000
,
0010
0000
0000
1000
0000
0000
0100
0000
0000
0000
0000
0000
0010
0000
0000
0000
0100
0000
0000
0000
1000
0000
0000
0000
,
0001
0100
1000
0100
,
0010
0000
1000
0000
0001
0010
0100
0000
,
0010
0001
0010
1000
,
0010
0100
0000
0100
0010
0001
1000
0000
,
0010
0000
0000
0100
0100
0000
0010
0000
,
1000
0000
0000
0001
0010
0001
0100
0010
,
1000
1000
0001
0010
1000
0010
0001
0100
,
0010
1000
0001
1000
0001
0010
0100
0000
,
0010
0001
0100
1000
0100
0010
1000
0000
,
1000
0010
0001
0010
0100
0001
0010
0000
,
1000
0100
0001
0100
0010
0001
1000
0000
,
0001
0100
1000
0100
0010
1000
0001
0000
,
1100
0000
0011
0000
0001
0100
0010
0000
,
1010
0000
0101
0000
0001
0010
0100
0000
,
1100
0110
0011
1100
,
1000
0100
0010
0100
1000
0001
1000
0010
,
0200
0000
0000
0000
,
0000
0000
0000
0000
,
0020
0000
0000
0330
;

//---------------dance-single - ----------------
#NOTEDATA:;
#CHARTNAME:;
#STEPSTYPE:dance-single;
#DESCRIPTION:;
#CHARTSTYLE:;
#DIFFICULTY:Easy;
#METER:5;
#RADARVALUES:0.324087,0.401919,0.125041,0.062521,0.000000,254.000000,240.000000,14.000000,7.000000,0.000000,0.000000,0.000000,0.000000,0.000000,0.324087,0.401919,0.125041,0.062521,0.000000,254.000000,240.000000,14.000000,7.000000,0.000000,0.000000,0.000000,0.000000,0.000000;
#CREDIT:;
#NOTES:
0000
0000
0000
0000
,
0000
0000
0000
0000
,
0000
0000
0000
0000
,
0000
0000
0000
0000
,
0000
0000
0000
0000
,
0000
0000
0000
0000
,
0000
0000
0000
0000
,
0000
0000
0000
0000
,
1001
0000
0001
0000
,
1000
0010
1000
0000
,
1000
0000
0100
0000
,
0010
0001
0010
0000
,
1001
0000
0001
0000
,
0100
0001
0100
0000
,
0100
0000
0010
0000
,
0000
1000
1000
0000
,
1001
0001
0010
0001
,
1000
0001
1000
0001
,
0100
0001
0100
0100
,
0010
1000
0010
0100
,
0001
1000
0001
1000
,
0001
0010
0001
0010
,
0100
1000
0001
0001
,
1000
0010
0100
0001
,
1000
0001
0010
0001
,
1000
0100
0010
0100
,
1000
0010
0100
0100
,
0010
1000
0010
0100
,
0001
0010
0100
0010
,
0001
1000
0010
0100
,
0010
1000
0001
0001
,
1000
0100
0010
0001
,
1001
0000
0000
0000
,
0000
0000
0000
0000
,
1000
0000
0001
0000
,
0100
0000
0010
0000
,
1001
0000
0010
0000
,
0000
0000
0010
0000
,
0000
0000
0010
0000
,
0100
0000
0010
0000
,
1010
0000
0100
0000
,
1001
0000
0001
0000
,
0011
0000
0100
0000
,
1001
0000
0010
0000
,
1010
0000
1000
0000
,
0101
0000
0001
0000
,
0011
0000
0100
0000
,
1100
0000
0100
0000
,
1000
0010
0100
0001
,
1000
0000
0000
0001
,
0010
0100
0010
0001
,
1000
0000
0000
0000
,
0001
0100
0010
0100
,
0001
0000
0000
0000
,
1000
0001
0100
0001
,
0010
0000
0000
0000
,
0100
0000
0100
0000
,
0010
0000
0010
0000
,
0001
0000
0001
0000
,
1000
0000
1000
0000
,
0001
0001
0001
0001
,
1000
1000
1000
1000
,
0010
0100
0001
1000
,
0020
0000
0000
0000
,
1030
0010
0100
0001
,
0010
0100
0010
0002
,
1003
0001
0100
0001
,
0010
0100
0020
0032
,
1003
0001
0100
0001
,
0100
0010
1000
0020
,
1030
0010
0100
0001
,
1000
0100
0010
0100
,
1000
0010
0100
0001
,
0010
0100
0010
0002
,
0103
0001
0010
0100
,
0010
0001
1000
0010
,
0100
0000
0010
0000
,
1000
0000
0001
0000
,
1000
0100
0010
0001
,
1001
0000
0000
0000
,
0001
0100
0010
0100
,
0000
0010
1000
0010
,
0000
1000
0001
1000
,
0000
0001
0010
0001
,
0100
0010
1000
0001
,
0010
0100
0010
0001
,
1000
0100
0001
0100
,
1000
0010
0001
0010
,
0200
0000
0000
0000
,
0000
0000
0000
0000
,
0310
0000
0000
0000
;

//---------------dance-single - ----------------
#NOTEDATA:;
#CHARTNAME:;
#STEPSTYPE:dance-single;
#DESCRIPTION:;
#CHARTSTYLE:;
#DIFFICULTY:Medium;
#METER:7;
#RADARVALUES:0.438921,0.723453,0.437645,0.133973,0.000000,344.000000,295.000000,49.000000,15.000000,0.000000,0.000000,0.000000,0.000000,0.000000,0.438921,0.723453,0.437645,0.133973,0.000000,344.000000,295.000000,49.000000,15.000000,0.000000,0.000000,0.000000,0.000000,0.000000;
#CREDIT:;
#NOTES:
0000
0000
0000
0000
,
0000
0000
0000
0000
,
0000
0000
0000
0000
,
0000
0000
0000
0000
,
0000
0000
0000
0000
,
0000
0000
0000
0000
,
0000
0000
0000
0000
,
0000
0000
0000
0000
,
1001
0001
0010
0001
,
0100
0010
1000
0010
,
0100
0100
0010
0010
,
1000
0001
1000
0000
,
1001
0001
0010
0001
,
0100
0010
1000
0010
,
0010
1000
1000
0001
,
0000
1010
0101
0000
,
1001
0001
0010
0001
,
0100
0010
1000
0010
,
0100
0001
1001
1001
,
0001
1000
0100
1000
,
0010
0100
0010
1000
,
0001
0010
0100
0010
,
0001
0100
0101
1010
,
1000
0000
0010
0000
0100
0010
1000
0000
,
1001
0001
0010
0001
,
0100
0010
1000
0010
,
0100
0001
1001
0101
,
0001
1000
0000
1000
0001
0000
0100
0000
,
0010
0100
0001
1000
,
0100
0010
0100
1000
,
0001
0100
0101
1010
,
1000
0100
0010
0001
1000
0000
0001
0000
,
1001
0000
0000
0000
,
0000
0000
0000
0000
,
0001
0100
1000
0100
,
0001
0100
1000
0100
,
1001
0000
0001
0000
,
0000
0000
0001
0010
,
1000
0010
0001
0010
,
0100
0100
0010
0000
,
1002
0000
0103
0000
,
2001
0000
3100
0000
,
1002
0000
0013
0000
,
2001
0000
3010
0000
,
0120
0000
1030
0000
,
0120
0000
0031
0000
,
0120
0000
1030
0000
,
0120
0000
0031
0100
,
0001
0000
1000
0000
0100
0000
0010
0001
,
0010
0000
0000
0000
0000
0000
0001
0100
,
0001
0000
0100
0000
0010
0000
1000
0010
,
1000
0000
0000
0000
0000
0000
0001
1000
,
0001
0000
1000
0000
0100
0000
0010
0001
,
0010
0000
0000
0000
0000
0000
0001
0100
,
0001
0000
0100
0000
0010
0000
1000
0010
,
1000
0001
0001
0000
,
1000
0001
1000
0001
,
1000
0001
1000
0020
,
1030
0001
0200
0301
,
1000
0001
0010
0100
,
1000
1000
0100
0100
,
0010
0010
0001
0001
,
1000
0000
0100
0010
0001
0000
0011
0000
,
1100
0000
0000
0000
,
1001
0001
0100
0010
,
1000
0010
0100
0002
,
1003
0100
1000
0010
,
0100
0000
0001
0000
1000
0000
0010
0100
,
0010
0100
0010
1000
,
0001
0010
0100
0020
,
0031
0000
0010
0100
1000
0000
0100
0000
,
1000
0000
0010
0000
0100
0010
1000
0001
,
0100
0001
0010
0100
,
0010
0001
1000
0002
,
0103
0010
1000
0010
,
0100
0001
0000
0001
1000
0000
0010
0000
,
1000
0000
0000
0001
1000
0000
0010
0000
,
0100
0000
0000
0010
1000
0000
0010
0000
,
0100
0010
0100
0010
0100
0000
0010
0000
,
1001
0000
0000
0000
,
0010
1001
1010
1001
,
0000
1001
0011
1001
,
0000
1001
1100
1001
,
0000
1000
0100
0010
,
1001
0001
0010
0100
,
1001
1000
0100
0010
,
1001
0110
1001
0110
,
1010
0101
0011
1100
,
2002
0000
0000
0000
,
0000
0000
0000
3003
,
0110
0000
0000
0000
;

//---------------dance-double - ----------------
#NOTEDATA:;
#CHARTNAME:;
#STEPSTYPE:dance-double;
#DESCRIPTION:;
#CHARTSTYLE:;
#DIFFICULTY:Challenge;
#METER:9;
#RADARVALUES:0.577997,0.770009,0.482302,0.169699,0.075918,453.000000,399.000000,54.000000,19.000000,0.000000,0.000000,0.000000,0.000000,0.000000,0.577997,0.770009,0.482302,0.169699,0.075918,453.000000,399.000000,54.000000,19.000000,0.000000,0.000000,0.000000,0.000000,0.000000;
#CREDIT:;
#NOTES:
// measure 0
00000000
00000000
00000000
00000000
,  // measure 1
00000000
00000000
00000000
00000000
,  // measure 2
00000000
00000000
00000000
00000000
,  // measure 3
00000000
00000000
00000000
00000000
,  // measure 4
00000000
00000000
00000000
00000000
,  // measure 5
00000000
00000000
00000000
00000000
,  // measure 6
00000000
00000000
00000000
00000000
,  // measure 7
00000000
00000000
00000000
00000000
,  // measure 8
00000000
10000000
00100000
01000000
00010000
00100000
00000000
00001000
,  // measure 9
00010000
00000100
00010000
00001000
00000000
00000000
00010000
00000000
,  // measure 10
00001000
00000000
01000000
00000000
00100000
10000000
00100000
01000000
,  // measure 11
00010000
00100000
00001000
00010000
00000000
00000000
00000000
00000000
,  // measure 12
00000000
00001000
00010000
00000100
00001000
00000010
00000000
00000100
,  // measure 13
00000010
00001000
00000010
00000100
00000000
00000000
00000010
00000000
,  // measure 14
00000100
00000000
00000001
00000000
00001000
00000010
00002000
00000200
,  // measure 15
00000000
00003000
00000300
00000000
,  // measure 16
00101000
00000000
00001000
00000000
00100000
01000000
10000000
00000000
,  // measure 17
00100000
00000000
10100000
00000000
00100000
10000000
00010000
00100000
,  // measure 18
00010000
10000000
01010000
00110000
,  // measure 19
00100000
00000000
00001000
00000000
00010000
00000000
00001000
00000000
00100000
00000000
00001000
00010000
00000100
00000000
00000000
00000000
,  // measure 20
00001000
00000000
00000010
00000000
00000100
00000001
00000010
00000000
,  // measure 21
00000100
00000000
00000010
00000001
00001000
00000010
00001000
00000000
,  // measure 22
00000001
00001000
00001100
00001010
,  // measure 23
00000010
00001000
00000100
00010000
00002000
00000000
00013000
00000000
,  // measure 24
00001000
00000000
00001000
00000000
00010000
00001000
00100000
00000000
,  // measure 25
00010000
00000000
00010000
00000000
10000000
00010000
00100000
00001000
,  // measure 26
00010000
00000000
00000100
00001000
00000010
00000000
00000110
00000000
,  // measure 27
00000100
00000100
00000010
00001000
00000002
00000000
00000013
00000001
,  // measure 28
00000100
00000010
00001000
00000100
,  // measure 29
00010000
00000000
00001000
00000000
00100000
00000000
01000000
10000000
,  // measure 30
00100000
00100000
00000000
01000000
01000000
00000000
01100000
00000000
,  // measure 31
01000000
00010000
00100000
00001000
00010000
00000000
00001000
00000000
,  // measure 32
00011000
00000000
00000000
00000000
,  // measure 33
00000000
00000000
00000000
00000000
,  // measure 34
00002000
00000000
00203000
00000000
00310000
01000000
00010000
01000000
,  // measure 35
00100000
10000000
02000000
00000000
23000000
00000000
30200000
00000000
,  // measure 36
01300000
00000000
00000000
00000000
,  // measure 37
00000000
00000000
00000000
00020000
,  // measure 38
00130000
00002000
00000000
00000000
00013000
00000100
00010000
00000100
,  // measure 39
00000010
00000001
00000200
00000000
00000320
00000000
00001030
00000000
,  // measure 40
00001001
00000000
00000010
00000000
,  // measure 41
00001010
00000000
00000000
00000000
00000000
00000000
00000000
00000000
00001000
00000100
00001000
00000100
00001000
00000100
00001000
00000100
,  // measure 42
00001000
00000000
00000000
00000100
00010000
00001000
00010000
00000000
,  // measure 43
00001000
00000000
00000000
00001000
00100000
00010000
00100000
00000000
,  // measure 44
01000000
00000000
00000000
00000000
00000000
00000000
00100000
00010000
01000000
00100000
10000000
01000000
,  // measure 45
00100000
00000000
01000000
00100000
01000000
10000000
00010000
00000000
,  // measure 46
00100000
00000000
00001000
00100000
00010000
00000000
00100000
00000000
,  // measure 47
00011000
00000000
00000000
00000000
00000000
00000000
00010000
00000000
00000100
00000000
00010000
00000000
00001000
00000000
00000000
00010000
00000000
00000000
00000000
00000000
00000000
00001000
00000000
00000000
,  // measure 48
00100000
00000000
01000000
10000000
10000000
00100000
01000000
00010000
,  // measure 49
10000000
00000000
01000000
01000000
01000000
00100000
00010000
00100000
,  // measure 50
00001000
00000000
00010000
00000100
00000100
00001000
00000010
00000100
,  // measure 51
00000001
00000000
00001000
00001000
00001000
00000001
00000010
00000001
,  // measure 52
00000100
00000000
00000010
00000100
00000100
00000010
00001000
00000100
,  // measure 53
00001000
00000000
00000100
00000100
00000100
00010000
00001000
00100000
,  // measure 54
01000000
00000000
00100000
00010000
00010000
01000000
00100000
10000000
,  // measure 55
01000000
00110000
11000000
00000000
,  // measure 56
10010000
00010000
00100000
00100000
,  // measure 57
00001000
00010000
00000100
00001000
,  // measure 58
00001001
00001000
00000001
00000001
,  // measure 59
00000010
00000100
00001000
00000100
,  // measure 60
00001100
00001100
00011000
00011000
,  // measure 61
01010000
01010000
10010000
10010000
,  // measure 62
10000000
00000000
00100000
01000000
00010000
00000000
00100000
00000000
00101000
00000000
00000000
00000000
00010100
00000000
00000000
00000000
,  // measure 63
00021000
00000000
00000000
00000000
,  // measure 64
00030010
00000100
00000001
00001000
,  // measure 65
00000100
00010000
00001000
02000000
,  // measure 66
03100000
10000000
00010000
00100000
,  // measure 67
01000000
00000000
00000000
00000000
00100000
00000000
00000000
00000000
00010000
00000000
10000000
00010000
10000000
00000000
00010000
00000000
,  // measure 68
01000000
00010000
00100000
01000000
,  // measure 69
00100000
00000000
00001000
00000000
00010000
00000100
00000000
00001000
,  // measure 70
00000010
00000000
00000100
00000001
00000010
00000000
00000100
00000000
,  // measure 71
00000010
00000000
00000001
00001000
00000001
00000000
00000000
00000000
00000001
00000000
00000000
00000100
00000000
00000000
00000010
00000000
,  // measure 72
00001000
00000100
00010000
00001000
,  // measure 73
00100000
10000000
00100000
00010000
,  // measure 74
01000000
00010000
00100000
00001000
,  // measure 75
00010000
00000100
00000001
00000100
,  // measure 76
00000010
00000000
00000000
00000010
00000001
00000000
00000010
00000001
,  // measure 77
00001000
00000000
00000000
00001000
00000010
00001000
00000100
00010000
,  // measure 78
00001000
00000000
00100000
00000000
00001000
00100000
00001000
00000000
00010000
00000000
00000100
00010000
00000100
00000000
00010000
00000000
,  // measure 79
00000010
00000010
00000010
00000100
00000010
00001000
00000001
00000000
,  // measure 80
00000001
00001010
00001100
00010100
,  // measure 81
00000000
00010100
00001100
00000110
,  // measure 82
00000000
00000110
00001100
00010100
,  // measure 83
00000100
00010000
00001000
00100000
01000000
10000000
00100000
00000000
,  // measure 84
01100000
01010000
00110000
00101000
,  // measure 85
00011000
00001100
00001010
00000101
,  // measure 86
00001001
00000110
00001001
00000110
,  // measure 87
00001001
00001010
00011000
00101000
,  // measure 88
20200000
00000000
00000000
00000000
,  // measure 89
00000000
00000000
00000000
30300000
,  // measure 90
02020000
00000000
00000000
03030000
;

//---------------dance-single - ----------------
#NOTEDATA:;
#CHARTNAME:;
#STEPSTYPE:dance-single;
#DESCRIPTION:;
#CHARTSTYLE:;
#DIFFICULTY:Beginner;
#METER:3;
#RADARVALUES:0.154388,0.321535,0.160767,0.000000,0.000000,121.000000,103.000000,18.000000,0.000000,0.000000,0.000000,0.000000,0.000000,0.000000,0.154388,0.321535,0.160767,0.000000,0.000000,121.000000,103.000000,18.000000,0.000000,0.000000,0.000000,0.000000,0.000000,0.000000;
#CREDIT:;
#NOTES:
0000
0000
0000
0000
,
0000
0000
0000
0000
,
0000
0000
0000
0000
,
0000
0000
0000
0000
,
0000
0000
0000
0000
,
0000
0000
0000
0000
,
0000
0000
0000
0000
,
0000
0000
0000
0000
,
0010
0000
0000
0000
,
0000
0000
0000
0000
,
0100
0000
0000
0000
,
0000
0000
0000
0000
,
1000
0000
0000
0000
,
0000
0000
0000
0000
,
0001
0000
0000
0000
,
0000
0100
0100
0000
,
0010
0000
0000
0000
,
1000
0000
0000
0000
,
0001
0000
0000
0000
,
0100
0000
0010
0000
,
0100
0000
0000
0000
,
0001
0000
0000
0000
,
0010
0000
0000
0000
,
0100
0000
0100
0000
,
0010
0000
0000
0000
,
0001
0000
0000
0000
,
1000
0000
0000
0000
,
0010
0000
0100
0000
,
0010
0000
0000
0000
,
1000
0000
0000
0000
,
0001
0000
0000
0000
,
1000
0000
0001
0000
,
0110
0000
0000
0000
,
0000
0000
0000
0000
,
1000
0000
0000
0000
,
0000
0000
0000
0000
,
1001
0000
0000
0000
,
0000
0000
0000
0000
,
0001
0000
0000
0000
,
0000
0000
0000
0000
,
1001
0000
0000
0000
,
0010
0000
0000
0000
,
1001
0000
0100
0000
,
1001
0000
0010
0000
,
0110
0000
0000
0000
,
1001
0000
0000
0000
,
0110
0000
0001
0000
,
0110
0000
1000
0000
,
1001
0000
0001
0000
,
0000
0000
0000
0000
,
0110
0000
0100
0000
,
0000
0000
0000
0000
,
1001
0000
0010
0000
,
0000
0000
0000
0000
,
1001
0000
0100
0000
,
0000
0010
0010
0000
,
1000
0000
0000
0000
,
0000
0000
0000
0000
,
0001
0000
0000
0000
,
0000
0000
0000
0000
,
0100
0000
0000
0000
,
0010
0000
0000
0000
,
1000
0000
0001
0000
,
0110
0000
0000
0000
,
1001
0000
0000
0000
,
1000
0000
1000
0000
,
0001
0000
0000
0000
,
0100
0000
0100
0000
,
0010
0000
0000
0000
,
1000
0000
1000
0000
,
0010
0000
0000
0000
,
0100
0000
0000
0000
,
0001
0000
0000
0000
,
1000
0000
0001
0000
,
0100
0000
0000
0000
,
0010
0000
1000
0000
,
0100
0000
0000
0000
,
0100
0000
0000
0000
,
0010
0000
0010
0000
,
1001
0000
0000
0000
,
0000
1000
1000
1000
,
0000
0001
0001
0001
,
0000
1000
1000
1000
,
0010
0000
0000
0000
,
0100
0000
0010
0000
,
1000
0000
0001
0000
,
0100
0000
0010
0000
,
1000
0010
0100
0001
,
1001
0000
0000
0000
,
0000
0000
0000
0000
,
0110
0000
0000
0000
;
