#VERSION:0.83;
#TITLE:Gate One;
#SUBTITLE:;
#ARTIST:aran;
#TITLETRANSLIT:;
#SUBTITLETRANSLIT:;
#ARTISTTRANSLIT:;
#GENRE:;
#ORIGIN:;
#CREDIT:;
#BANNER:;
#BACKGROUND:;
#PREVIEWVID:;
#JACKET:;
#CDIMAGE:;
#DISCIMAGE:;
#LYRICSPATH:;
#CDTITLE:;
#MUSIC:Gate One.ogg;
#OFFSET:-2.020000;
#SAMPLESTART:92.019997;
#SAMPLELENGTH:11.333328;
#SELECTABLE:YES;
#BPMS:0.000=180.000,
62.000=90.000,
63.000=180.000,
191.000=90.000,
223.000=180.000,
237.000=90.000,
238.000=180.000;
#STOPS:;
#DELAYS:;
#WARPS:;
#TIMESIGNATURES:0.000=4=4;
#TICKCOUNTS:0.000=4;
#COMBOS:0.000=1;
#SPEEDS:0.000=1.000=0.000=0;
#SCROLLS:0.000=1.000;
#FAKES:;
#LABELS:0.000=Song Start;
#BGCHANGES:;
#KEYSOUNDS:;
#ATTACKS:
;

//---------------dance-single - ----------------
#NOTEDATA:;
#CHARTNAME:;
#STEPSTYPE:dance-single;
#DESCRIPTION:;
#CHARTSTYLE:;
#DIFFICULTY:Hard;
#METER:9;
#RADARVALUES:0.554771,1.018046,0.251236,0.251236,0.305073,541.000000,506.000000,35.000000,35.000000,0.000000,0.000000,0.000000,0.000000,0.000000,0.554771,1.018046,0.251236,0.251236,0.305073,541.000000,506.000000,35.000000,35.000000,0.000000,0.000000,0.000000,0.000000,0.000000;
#CREDIT:;
#NOTES:
// measure 0
0000
0000
0000
0000
,  // measure 1
0000
0000
0000
0000
,  // measure 2
0000
0000
0000
0000
,  // measure 3
0000
0000
0000
0000
,  // measure 4
0000
0000
0000
0000
,  // measure 5
0000
0000
0000
0000
,  // measure 6
0000
0000
0000
0000
,  // measure 7
0000
0000
0000
0000
,  // measure 8
1010
0000
0000
0011
0000
0000
0100
0000
,  // measure 9
0011
0000
0000
1010
0000
1100
1000
0000
,  // measure 10
1001
0000
0000
0011
0000
0000
0100
0000
,  // measure 11
0011
0000
0000
0101
0000
0000
1010
0000
,  // measure 12
1001
0001
1000
0001
1000
0001
1000
0001
,  // measure 13
0100
0010
0100
0010
0100
0010
0100
0010
,  // measure 14
1000
0001
1000
0001
1000
0001
1000
0001
1000
0001
1000
0001
1000
0001
1000
0001
,  // measure 15
1000
0010
0100
0001
1000
0010
0100
0001
0020
0000
0000
0000
0130
0000
0000
0000
,  // measure 16
1000
0000
0100
0000
0010
0100
1000
0000
,  // measure 17
0001
1000
0001
0000
0010
0000
0001
0000
,  // measure 18
0100
0001
0010
0000
0100
0000
0011
0000
,  // measure 19
0001
1001
0000
1010
0000
1010
0000
0001
,  // measure 20
0100
0010
1000
0100
,  // measure 21
0010
0100
1000
0000
0001
0000
0100
0000
,  // measure 22
0100
0010
1000
0000
0001
0000
0010
0010
,  // measure 23
0010
0001
1000
0000
0100
0000
1001
0000
,  // measure 24
1000
0001
0010
0100
,  // measure 25
0010
0001
1000
0000
0010
0100
0001
0000
,  // measure 26
1000
0001
0010
0000
0001
0000
0100
0000
,  // measure 27
0010
0000
1000
0000
0100
0000
0000
0010
0000
0000
0100
0000
1000
0000
0000
0000
,  // measure 28
1000
0000
0001
0000
1000
0001
0100
0000
,  // measure 29
0100
0000
0000
0000
0010
0000
0000
0000
0100
0000
0010
0000
1000
0010
1000
0010
,  // measure 30
1000
0010
1000
0010
1000
0010
1000
0010
1000
0010
1000
0010
1000
0001
0100
0010
,  // measure 31
1000
0001
0010
0100
0010
0001
1000
0010
0100
0000
0000
0000
0001
0000
0000
0000
,  // measure 32
0010
0100
0100
0000
0010
0010
0001
1000
,  // measure 33
0001
0000
0010
0000
0001
0000
0100
0000
0001
0000
1000
0000
0100
0000
0000
0100
,  // measure 34
0000
0000
0010
0100
0010
0000
0000
0000
0000
0000
0100
0010
0001
0000
1000
0000
,  // measure 35
0010
0100
0000
0010
0000
1000
0001
0000
,  // measure 36
0001
0010
0100
0010
,  // measure 37
0011
1100
0101
0000
,  // measure 38
1000
0000
0000
0000
0200
0000
0000
0000
0300
0000
0010
0001
2000
0000
3010
0000
,  // measure 39
0100
0010
1000
0001
0010
0100
0020
0000
,  // measure 40
0001
0001
0001
0001
,  // measure 41
0001
0032
1000
2003
,  // measure 42
0010
0010
0010
0010
,  // measure 43
0010
0000
0000
0000
3200
0000
0000
0000
0310
0000
0000
0000
0001
0000
0000
0100
,  // measure 44
0000
0000
0001
0000
0000
1000
0000
0000
0010
0000
0000
0000
1000
0000
0000
0100
,  // measure 45
0000
0000
0001
0000
0000
0100
0000
0000
1000
0000
0000
0000
0001
0100
0000
0001
,  // measure 46
1000
0000
0001
0010
0000
0100
1000
0000
0001
0000
1000
0000
0010
0100
0010
0100
,  // measure 47
0010
0100
0010
0000
1000
0000
0100
0000
0001
0000
0100
0000
0010
0000
0000
0000
,  // measure 48
0001
0000
0100
0010
1000
0000
0001
0000
,  // measure 49
1000
0000
0100
1000
0010
0000
0100
0000
,  // measure 50
0010
0000
0100
0001
0010
0000
0100
0000
,  // measure 51
0010
0000
0000
0000
0001
0000
0010
0000
0100
0000
0000
0000
0010
0000
0001
0100
,  // measure 52
1000
0000
1000
0100
0010
1000
0001
0000
0000
0000
1000
0001
1000
0000
0001
0010
,  // measure 53
1000
0000
1000
0010
0001
0010
0100
0000
0000
0010
0001
0100
0010
0000
1000
0001
,  // measure 54
0100
0000
0100
0001
0010
0100
0010
0000
0000
0000
0100
1000
0010
0000
0100
0001
,  // measure 55
0010
0000
0010
0001
1000
0100
0010
0000
0000
0100
0010
0001
2000
0000
0000
0000
,  // measure 56
0100
0010
3001
0002
,  // measure 57
0100
0000
0010
0000
1003
0000
0001
0100
,  // measure 58
0010
0000
1000
0000
0001
0000
0010
0000
0100
0000
1000
0000
0001
0010
0001
0010
,  // measure 59
0001
0010
0001
0010
0002
0000
0000
0000
0103
0000
0000
0000
0000
0000
0000
0000
,  // measure 60
0000
0000
0000
0000
,  // measure 61
0000
0000
0100
0010
1000
0000
0001
0000
,  // measure 62
0010
0000
0100
0010
0000
0010
0001
0100
,  // measure 63
0010
0000
1000
0000
0000
0100
0100
0000
,  // measure 64
1000
0000
0001
1000
0010
0000
0100
0000
,  // measure 65
0001
0000
0010
0100
1000
0000
0001
0000
,  // measure 66
0100
0000
0001
0010
0210
0300
1002
0003
,  // measure 67
0120
0030
2001
3000
0102
0000
0100
0000
,  // measure 68
0013
0000
0010
0100
2100
0000
0010
0000
,  // measure 69
3001
0000
0001
0100
0120
0000
1000
0000
,  // measure 70
0130
0000
0000
0000
0010
0000
0100
0000
0000
0000
0100
0000
0010
0000
1000
0001
,  // measure 71
0010
0000
0000
0100
0000
0000
0010
0000
0012
0000
0000
0000
0010
0000
0000
0000
,  // measure 72
0103
0000
0010
1000
0001
0000
0010
0000
,  // measure 73
0100
0000
0010
0001
1000
0001
0100
0010
,  // measure 74
1000
0000
0001
0000
0010
0000
0100
0000
1000
0010
1000
0010
0100
0001
0100
0001
,  // measure 75
0010
0001
0010
0001
1000
0100
1000
0100
0010
0000
0000
0100
1000
0000
0000
0000
,  // measure 76
0020
0130
0002
0010
,  // measure 77
0103
0000
0000
0000
0010
0100
0010
1000
0200
0000
0000
0000
1300
0000
0000
0000
,  // measure 78
0002
0103
0020
1000
,  // measure 79
0230
0000
0310
0000
0100
0010
1000
0001
,  // measure 80
0000
0010
0000
0200
0000
0000
0000
0000
,  // measure 81
0020
0000
0000
0330
0020
0000
0000
0000
,  // measure 82
0032
0000
0000
0100
0103
0000
0000
0000
,  // measure 83
0110
0110
2001
3100
,  // measure 84
0002
0013
0200
0010
,  // measure 85
0310
0000
0000
0000
0100
0010
0001
0010
0200
0000
0000
0000
1300
0000
0000
0000
,  // measure 86
0020
0130
0002
1000
,  // measure 87
0203
0000
0310
0000
1010
0000
0000
0011
,  // measure 88
0000
0000
0101
0000
0000
0000
0110
0000
0000
0000
0000
0000
0000
0000
0001
1000
,  // measure 89
0001
0000
0000
0000
1000
0100
0010
0001
,  // measure 90
0100
0000
0010
0000
1000
0000
0001
0000
0100
0010
0100
0010
0100
0010
0100
0010
,  // measure 91
0100
0000
0000
0100
0000
0000
0100
0000
1001
0000
0000
0000
0000
0000
0000
0000
;

//---------------dance-single - ----------------
#NOTEDATA:;
#CHARTNAME:;
#STEPSTYPE:dance-single;
#DESCRIPTION:;
#CHARTSTYLE:;
#DIFFICULTY:Medium;
#METER:6;
#RADARVALUES:0.375316,0.525443,0.157920,0.380444,0.025124,366.000000,344.000000,22.000000,53.000000,0.000000,0.000000,0.000000,0.000000,0.000000,0.375316,0.525443,0.157920,0.380444,0.025124,366.000000,344.000000,22.000000,53.000000,0.000000,0.000000,0.000000,0.000000,0.000000;
#CREDIT:;
#NOTES:
0000
0000
0000
0000
,
0000
0000
0000
0000
,
0000
0000
0000
0000
,
0000
0000
0000
0000
,
0000
0000
0000
0000
,
0000
0000
0000
0000
,
0000
0000
0000
0000
,
0000
0000
0000
0000
,
1000
0000
0000
0001
0000
0000
0000
0000
,
0010
0000
0000
0001
0000
0100
0000
0000
,
0010
0000
0000
1000
0000
0000
0000
0000
,
0010
0000
0000
0100
0000
0000
0001
0000
,
1000
0010
0001
0010
,
0100
0001
1000
0100
,
0010
0001
0100
0010
1000
0001
0010
0100
,
0010
0001
1000
0010
0200
0000
0301
0000
,
1000
0100
0010
0001
,
1000
0001
0010
0000
0001
0000
0100
0000
,
0001
0010
0001
0000
0100
0000
0010
0000
,
1000
0001
0000
0010
0000
0010
0000
0001
,
1000
0100
1000
0001
,
0010
0001
0100
0000
0001
0000
1000
0000
,
0100
1000
0010
0000
0100
0000
1001
0000
,
0110
1001
0110
0001
,
1000
0010
1000
0100
,
0010
0001
1000
0000
0001
0000
0100
0000
,
0001
1000
0010
0000
0100
0000
0001
0000
,
0010
0001
0000
1000
0000
0010
1000
0000
,
0100
1000
0010
0110
,
0010
0100
0010
0000
1000
0000
1100
0000
,
1000
0100
0001
0000
0100
0000
1100
0000
,
0011
1010
0101
1001
,
1001
0000
1001
0000
0000
0001
0000
0010
,
0000
0001
0000
0010
0100
1000
0001
0000
,
0101
0000
1010
0000
0000
1000
0100
0001
,
0100
0010
0000
0100
0000
1000
0000
0000
,
0100
1000
0000
0010
,
0100
0001
0010
0000
,
0100
0020
0000
0032
,
1003
0002
0103
0020
,
1030
0200
1300
0200
,
0310
0200
0000
2300
,
3010
0200
0310
0200
,
0301
0000
0000
0000
2000
0000
0000
0000
0000
0000
0000
0000
3001
0000
0000
1000
,
0000
0000
0010
0000
0000
0100
0000
0000
0001
0000
0000
0000
1000
0000
0000
0100
,
0000
0000
0010
0000
0000
0001
0000
0000
1000
0000
0000
0000
0001
0000
0000
0100
,
0000
0000
1000
0000
0000
0100
0000
0000
0010
0000
0000
0000
0100
0000
0000
0000
,
0010
1000
0001
0010
,
0001
0000
0000
1000
0001
0000
0100
0000
,
0010
0000
0000
1000
0010
0000
0100
0000
,
0001
0000
0000
0010
0100
0000
0010
0000
,
0001
0000
0000
1000
0001
0000
1000
0001
,
0100
0010
1000
1000
0000
0010
0100
0001
,
0010
1000
0010
0010
0000
0100
0010
0001
,
0010
0100
1000
1000
0000
0100
1000
0001
,
0100
0001
0010
0010
0000
0100
0200
0000
,
1300
2000
3001
0002
,
0103
0000
0200
0000
0310
0000
0010
0100
,
0010
0100
0001
1000
0001
1000
0001
0100
,
0010
1000
0200
0000
0310
0000
0000
0000
,
0000
0000
0000
0000
,
0000
0110
1001
1000
,
0001
0000
0010
0001
0000
0010
0100
1000
,
0020
0000
0230
0000
0300
0001
1000
0000
,
0100
0000
1000
0010
0100
0000
0001
0000
,
0010
0000
0100
0010
0100
0000
0010
0000
,
0100
0010
1001
0110
,
1001
0110
0100
0001
,
0010
0000
0001
1000
0100
0000
1000
0000
,
0010
0000
0100
0001
0010
0000
0100
0000
,
0010
0000
0001
0100
0000
0001
0100
0010
,
1000
0100
0010
0100
,
2000
3000
0001
0100
,
0020
0000
0030
0000
1000
0001
1000
0001
,
1000
0001
1000
0001
0200
0000
0320
0000
,
2030
3200
0300
0020
,
0032
0000
2000
0000
,
0000
3003
0001
0100
0020
0000
0000
0000
,
0230
0000
0302
0000
,
2003
0000
0000
0000
3100
1000
0010
0200
,
0000
0320
0000
2030
0000
0000
0000
0000
,
3002
0000
2003
0000
,
3200
0000
0320
0000
,
0230
0000
2300
0000
,
3020
0000
0200
0000
,
0000
0330
0010
0100
0002
0000
0000
0000
,
2003
0000
3200
0000
,
2300
0000
0000
0000
3010
0100
0001
2000
,
0000
3002
0000
0203
0000
0000
0000
0000
,
0320
0000
2030
0000
,
0000
0000
0000
0002
0000
0000
3003
0000
,
1000
0000
0000
1000
0000
0000
1000
0000
0101
0000
0000
0000
0000
0000
0000
0000
;

//---------------dance-single - ----------------
#NOTEDATA:;
#CHARTNAME:;
#STEPSTYPE:dance-single;
#DESCRIPTION:;
#CHARTSTYLE:;
#DIFFICULTY:Easy;
#METER:3;
#RADARVALUES:0.196887,0.295562,0.021535,0.150742,0.000000,192.000000,189.000000,3.000000,21.000000,0.000000,0.000000,0.000000,0.000000,0.000000,0.196887,0.295562,0.021535,0.150742,0.000000,192.000000,189.000000,3.000000,21.000000,0.000000,0.000000,0.000000,0.000000,0.000000;
#CREDIT:;
#NOTES:
0000
0000
0000
0000
,
0000
0000
0000
0000
,
0000
0000
0000
0000
,
0000
0000
0000
0000
,
0000
0000
0000
0000
,
0000
0000
0000
0000
,
0000
0000
0000
0000
,
0000
0000
0000
0000
,
1000
0000
0001
0000
,
0100
0100
0000
0000
,
0001
0000
1000
0000
,
0010
0010
0000
0000
,
1000
0000
0010
0000
,
0100
0010
0000
0000
,
0100
0000
0001
0000
,
0010
0100
0000
0010
,
0000
0001
0000
1000
,
0000
0001
0000
0100
,
0000
0010
0000
1000
,
0001
0010
0001
1000
,
0000
0001
0000
0100
,
0000
0010
0000
1000
,
0000
0100
0000
1000
,
0001
0100
0010
1000
,
0000
0010
0000
1000
,
0000
0100
0000
1000
,
0000
0001
0000
0100
,
0000
0010
0000
0100
,
0001
0010
0000
0100
,
1000
0010
0000
0100
,
0010
1000
0001
0010
,
0001
1000
0100
1000
,
1000
1000
0000
0001
,
1000
0001
1000
0010
,
0010
0010
0000
0100
,
0000
0010
0000
1000
,
0010
1000
0000
0010
,
0000
0100
0000
0001
,
0010
0002
0000
2000
,
3003
0001
0000
0100
,
0000
0010
0000
1000
,
0000
0200
0000
2300
,
0000
3010
0000
0100
,
0000
0020
0000
1030
,
0000
0000
0000
0001
,
0000
0000
0000
0100
,
0000
0010
0000
0100
,
0010
1000
0001
1000
,
0000
1000
0000
0001
,
0000
0001
0000
0100
,
0000
0100
0000
0010
,
0000
0010
0000
1000
,
0001
0010
0000
0100
,
0010
0001
0000
1000
,
0010
0100
0000
0010
,
0100
1000
0100
0010
,
0000
1000
0000
0001
,
0000
0010
0000
0001
,
0000
1000
0000
0010
,
0000
0100
0010
0000
,
0000
0000
0000
0000
,
0000
1001
0001
0000
,
1000
0000
0010
0000
,
1000
0100
1000
0000
,
0100
0000
1000
0000
,
0001
0000
0100
0000
,
0010
0000
1000
0100
,
0010
0001
1000
0000
,
0001
0000
0010
0000
,
0001
0000
0100
0000
,
0001
0000
1000
0000
,
0001
1000
0010
0000
,
1000
0000
0001
0000
,
0100
0000
0010
0000
,
0100
0000
1001
0000
,
0110
0000
0001
0000
,
1000
0000
0020
0000
,
0000
1030
0001
0000
,
0010
0000
0200
0000
,
0320
0000
0031
0000
,
1000
0000
0001
0000
,
0100
0000
0020
0000
,
2030
0000
3002
0000
,
2003
0000
3020
0000
,
2030
0000
0200
0000
,
3300
1000
0200
0000
,
2300
0000
0002
3003
,
0002
0000
0103
0000
,
0010
0000
0100
0000
,
0001
0000
2000
0000
,
0000
0000
0002
0000
,
0000
0000
3003
0000
;

//---------------dance-single - ----------------
#NOTEDATA:;
#CHARTNAME:;
#STEPSTYPE:dance-single;
#DESCRIPTION:;
#CHARTSTYLE:;
#DIFFICULTY:Beginner;
#METER:2;
#RADARVALUES:0.114851,0.197041,0.014356,0.000000,0.000000,112.000000,110.000000,2.000000,0.000000,0.000000,0.000000,0.000000,0.000000,0.000000,0.114851,0.197041,0.014356,0.000000,0.000000,112.000000,110.000000,2.000000,0.000000,0.000000,0.000000,0.000000,0.000000,0.000000;
#CREDIT:;
#NOTES:
0000
0000
0000
0000
,
0000
0000
0000
0000
,
0000
0000
0000
0000
,
0000
0000
0000
0000
,
0000
0000
0000
0000
,
0000
0000
0000
0000
,
0000
0000
0000
0000
,
0000
0000
0000
0000
,
1000
0000
0000
0000
,
0000
0000
0000
0000
,
0001
0000
0000
0000
,
0000
0000
0000
0000
,
0100
0000
0000
0000
,
0010
0000
0000
0000
,
1000
0000
0001
0000
,
0100
0000
0010
0100
,
0000
0000
0000
0010
,
0000
0000
0000
1000
,
0000
0000
0000
0001
,
0000
0000
0000
1000
,
0000
0000
0000
0010
,
0000
0000
0000
1000
,
0000
0000
0000
0001
,
0000
1000
0000
0010
,
0000
0000
0000
0100
,
0000
0000
0000
0001
,
0000
0000
0000
1000
,
0000
0000
0000
0001
,
0000
0000
0000
1000
,
0000
0000
0000
0010
,
0000
0100
0000
0010
,
0000
0000
0000
1000
,
1000
1000
0000
0000
,
0000
0000
0000
0001
,
0001
0001
0000
0000
,
0000
0000
0000
0100
,
0100
0100
0000
0000
,
0000
0000
0000
0000
,
0010
0010
0000
0100
,
0000
0000
0000
0001
,
0000
0000
0000
0000
,
0000
1000
0000
0010
,
0000
0000
0000
0000
,
0000
0100
0000
0010
,
0000
0000
0000
1000
,
0000
0000
0000
0001
,
0000
0000
0000
0010
,
0000
0001
0000
1000
,
0000
0000
0000
0000
,
0000
0000
0000
0001
,
1000
0010
0100
0010
,
0000
0000
0000
1000
,
0000
0000
0000
0001
,
0000
0000
0000
0100
,
0000
0000
0000
0010
,
0000
0000
0000
1000
,
0000
0000
0000
0010
,
0000
0000
0000
0100
,
0000
0001
0000
1000
,
0000
0010
0100
0000
,
0000
0000
0000
0000
,
0000
0000
0010
0000
,
0000
0000
1000
0000
,
1000
0000
0001
0000
,
0000
0000
0010
0000
,
0000
0000
0001
0000
,
0000
0000
0100
0100
,
0010
0010
1000
0000
,
0000
0000
0001
0000
,
0000
0000
0010
0000
,
0000
0000
0001
0000
,
0001
0000
1000
0000
,
0000
0000
0010
0000
,
0000
0100
0100
0000
,
0000
0000
1001
0000
,
0000
0000
0010
0000
,
0010
0000
0010
0000
,
0000
0100
0100
0000
,
0001
0000
1000
0000
,
0010
0000
0100
0000
,
0000
0000
0000
0000
,
0000
0000
0010
0000
,
1000
0000
0001
0000
,
1000
0000
0010
0000
,
0010
0000
0100
0000
,
0000
0001
0001
0000
,
1000
0000
0010
0000
,
1000
0000
0100
0000
,
0000
0000
0000
0000
,
1000
0000
0001
0000
,
0000
0000
0100
0000
,
0000
0000
0110
0000
;

//---------------dance-double - ----------------
#NOTEDATA:;
#CHARTNAME:;
#STEPSTYPE:dance-double;
#DESCRIPTION:;
#CHARTSTYLE:;
#DIFFICULTY:Challenge;
#METER:8;
#RADARVALUES:0.464531,0.821005,0.172276,0.308662,0.122029,453.000000,429.000000,24.000000,43.000000,0.000000,0.000000,2.000000,0.000000,0.000000,0.464531,0.821005,0.172276,0.308662,0.122029,453.000000,429.000000,24.000000,43.000000,0.000000,0.000000,2.000000,0.000000,0.000000;
#CREDIT:;
#NOTES:
00000000
00000000
00000000
00000000
,
00000000
00000000
00000000
00000000
,
00000000
00000000
00000000
00000000
,
00000000
00000000
00000000
00000000
,
00000000
00000000
00000000
00000000
,
00000000
00000000
00000000
00000000
,
00000000
00000000
00000000
00000000
,
00000000
00000000
00000000
00000000
,
10000000
00000000
00010000
01000000
00100000
00000000
01000000
00010000
,
00100000
00001000
00010000
00000000
00000000
00000000
00001000
00100000
,
01000000
00000000
00100000
00010000
01000000
00000000
00100000
10000000
,
00010000
00100000
00001000
00000000
00000000
00001000
00010000
00000100
,
00001000
00000000
00000010
00000100
00000010
00000000
00000100
00000001
,
00000010
00000100
00000010
00000000
00000000
00000000
00000100
00000010
,
00000001
00000000
00000100
00000001
00001000
00000000
00000010
00010000
,
00001000
00100000
01000000
00000000
20000000
00000000
30100000
00000000
,
00100000
01000000
01000000
10010000
,
00010000
00100000
00001000
00000000
00010000
00000000
00000100
00000000
,
00001000
00000010
00000100
00000000
00000010
00000000
00001000
00000000
,
00000001
00000010
00000000
00001100
00000000
00011000
00000000
00001000
,
01000000
00100000
10000000
00010000
,
00100000
00001000
00010000
00000000
00000100
00000000
00001000
00000000
,
00000010
00000100
00000001
00000000
00001000
00000000
00000001
00000001
,
00001000
00001000
00000010
00000000
00001000
00000000
00001100
00000000
,
00000100
00010000
00001000
00100000
,
01000000
10000000
00100000
00000000
01000000
00000000
00010000
00000000
,
00100000
00001000
00010000
00000000
00000100
00000000
00001000
00000000
,
00000100
00010000
00000000
00001000
00000000
00100000
01000000
00000000
,
01000000
00100000
00100000
01000000
,
00100000
00001000
00010000
00000000
00010000
00000000
00000100
00000000
,
00000100
00001000
00000010
00000000
00000100
00000000
00001001
00000000
,
00000110
00001001
00000110
00001010
,
00110000
00000000
00001010
00000000
00000000
00000000
00000010
00000100
,
00000010
00000100
00000010
00000100
00000010
00000100
00000110
00000000
,
00001010
00000000
00000000
00000000
00001100
00000000
00000000
00000000
00000000
00000000
00000100
00010000
00001000
00000000
00100000
00000000
,
00010000
01000000
00000000
00100000
00000000
10000000
10010000
00000000
,
00110000
00101000
00000000
00200000
,
00302000
00023000
00030200
00001300
,
00010000
00000000
00002000
00000000
00000000
00000000
00103000
01000000
,
10000000
01000000
00010000
01000000
00100000
00010000
00200000
00000000
,
00010000
00001000
00010000
00001000
,
00010000
00302000
00013000
00000200
,
00001000
00000010
00001000
00000010
,
00001000
00000000
00000000
00000000
00000320
00000000
00000000
00000000
00000031
00000000
00000000
00000000
00000100
00000000
00000000
00000100
,
00000000
00000000
00000010
00000000
00000000
00000010
00000000
00000000
00001001
00000000
00000000
00000000
00000001
00000000
00000000
00000100
,
00000000
00000000
00000010
00000000
00000000
00001000
00000000
00000000
00001100
00000000
00000000
00000000
00000100
00010000
00000000
00001000
,
00010000
00000000
00001000
01000000
00000000
00100000
10000000
00000000
01000000
00000000
00100000
00000000
01000000
00000000
10000000
00000000
,
00100000
01000000
00010000
01000000
10000000
01000000
00100000
00000000
,
01000000
00000000
00010000
00100000
00001000
00000000
00010000
00000000
,
00000100
00000000
00001000
00000010
00000100
00000000
00000001
00000000
,
00001000
00000000
00000100
00010000
00001000
00000000
00010000
00000000
,
00001000
00000000
00000000
00000000
00100000
00000000
01000000
00000000
10000000
00000000
00000000
00000000
01000000
00000000
00100000
00010000
,
01000000
00000000
01000000
00010000
00100000
00001000
00010000
00000000
00000000
00000000
00010000
00000100
00001000
00000000
00001000
00000010
,
00000100
00000000
00000010
00001000
00000001
00000010
00000100
00000000
00000000
00000100
00010000
00000100
00001000
00000000
00000100
00010000
,
00001000
00000000
00001000
00010000
00001000
00100000
00010000
00000000
00000000
00000000
01000000
10000000
01000000
00000000
10000000
00100000
,
01000000
00000000
00100000
10000000
00010000
00100000
01000000
00000000
00100000
00001000
00010000
00000100
00002000
00000000
00000000
00000000
,
00013000
00020000
00031000
00000200
,
00001300
00002000
00003010
00000200
,
00000310
00000020
00001030
00000002
,
00000013
00000200
00010300
00000000
,
00000000
00000000
00000000
00000000
,
00000000
00000000
00001000
00100000
00010000
00000000
01000000
00000000
,
00100000
00000000
10000000
00010000
00000000
00100000
01000000
00100000
,
00010000
00000000
00100000
00000000
01000000
00100000
00100000
00000000
,
01000000
00000000
00100000
00000000
00010000
00000000
00100000
00001000
,
00010000
00000000
00000100
00000000
00001000
00000000
00000010
00000100
,
00000010
00001000
00001100
01010000
,
00001100
01010000
01000000
00100000
,
10000000
00000000
00010000
01000000
00100000
00000000
00100000
00000000
,
00001000
00000000
00010000
00000010
00000100
00000000
00000001
00000000
,
00001000
00000000
00000001
00000010
00000000
00000100
00000010
00000001
,
00001000
00000000
00000000
00000001
00000000
00000000
00000010
00000000
00000100
00000000
00000000
00000000
00000010
00000000
00000000
00000000
,
00000001
00001000
00000010
00001000
,
00000100
00010000
00001000
00100000
,
00001000
00000000
00000000
00000000
00010000
00000000
00000000
00000000
00000400
00040000
00000000
00000000
00000000
00000000
00000000
00000000
,
00000000
00030300
00002000
00013000
,
00020000
00030100
00002000
00000010
,
00000010
00000000
00000000
00000000
00003010
00000100
00000010
00000100
00000002
00000000
00000000
00000000
00001003
00000000
00000000
00000000
,
00000200
00001300
00002000
00003010
,
00000020
00000000
00010030
00000000
00001000
00100000
00010000
02000000
,
00000000
03020000
00000000
00230000
00000000
00000000
00000000
00000000
,
02300000
00000000
23000000
30100000
,
02000000
03010000
00200000
00301000
,
00020000
00030100
00002000
00003010
,
00000200
00000301
00000020
00000100
,
00000100
00000000
00000000
00000000
00000130
00001000
00000100
00001000
00000002
00000000
00000000
00000000
00000103
00000000
00000000
00000000
,
00000020
00001030
00000200
00010300
,
00002000
00000000
01003000
00000000
00100000
10000000
00010000
00200000
,
00000000
00302000
00000000
00023000
00000000
00000000
00000000
00000000
,
00030100
00000000
00000000
00000000
00010000
00000100
00001000
00000010
,
00000100
00000001
00000010
00000100
00000010
00000001
00001000
00000010
,
00010000
00000000
00000000
00010000
00000000
00000000
00010000
00000000
00011000
00000000
00000000
00000000
00000000
00000000
00000000
00000000
;
