#VERSION:0.83;
#TITLE:Freefall;
#SUBTITLE:(DIM3NSION Remix);
#ARTIST:Ferry Corsten & Nevve;
#TITLETRANSLIT:;
#SUBTITLETRANSLIT:;
#ARTISTTRANSLIT:;
#GENRE:;
#ORIGIN:;
#CREDIT:;
#BANNER:Freefall (DIM3NSION Remix).png;
#BACKGROUND:Freefall (DIM3NSION Remix)-bg.png;
#PREVIEWVID:;
#JACKET:Freefall (DIM3NSION Remix)-jacket.png;
#CDIMAGE:;
#DISCIMAGE:;
#LYRICSPATH:;
#CDTITLE:;
#MUSIC:Freefall (DIM3NSION Remix).ogg;
#OFFSET:-0.080000;
#SAMPLESTART:110.849228;
#SAMPLELENGTH:14.769226;
#SELECTABLE:YES;
#BPMS:0.000=130.000,
80.000=65.000,
112.000=130.000,
254.000=65.000,
263.000=130.000;
#STOPS:;
#DELAYS:;
#WARPS:;
#TIMESIGNATURES:0.000=4=4;
#TICKCOUNTS:0.000=4;
#COMBOS:0.000=1;
#SPEEDS:0.000=1.000=0.000=0;
#SCROLLS:0.000=1.000;
#FAKES:;
#LABELS:0.000=Song Start;
#BGCHANGES:;
#KEYSOUNDS:;
#ATTACKS:
;

//---------------dance-single - ----------------
#NOTEDATA:;
#CHARTNAME:;
#STEPSTYPE:dance-single;
#DESCRIPTION:;
#CHARTSTYLE:;
#DIFFICULTY:Hard;
#METER:7;
#RADARVALUES:0.306977,0.416910,0.014091,0.162044,0.278292,305.000000,303.000000,2.000000,23.000000,0.000000,0.000000,4.000000,0.000000,0.000000,0.306977,0.416910,0.014091,0.162044,0.278292,305.000000,303.000000,2.000000,23.000000,0.000000,0.000000,4.000000,0.000000,0.000000;
#CREDIT:;
#NOTES:
0000
0000
0000
0000
,
0000
0000
0000
0000
,
0000
0000
0000
0000
,
0000
0000
0000
0000
0000
1000
0001
0100
,
0000
0000
0001
0000
0000
0000
0010
0000
0001
0000
0000
1000
0000
0000
0100
0000
,
0000
0000
0000
0000
0000
0000
1000
0000
0010
0000
0000
0100
0000
0000
0001
0000
,
1000
0000
0000
1000
0000
0000
1000
0000
0010
0000
0000
0010
0000
0000
0010
0000
,
0100
0000
0000
0100
0000
0000
0100
0000
0001
0000
0000
0001
0000
0000
0001
0000
,
0100
0000
0010
0000
0000
0000
1000
0000
0001
0000
0000
0010
0000
0000
0100
0000
,
0000
0000
0000
0000
0010
0001
0100
0010
,
1000
0000
0000
1000
0000
0000
1000
0000
0010
0000
0000
0010
0000
0000
0010
0000
,
0100
0000
0000
0100
0000
0000
0100
0000
0010
0000
0000
0010
0000
0000
0010
0000
,
0000
0000
1001
0000
0000
0000
0001
0000
0010
0000
0000
1000
0000
0000
0010
0000
,
0000
0000
0000
0000
0000
0000
0100
0000
0010
0000
0000
0001
0000
0000
0010
0000
,
0100
0000
0000
1000
0000
0000
1000
0000
0001
0000
0000
0001
0000
0000
0010
0000
,
0100
0000
0000
0100
0000
0000
0010
0000
0001
0000
0000
0001
0000
0000
0000
0000
,
1000
0010
1000
0010
0100
0001
0100
0001
,
1000
0010
0100
0001
1000
0010
0100
0001
,
4000
0004
0000
0000
0000
0000
0000
0000
0000
0000
0000
0000
0000
0000
0000
0000
,
0000
0000
0000
3003
,
0120
0000
0000
0200
0000
0000
0330
0000
0000
0000
0000
0010
1000
0100
0000
0020
,
0000
0000
0000
0002
0000
0000
0033
0000
0000
0000
0000
0000
0000
1000
0010
0100
,
0000
0010
0100
0001
0000
0010
0100
1000
0000
0000
0000
0100
1000
0010
0100
0002
,
0000
0000
0000
2000
0000
0000
0000
0000
3003
0000
0000
0001
1000
0010
0000
0200
,
0000
0000
0000
0020
0000
0000
0000
0000
0330
0000
0000
0100
0000
0001
0000
0200
,
0000
0000
0001
0002
0000
0000
0000
0000
0303
0000
0000
0000
0000
0100
0001
0010
,
0000
0100
1000
0010
0000
0100
0001
1000
0000
0000
0000
0001
0010
0001
1000
0020
,
0000
0000
0000
0200
0000
0000
0000
0000
0330
0000
0000
0000
0000
0000
0000
0010
,
1000
0000
0000
0010
1000
0000
0000
0010
,
1000
0010
0100
0001
0000
0001
0000
0001
,
0010
0000
0000
0001
0010
0000
0000
0001
,
0010
0000
0000
0000
0000
0001
0100
1000
,
0000
1000
0100
0001
0000
0010
0100
1000
,
0000
0000
0000
0100
0010
0001
1000
0020
,
0000
0000
0000
0200
0000
0000
0000
0000
,
0330
0000
0000
0000
,
2000
0010
0001
3010
,
0001
0100
0020
1030
,
0002
0013
0100
0010
,
0001
1000
0010
0000
,
0200
0001
0010
0301
,
0010
0100
2000
3001
,
0200
0310
1000
0001
,
0010
0000
0001
0000
0000
1000
0100
0010
,
0000
0000
0100
0000
0000
0000
1000
0000
0010
0000
0000
0100
0000
0000
0001
0000
,
0000
0000
0000
0000
0000
0000
0010
0000
0001
0000
0000
1000
0000
0000
0010
0000
,
0100
0100
0100
0100
,
0100
0100
0100
0000
,
0001
0100
0010
1000
0001
0100
0010
1000
,
0001
0100
0010
1000
0001
0100
0010
1000
,
0004
0400
0000
0000
0000
0000
0000
0000
0000
0000
0000
0000
0000
0000
0000
0000
,
0000
0000
0000
0000
0303
0000
0000
0000
0010
0000
0000
0010
0000
0000
0010
0000
,
1000
0000
0000
0001
0000
0000
0100
0000
0001
0000
0000
1000
0000
0000
0100
0000
,
1000
0000
0000
0010
0000
0000
0100
0000
0010
0000
0000
1000
0000
0000
0010
0000
,
0100
0000
0000
0001
0000
0000
0010
0000
0100
0000
0000
0010
0000
0000
0001
0000
,
1000
0000
0000
0010
0000
0000
0100
0000
0001
0000
0000
0000
0000
0000
0000
0000
,
1000
0000
0000
0001
0000
0000
0100
0000
0001
0000
0000
1000
0000
0000
0100
0000
,
0010
0000
0000
0100
0000
0000
1000
0000
0010
0000
0000
0100
0000
0000
0001
0000
,
1000
0000
0000
0100
0000
0000
1000
0000
0010
0000
0000
0100
0000
0000
0001
0000
,
2000
0000
0000
0000
0000
0000
3000
0001
,
0010
0000
0000
0001
0010
0000
0000
0001
,
0010
0100
0010
0001
0000
0001
0000
0001
,
0100
0000
0000
0001
0100
0000
0000
0001
,
0100
0000
0000
0000
0000
0000
0000
0000
0000
0001
0100
1000
0000
1000
0100
0001
,
0000
0001
0100
0010
0000
0000
0000
0100
0010
1000
0001
0200
0000
0000
0000
0020
,
0000
0000
0000
0330
;

//---------------dance-double - ----------------
#NOTEDATA:;
#CHARTNAME:;
#STEPSTYPE:dance-double;
#DESCRIPTION:;
#CHARTSTYLE:;
#DIFFICULTY:Challenge;
#METER:7;
#RADARVALUES:0.301945,0.416910,0.063408,0.204316,0.292383,300.000000,291.000000,9.000000,29.000000,0.000000,0.000000,0.000000,0.000000,0.000000,0.301945,0.416910,0.063408,0.204316,0.292383,300.000000,291.000000,9.000000,29.000000,0.000000,0.000000,0.000000,0.000000,0.000000;
#CREDIT:;
#NOTES:
00000000
00000000
00000000
00000000
,
00000000
00000000
00000000
00000000
,
00000000
00000000
00000000
00000000
,
00200000
00000000
00000000
00000000
00000000
01300000
00010000
10000000
,
00000000
00000000
01000000
00000000
00000000
00000000
10000000
00000000
00010000
00000000
00000000
00100000
00000000
00000000
00001000
00000000
,
00000000
00000000
00000000
00000000
00000000
00000000
00010000
00000000
00000100
00000000
00000000
00001000
00000000
00000000
00000100
00000000
,
00001000
00000000
00000000
00001000
00000000
00000000
00001000
00000000
00000010
00000000
00000000
00000010
00000000
00000000
00000010
00000000
,
00000100
00000000
00000000
00000100
00000000
00000000
00000100
00000000
00000001
00000000
00000000
00000001
00000000
00000000
00000001
00000000
,
00000000
00000000
00001000
00000000
00000000
00000000
00000100
00000000
00010000
00000000
00000000
00001000
00000000
00000000
01000000
00000000
,
00000000
00000000
00000000
00000000
00100000
10000000
00010000
00100000
,
01000000
00000000
00000000
01000000
00000000
00000000
01000000
00000000
10000000
00000000
00000000
10000000
00000000
00000000
10000000
00000000
,
00010000
00000000
00000000
00010000
00000000
00000000
00010000
00000000
01000000
00000000
00000000
01000000
00000000
00000000
01000000
00000000
,
00000000
00000000
00100000
00000000
00000000
00000000
10000000
00000000
00010000
00000000
00000000
00100000
00000000
00000000
00001000
00000000
,
00000000
00000000
00000000
00000000
00000000
00000000
00100000
00000000
00001000
00000000
00000000
00010000
00000000
00000000
00000100
00000000
,
00001000
00000000
00000000
00001000
00000000
00000000
00001000
00000000
00000010
00000000
00000000
00000010
00000000
00000000
00000010
00000000
,
00010000
00000000
00000000
00010000
00000000
00000000
00010000
00000000
00001000
00000000
00000000
00001000
00000000
00000000
00001000
00000000
,
00000000
00000000
01000000
00000000
00000000
00000000
00100000
00000000
01000000
00000000
00000000
00010000
00000000
00000000
10000000
00000000
,
00000000
00000000
00000000
00000000
00000000
00000000
01000000
00000000
00100000
00000000
00000000
00001000
00000000
00000000
00020000
00000000
,
00000000
00002000
00000000
00000000
00000000
00000000
00000000
00000000
00000000
00000000
00000000
00000000
00000000
00000000
00000000
00000000
,
00033000
00000000
00000000
00001000
00100000
00010000
00000000
02000000
,
00000000
00000000
00000000
00200000
00000000
00000000
00000000
00000000
03300000
00000000
00000000
01000000
00010000
00100000
00000000
00002000
,
00000000
00000000
00000000
00020000
00000000
00000000
00000000
00000000
00033000
00000000
00000000
00000000
00000000
00001000
00100000
00010000
,
00000000
00100000
00001000
00010000
00000000
00001000
00010000
00000100
00000000
00000000
00000000
00010000
00001000
00010000
00000100
00002000
,
00000000
00000000
00000000
00000020
00000000
00000000
00000000
00000000
00003030
00000000
00000000
00001000
00000010
00000100
00000000
00001002
,
00000000
00000000
00000000
00000020
00000000
00000000
00000000
00000000
00000033
00000000
00000000
00000010
00000000
00000100
00000000
00002000
,
00000000
00000000
00000100
00000200
00000000
00000000
00000000
00000000
00003300
00000000
00000000
00000000
00000000
00001000
00000100
00010000
,
00000000
00001000
00100000
00010000
00000000
00100000
00001000
00010000
00000000
00000000
00000000
00001000
00100000
01000000
10000000
00020000
,
00000000
00000000
00000000
02000000
00000000
00000000
00000000
00000000
03030000
00000000
00000000
00000000
00000000
00000000
00000000
00100000
,
01000000
00000000
00000000
00100000
01000000
00000000
00000000
00100000
,
01000000
01000000
00100000
10000000
00000000
10000000
00000000
10000000
,
00010000
00000000
00000000
10000000
00010000
00000000
00000000
10000000
,
00010000
00000000
00000000
00000000
00000000
00100000
00001000
00010000
,
00000000
00001000
00010000
00000100
00000000
00001000
00000010
00000100
,
00000000
00000000
00000000
00000010
00001000
00000100
00010000
00002000
,
00000000
00000000
00000000
00200000
00000000
00000000
00000000
00000000
,
00303000
00000000
00000000
00000000
,
00010200
00001300
00000010
00000100
,
00000001
00000010
00001200
00001300
,
00000120
00000130
00000010
00000001
,
00001000
00000010
00000000
00000000
,
00000201
00000310
00001000
00000100
,
00010000
00001000
00201000
00310000
,
00210000
01300000
10000000
00100000
,
01000000
00000000
00010000
00000000
00000000
10000000
00010000
00100000
,
00000000
00000000
01000000
00000000
00000000
00000000
00100000
00000000
00010000
00000000
00000000
00100000
00000000
00000000
00002000
00000000
,
00000000
00000000
00000000
00000000
00000000
00000000
00013000
00000000
00000100
00000000
00000000
00001000
00000000
00000000
00000020
00000000
,
00000000
00000000
00000000
00000200
00000000
00000000
00000330
00000000
,
00000000
00000000
00000000
00000000
00000000
00000010
00001000
00000100
,
00000000
00000000
00010000
00000000
00000000
00000000
00001000
00000000
01000000
00000000
00000000
01000000
00000000
00000000
00100000
00000000
,
00000000
00000000
00000000
01000000
00010000
10000000
01000000
00200000
,
00000000
00000000
00000000
00000000
,
00300000
00000000
00000000
00000000
00000000
00000000
00000000
00000000
10010000
00000000
00000000
01100000
00000000
00000000
10000000
00010000
,
10000000
00000000
00000000
00100000
00000000
00000000
01000000
00000000
00010000
00000000
00000000
00100000
00000000
00000000
00001000
00000000
,
00010000
00000000
00000000
00000100
00000000
00000000
00001000
00000000
00000010
00000000
00000000
00000100
00000000
00000000
00000001
00000000
,
00000010
00000000
00000000
00000100
00000000
00000000
00000010
00000000
00000001
00000000
00000000
00001000
00000000
00000000
00000010
00000000
,
00001000
00000000
00000000
00000100
00000000
00000000
00010000
00000000
00001000
00000000
00000000
00000000
00000000
00000000
00000000
00000000
,
00100000
00000000
00000000
00010000
00000000
00000000
01000000
00000000
00010000
00000000
00000000
00100000
00000000
00000000
00001000
00000000
,
00010000
00000000
00000000
00000100
00000000
00000000
00001000
00000000
00000010
00000000
00000000
00000100
00000000
00000000
00000001
00000000
,
00001000
00000000
00000000
00000100
00000000
00000000
00010000
00000000
00001000
00000000
00000000
00100000
00000000
00000000
01000000
00000000
,
10000000
00000000
00000000
00100000
00000000
00000000
01000000
00000000
00010000
00000000
00000000
00000000
00000000
00000000
10000000
00000000
,
01000000
00000000
00000000
10000000
01000000
00000000
00000000
10000000
,
01000000
01000000
00100000
01000000
00000000
10000000
00000000
00010000
,
00100000
00000000
00000000
00010000
00100000
00000000
00000000
00010000
,
00100000
00000000
00000000
00000000
00000000
00000000
00000000
00000000
00000000
00010000
00100000
00001000
00000000
00010000
00000100
00001000
,
00000000
00000100
00010000
00001000
00000000
00000000
00000000
00010000
00000010
00000100
00000001
00002000
00000000
00000000
00000000
00000200
,
00000000
00000000
00000000
00003300
;

//---------------dance-single - ----------------
#NOTEDATA:;
#CHARTNAME:;
#STEPSTYPE:dance-single;
#DESCRIPTION:;
#CHARTSTYLE:;
#DIFFICULTY:Medium;
#METER:5;
#RADARVALUES:0.237530,0.324264,0.077499,0.183180,0.109203,236.000000,225.000000,11.000000,26.000000,0.000000,0.000000,0.000000,0.000000,0.000000,0.237530,0.324264,0.077499,0.183180,0.109203,236.000000,225.000000,11.000000,26.000000,0.000000,0.000000,0.000000,0.000000,0.000000;
#CREDIT:;
#NOTES:
0000
0000
0000
0000
,
0000
0000
0000
0000
,
0000
0000
0000
0000
,
0000
0000
0000
0000
0000
1000
0100
0010
,
0000
0100
0000
0010
0001
0000
1000
0000
,
0010
0000
0000
0100
0010
0000
1000
0000
,
0001
0010
0001
1000
,
0001
0000
0100
0000
0001
0000
1000
0100
,
0010
0100
1000
0010
,
0100
0000
0001
0000
1000
0100
0010
0001
,
1000
0001
0100
0001
,
1000
0100
0010
0100
,
1000
0000
0000
0000
0010
0000
0000
0000
0100
0000
0000
0001
0000
0000
1000
0000
,
0000
0000
0000
0000
0000
0000
0100
0000
1000
0000
0000
0010
0000
0000
0100
0000
,
0001
0001
1000
1000
,
0010
0100
0001
1000
,
1001
0010
0010
0010
,
1001
0100
0100
0100
,
0001
0100
0010
0000
1000
0010
0100
0000
,
0001
0000
0000
1000
0100
0010
0000
0000
,
0200
0000
0000
0020
0000
0000
0000
0000
0330
0000
0000
0000
0010
0000
0000
0002
,
0000
0000
0000
2000
0000
0000
0000
0000
3003
0000
0000
0000
0000
1000
0000
0010
,
0000
0100
0000
0001
0000
1000
0000
0100
0000
0000
0000
0000
1000
0000
0000
0010
,
0000
0000
0000
0200
0000
0000
0000
0000
0300
0000
0000
0010
0100
0001
0000
2000
,
0000
0000
0000
0002
0000
0000
0000
0000
3003
0000
0000
0001
0000
0100
0000
1000
,
0000
0000
0100
0010
0000
0000
0000
0000
0000
0000
0000
0000
0000
0100
0000
0010
,
0000
1000
0000
0001
0000
0010
0000
0100
0000
0000
0000
0010
0001
0000
0100
0020
,
0000
0000
0000
2000
0000
0000
0000
0000
0000
0000
0000
0000
3030
0000
0000
0000
,
0001
0000
0001
0000
,
0001
0000
0000
1000
0000
1000
0000
0001
,
0100
0000
0100
0000
,
0100
0000
0000
0000
0000
0010
0100
0010
,
0000
1000
0010
1000
0000
0001
0100
0001
,
0000
0000
0000
1000
0100
0000
1000
0020
,
0000
0000
0000
0200
0000
0000
0000
0000
,
0000
0330
0000
0000
0000
0000
0000
0000
,
1002
0000
0000
0000
,
0000
0003
2001
3000
,
1002
0000
0000
0000
,
0003
0000
0000
0000
0000
0000
0000
0100
,
0000
0100
0000
0010
0000
0010
0000
0010
,
0000
0000
0000
0100
0000
0000
0010
1000
,
0002
0000
0000
0000
,
0003
0000
0000
0000
0000
0010
0001
0100
,
0010
0000
1000
0000
0010
0100
0010
0000
,
1000
0000
0001
0000
0010
0001
0010
0000
,
0001
0000
1000
0000
0100
1000
0100
0000
,
1000
0010
0100
0000
,
0010
0100
0010
0000
1000
0010
1000
0000
,
0001
0100
0001
0000
0001
0010
0100
1000
,
0002
0000
0000
0000
,
0000
0000
0003
0000
,
0102
1000
0100
1000
,
0100
0000
1000
0003
0201
0000
0310
0000
,
2010
0100
0010
0100
,
0010
0100
3010
0000
,
1002
0010
1000
0010
,
1000
0013
2001
3100
,
1002
0100
1000
0100
,
2000
0000
0000
0000
0000
0000
0000
3000
0003
0000
0000
0000
0000
0000
0001
0000
,
0100
0000
0000
0001
0100
0000
0000
0001
,
0100
0000
0000
0010
0000
0010
0000
1000
,
0001
0000
0000
1000
0001
0000
0000
1000
,
0002
0000
0003
0100
,
0000
0000
0000
0000
0010
0000
0000
0000
1000
0000
0000
0000
0002
0000
0000
2000
,
0000
0000
0000
3003
;

//---------------dance-single - ----------------
#NOTEDATA:;
#CHARTNAME:;
#STEPSTYPE:dance-single;
#DESCRIPTION:;
#CHARTSTYLE:;
#DIFFICULTY:Easy;
#METER:2;
#RADARVALUES:0.112726,0.185293,0.056363,0.140908,0.000000,112.000000,104.000000,8.000000,20.000000,0.000000,0.000000,0.000000,0.000000,0.000000,0.112726,0.185293,0.056363,0.140908,0.000000,112.000000,104.000000,8.000000,20.000000,0.000000,0.000000,0.000000,0.000000,0.000000;
#CREDIT:;
#NOTES:
0000
0000
0000
0000
,
0000
0000
0000
0000
,
0000
0000
0000
0000
,
0020
0000
0000
0000
,
1030
0000
0001
0000
,
0010
0000
0001
1000
,
0100
0000
0100
0000
,
0100
0000
0100
0000
,
1000
0000
0001
0000
,
0100
0000
0010
0100
,
0010
0000
1000
0000
,
0001
0000
0010
0000
,
0001
0000
1000
0001
,
1000
0000
0010
0100
,
0010
0000
1000
0000
,
0001
0000
0010
0000
,
0001
0000
1000
0000
,
0010
0000
0100
0010
,
0100
0001
1000
0100
,
0010
0000
0100
0000
,
1001
0000
0000
1000
,
0010
0000
0000
0000
,
0100
0000
0000
0010
,
1000
0000
0000
0000
,
1001
0000
0000
0001
,
0010
0000
0000
0000
,
0001
0000
0000
1000
,
0010
0000
0000
0000
,
0100
0000
0100
0000
,
0100
0000
0000
0000
,
0010
0000
0010
0000
,
0010
0000
0000
0000
,
1000
0000
0001
0000
,
0100
0000
0010
0100
,
0010
0000
1000
0000
,
0000
0000
0000
0000
,
0002
0000
0000
0000
,
0000
0003
2000
3000
,
0002
0000
0000
0000
,
0003
0000
0000
0000
,
0100
0000
0100
0000
,
0100
0000
0010
0010
,
0020
0000
0000
0000
,
0030
0000
0000
0000
,
1000
0000
0001
0000
,
0100
0000
0010
1000
,
0020
0000
0000
0000
,
0030
0000
0000
0000
,
0100
0000
0001
0000
,
1000
0000
0001
1000
,
0002
0000
0000
0000
,
0000
0000
0003
0000
,
2020
0000
0000
0000
,
0000
3030
0202
0303
,
2002
0000
0000
0000
,
0000
0000
0000
3003
,
0022
0000
0000
0000
,
0000
0033
2200
3300
,
2020
0000
0000
0000
,
0000
0000
3030
0000
,
0100
0000
0100
0000
,
0100
0010
0100
0100
,
0010
0000
0010
0000
,
0010
0000
0000
1000
,
0000
0000
0001
0200
,
0000
0000
0000
0300
;

//---------------dance-single - ----------------
#NOTEDATA:;
#CHARTNAME:;
#STEPSTYPE:dance-single;
#DESCRIPTION:;
#CHARTSTYLE:;
#DIFFICULTY:Beginner;
#METER:1;
#RADARVALUES:0.069447,0.138970,0.028182,0.000000,0.000000,69.000000,65.000000,4.000000,0.000000,0.000000,0.000000,0.000000,0.000000,0.000000,0.069447,0.138970,0.028182,0.000000,0.000000,69.000000,65.000000,4.000000,0.000000,0.000000,0.000000,0.000000,0.000000,0.000000;
#CREDIT:;
#NOTES:
// measure 0
0000
0000
0000
0000
,  // measure 1
0000
0000
0000
0000
,  // measure 2
0000
0000
0000
0000
,  // measure 3
0000
0000
0000
0000
,  // measure 4
1000
0000
0000
0000
,  // measure 5
0001
0000
0000
0000
,  // measure 6
0100
0000
0000
0000
,  // measure 7
0000
0000
0000
0000
,  // measure 8
0010
0000
0000
0000
,  // measure 9
1000
0000
0000
0000
,  // measure 10
0001
0000
0000
0000
,  // measure 11
0000
0000
0000
0000
,  // measure 12
0010
0000
0001
0000
,  // measure 13
0000
0000
1000
0000
,  // measure 14
0000
0000
0000
0000
,  // measure 15
0000
0000
0000
0000
,  // measure 16
0010
0000
0100
0000
,  // measure 17
0001
0000
0000
0000
,  // measure 18
1000
0000
0000
0000
,  // measure 19
0000
0000
0000
0000
,  // measure 20
1001
0000
0000
1000
,  // measure 21
0001
0000
0000
0000
,  // measure 22
0100
0000
0000
0010
,  // measure 23
0100
0000
0000
0000
,  // measure 24
1001
0000
0000
0001
,  // measure 25
0010
0000
0000
0000
,  // measure 26
0001
0000
0000
1000
,  // measure 27
0010
0000
0000
0000
,  // measure 28
0100
0000
0000
0000
,  // measure 29
0010
0000
0000
0000
,  // measure 30
1000
0000
0000
0000
,  // measure 31
0001
0000
0000
0000
,  // measure 32
0100
0000
0000
0000
,  // measure 33
0010
0000
0000
0000
,  // measure 34
1000
0000
0000
0000
,  // measure 35
0000
0000
0000
0000
,  // measure 36
1001
0000
0000
0000
,  // measure 37
0000
0000
0001
0000
,  // measure 38
0001
0000
0000
0000
,  // measure 39
0000
0000
0000
0000
,  // measure 40
0100
0000
0100
0000
,  // measure 41
0100
0000
0010
0010
,  // measure 42
0010
0000
0000
0000
,  // measure 43
0000
0000
0000
0000
,  // measure 44
1000
0000
0000
0000
,  // measure 45
0001
0000
0000
0000
,  // measure 46
0100
0000
0000
0000
,  // measure 47
0100
0000
0000
0000
,  // measure 48
0010
0000
0000
0000
,  // measure 49
1000
0000
0000
0000
,  // measure 50
0001
0000
0000
0000
,  // measure 51
0000
0000
0010
0000
,  // measure 52
0100
0000
0000
0000
,  // measure 53
0000
0000
0010
0000
,  // measure 54
0001
0000
0000
0000
,  // measure 55
0000
0000
0000
0000
,  // measure 56
1000
0000
0000
0000
,  // measure 57
0000
0000
0100
0000
,  // measure 58
0010
0000
0000
0000
,  // measure 59
0000
0000
0000
0000
,  // measure 60
0100
0000
0100
0000
,  // measure 61
0100
0000
0000
0000
,  // measure 62
0010
0000
0010
0000
,  // measure 63
0010
0000
0000
0001
,  // measure 64
0000
0000
1000
0010
,  // measure 65
0000
0000
0000
0110
;
