#VERSION:0.83;
#TITLE:Flamingo;
#SUBTITLE:;
#ARTIST:Kero Kero Bonito;
#TITLETRANSLIT:;
#SUBTITLETRANSLIT:;
#ARTISTTRANSLIT:;
#GENRE:;
#ORIGIN:;
#CREDIT:;
#BANNER:Flamingo.png;
#BACKGROUND:Flamingo-bg.png;
#PREVIEWVID:;
#JACKET:Flamingo-jacket.png;
#CDIMAGE:;
#DISCIMAGE:;
#LYRICSPATH:;
#CDTITLE:;
#MUSIC:Flamingo.ogg;
#OFFSET:-0.810000;
#SAMPLESTART:65.529099;
#SAMPLELENGTH:21.573029;
#SELECTABLE:YES;
#BPMS:0.000=89.000;
#STOPS:14.000=0.674,
92.500=1.348;
#DELAYS:;
#WARPS:;
#TIMESIGNATURES:0.000=4=4;
#TICKCOUNTS:0.000=4;
#COMBOS:0.000=1;
#SPEEDS:0.000=1.000=0.000=0;
#SCROLLS:0.000=1.000;
#FAKES:;
#LABELS:0.000=Song Start;
#BGCHANGES:;
#KEYSOUNDS:;
#ATTACKS:
;

//---------------dance-single - ----------------
#NOTEDATA:;
#CHARTNAME:;
#STEPSTYPE:dance-single;
#DESCRIPTION:;
#CHARTSTYLE:;
#DIFFICULTY:Hard;
#METER:6;
#RADARVALUES:0.309871,0.388478,0.091139,0.036455,0.200505,238.000000,228.000000,10.000000,4.000000,0.000000,0.000000,0.000000,0.000000,0.000000,0.309871,0.388478,0.091139,0.036455,0.200505,238.000000,228.000000,10.000000,4.000000,0.000000,0.000000,0.000000,0.000000,0.000000;
#CREDIT:;
#NOTES:
0000
0000
0000
0000
,
0000
0000
0000
0000
,
0000
0000
0000
0000
,
0000
0000
0000
0000
0000
0000
0000
0000
0000
0000
0000
0000
1000
0000
0000
0001
,
0000
0100
0000
0000
0010
0000
1000
0000
0100
0000
1000
0000
0001
0000
0000
0000
,
0100
0000
0000
0001
0000
0010
0000
0100
0010
0000
0001
0000
2000
0000
0000
0000
,
3001
0000
0000
0100
0000
0000
0010
0000
0100
0000
0000
0000
0001
0000
0010
0000
,
0001
0000
1000
0000
0010
0000
0100
0000
0001
0000
1000
0000
0100
0000
0000
1000
,
0000
0010
0000
0000
0100
0000
0010
0000
1000
0000
0001
0000
0010
0000
0000
0000
,
0100
0000
0000
0010
0000
0001
0000
0010
0100
0000
0010
0000
0002
0000
0000
0000
,
1003
0000
0000
0100
0000
0000
1000
0000
0001
0000
0000
0000
1000
0000
0010
0000
,
0100
0001
0010
0000
0000
0000
0100
0010
,
0100
0000
0001
1000
0001
0000
0100
0010
,
0100
0000
0000
0000
0001
0000
1000
0000
0001
0000
0000
0000
1000
0010
0000
0000
,
0000
0000
0100
0001
0000
0000
0000
0000
0010
0000
0000
0000
0100
0000
0000
0100
,
0000
0000
0100
0000
0010
0000
0001
0000
0100
0000
0010
0000
1000
0010
0000
0000
,
0000
0000
0100
0001
0000
0000
0000
0000
1000
0000
0000
0000
0001
0010
0000
0000
,
0000
0000
0100
1000
0000
0000
0000
0000
0100
0000
0000
0000
0010
0001
0000
0000
,
0000
0000
1000
0001
0000
0000
0000
0000
0100
0000
0000
0000
0010
0000
0000
1000
,
0000
0001
1001
0110
1001
0000
0002
0000
,
0000
0003
1000
0001
0000
0001
0200
0000
0300
0000
0001
0000
0100
0000
0010
0000
,
1000
0100
1000
0100
0001
0100
0010
0000
,
0100
0010
0001
0100
0001
1000
0100
1000
,
0010
0100
0001
0000
1000
0000
0010
0100
,
1001
0000
0000
1000
0001
0010
0001
1000
,
0100
0000
0000
1000
0001
0000
1000
0000
0000
0000
0001
0000
0100
0000
0001
0000
,
1000
0000
0001
0010
0100
1000
1001
0110
,
1001
0000
1000
0000
0100
0000
0010
0001
,
1001
0000
0000
0001
1000
0010
0100
0001
,
0010
0000
0000
0100
0010
0000
0001
0000
0000
0000
1000
0000
0010
0000
1000
0000
,
0001
0000
0000
0000
0100
0000
0010
0100
0010
0000
1000
0000
0001
0000
0000
0000
,
0000
0000
0000
0000
1000
0000
0000
0010
0000
1000
0000
0000
0001
0000
0100
0000
,
0001
0000
0010
0000
0100
0000
0000
0000
0010
0000
0000
0100
0000
0010
0000
0001
,
0100
0000
0010
1000
0100
0000
1000
0000
0000
0000
0001
0000
0100
0000
0001
0000
,
1000
0000
0000
0000
0100
0010
0100
0010
0100
0000
0010
0100
0010
0100
0010
0000
,
0110
0000
1001
0000
0001
0000
0000
1000
0000
0010
0000
0000
0100
0000
0010
0000
,
1000
0000
0001
0000
0010
0000
0000
0000
0100
0000
0000
0010
0000
0001
0000
0100
,
0010
0000
1000
0001
0100
0000
0010
0000
0000
0000
0010
0000
1000
0000
0001
0000
,
0010
0000
0100
0000
0000
0000
0010
0000
0000
0010
0000
0000
0010
0000
0000
0000
;

//---------------dance-single - ----------------
#NOTEDATA:;
#CHARTNAME:;
#STEPSTYPE:dance-single;
#DESCRIPTION:;
#CHARTSTYLE:;
#DIFFICULTY:Challenge;
#METER:8;
#RADARVALUES:0.430955,0.512911,0.127594,0.227846,0.496705,331.000000,317.000000,14.000000,25.000000,0.000000,0.000000,0.000000,0.000000,0.000000,0.430955,0.512911,0.127594,0.227846,0.496705,331.000000,317.000000,14.000000,25.000000,0.000000,0.000000,0.000000,0.000000,0.000000;
#CREDIT:;
#OFFSET:-0.810000;
#BPMS:0.000000=89.000000
;
#STOPS:14.000000=0.674000
,92.500000=1.348000
;
#DELAYS:;
#WARPS:;
#TIMESIGNATURES:0.000000=4=4
;
#TICKCOUNTS:0.000000=4
;
#COMBOS:0.000000=1
;
#SPEEDS:0.000000=1.000000=0.000000=0
;
#SCROLLS:0.000000=1.000000
;
#FAKES:;
#LABELS:0.000000=Song Start
;
#NOTES:
0000
0000
0000
0000
,
0000
0000
0000
0000
,
0000
0000
0000
0000
,
0000
0000
0000
0000
0000
0000
0000
0000
0000
0000
0000
0000
0001
0100
0001
0010
,
0000
0001
0000
1000
0001
0000
0100
0000
0001
0000
0010
0000
0001
0000
0000
0010
,
0100
1000
0010
0100
0000
0010
0000
1000
0001
0000
0010
0000
0200
0000
0000
0000
,
0310
0000
0000
0000
0000
0000
0100
0000
0000
0000
0010
0000
0001
0000
1000
0000
0001
0000
0000
0000
0000
0000
1000
0001
1000
0000
1000
0000
0100
0000
0010
0000
,
0100
0100
0010
0001
1000
1000
0001
0010
0100
0100
0010
0001
1000
0010
1000
0100
,
0000
1000
0000
0001
0100
0000
0001
0000
0010
0000
0100
0000
0010
0000
0000
0100
,
0010
0001
0100
0010
0000
1000
0000
0001
1000
0000
0100
0000
0020
0000
0000
0000
,
0130
0000
0000
0000
0000
0000
0010
0000
0000
0000
0100
0000
0010
0000
0001
0000
1000
0000
0000
0000
0000
0000
0001
1000
0001
0000
0001
0000
0100
0000
0010
0000
,
1000
0000
0001
0000
1000
0000
0000
0000
0000
0000
0000
0000
0001
0100
0001
0000
,
1000
0000
0100
0000
1000
0000
0001
0000
0010
0001
0000
1000
0100
1000
0001
0000
,
0100
0000
0000
0000
0010
0100
0001
0000
1000
0000
0000
0000
0001
1000
0100
1000
,
0000
0100
1000
0100
0010
0001
0100
0001
1000
0000
0001
1000
0001
0000
0100
0000
,
0010
0100
0001
0000
1000
0001
0000
0100
0010
1000
0100
0000
0010
0000
0100
0000
,
0000
1000
0000
0001
0100
0001
0010
0000
0100
0000
0000
0000
0010
0001
0100
0000
,
0010
1000
0001
0010
0100
0000
0010
0000
0001
0000
0000
0000
1000
0001
0100
0000
,
0010
1000
0000
0000
0010
0000
0100
0000
0001
0000
0010
0000
0100
0010
0000
0011
,
0000
0001
1000
0000
1010
0000
0011
0000
1002
0000
0000
0000
2003
0000
0000
0000
,
3000
0000
0001
0100
0000
0001
2000
0000
3000
0100
1000
1000
0001
0100
0010
0000
,
0100
0000
0001
0000
0020
0000
0230
0000
2300
0000
3002
0000
0203
0000
0000
0310
,
1000
0001
0010
0100
0010
0001
1000
0000
0001
0000
0100
0000
0010
0000
0100
0001
,
1000
0100
1000
0000
0001
0000
0000
0000
0100
0000
0000
0000
1000
0000
0100
0000
,
1001
0000
0000
0001
0100
1000
0100
0001
,
0010
0000
0000
0000
0000
0000
0100
0000
0010
0000
0000
0000
0001
0000
0000
0000
0000
0000
0000
0000
0002
0000
0000
0003
0002
0000
0000
0000
2000
0000
0000
3000
,
2000
0000
3003
0000
0001
0100
1000
0100
0001
0000
0010
0000
0011
0000
1100
0000
,
0011
0000
1000
0000
0010
0000
0001
0010
,
1001
0000
0000
0000
0000
0000
1000
0000
0010
0000
0001
0000
0010
0100
1000
0000
,
0001
0000
0000
0000
0000
0000
0100
0000
0010
0000
0000
0000
1000
0000
0000
0000
0000
0000
0000
0000
0002
0000
0000
0003
0002
0000
0000
0000
2000
0000
0000
3000
,
2000
0000
3003
0000
0001
0000
1000
0010
1010
0000
0101
0000
1010
0000
0000
0000
,
0000
0000
0000
0000
0001
1000
0001
0010
0000
0100
0000
0010
0001
0000
0100
0000
,
0010
0000
0100
0000
0001
0000
0000
1000
0100
1000
0001
0100
0000
0001
0000
0010
,
0100
0000
0000
0000
0010
0000
0100
0000
0010
0000
0000
0000
0001
0000
0000
0000
0000
0000
0000
0000
0200
0000
0000
0300
0200
0000
0000
0000
0020
0000
0000
0030
,
0020
0000
0330
0000
1000
1000
0001
1000
0001
0000
0010
0010
0100
0010
0100
0000
,
1001
0000
0110
0000
0001
0100
0001
1000
0000
0100
0000
1000
0010
0000
0100
0000
,
0001
0000
0010
0000
0100
0000
0000
0010
0100
1000
0010
0100
0000
0001
0000
1000
,
0001
0000
0100
0010
1000
0000
0010
0000
0000
0000
0100
0000
0010
0000
1000
0000
,
0001
1000
0010
1000
0000
0000
0002
0003
0000
0002
0003
0000
0002
0003
0000
0000
;

//---------------dance-single - ----------------
#NOTEDATA:;
#CHARTNAME:;
#STEPSTYPE:dance-single;
#DESCRIPTION:;
#CHARTSTYLE:;
#DIFFICULTY:Medium;
#METER:4;
#RADARVALUES:0.263000,0.300188,0.118480,0.045569,0.068354,202.000000,189.000000,13.000000,5.000000,0.000000,0.000000,0.000000,0.000000,0.000000,0.263000,0.300188,0.118480,0.045569,0.068354,202.000000,189.000000,13.000000,5.000000,0.000000,0.000000,0.000000,0.000000,0.000000;
#CREDIT:;
#NOTES:
0000
0000
0000
0000
,
0000
0000
0000
0000
,
0000
0000
0000
0000
,
0000
0000
0000
1000
,
0010
1000
0000
0010
1000
0100
0010
0000
,
0100
1000
0000
0100
0010
0001
2000
0000
,
3001
0000
1000
0001
0100
0000
0001
0100
,
0010
1000
0010
0100
0001
1000
0010
0000
,
1000
0001
0000
1000
0100
0000
1000
0000
,
0010
0100
0000
0010
1000
0010
0200
0000
,
0310
0000
1000
0010
1000
0000
0010
0100
,
0001
1000
0002
0000
0003
0000
0011
0000
,
0000
1100
0000
1001
,
0000
0000
0000
0000
0110
0000
0000
0000
0000
0000
0000
0000
1000
0010
0000
0000
,
0000
0000
0100
0001
0000
0000
0000
0000
0000
0000
0000
0000
0001
0000
0000
0001
,
0000
0000
0001
0000
1000
0000
0000
0000
0001
0000
0000
0000
0100
0010
0000
0000
,
0000
0000
0100
0010
0000
0000
0000
0000
0000
0000
0000
0000
1000
0010
0000
0000
,
0000
0000
1000
0001
0000
0000
0000
0000
0000
0000
0000
0000
1000
0010
0000
0000
,
0000
0000
0100
0001
0000
0000
0000
0000
0000
0000
0000
0000
0010
0000
0000
0001
,
0000
1000
0001
0100
0020
0000
2030
0000
,
3000
0000
0001
1000
0000
0001
0100
0000
0000
0001
0100
0000
0010
0000
1000
0000
,
0100
0010
1000
0100
0001
0100
1000
0000
,
0010
0100
0001
1000
0100
0010
0100
1000
,
0001
1000
0001
0000
1000
0000
0000
0000
0001
0000
0000
0000
1000
0000
0001
0000
,
0110
0000
0000
0100
0010
1000
0010
0100
,
0001
0000
0010
0010
0000
0100
0010
0001
,
1000
0000
0001
0100
0010
1000
1001
1001
,
1001
0000
1000
0000
0010
0000
0100
0001
,
0010
0000
0000
0100
0010
0001
1000
0100
,
0010
0000
0100
1000
0000
0001
0001
1000
,
0001
0110
1001
0110
,
0000
1000
0010
0100
,
0001
0010
0100
0000
0010
0000
0001
0000
,
1000
0001
0100
0010
0000
0100
0001
0100
,
0001
0000
1000
0100
0001
0100
1000
0100
,
0110
1001
0001
0000
1000
0000
0010
0000
,
1000
0001
1000
0000
0001
0000
0010
0000
,
0001
0000
0100
0000
0000
0010
0100
0001
,
1000
0000
0000
0000
0000
0000
0001
0000
0000
0001
0000
0000
0001
0000
0000
0000
;

//---------------dance-single - ----------------
#NOTEDATA:;
#CHARTNAME:;
#STEPSTYPE:dance-single;
#DESCRIPTION:;
#CHARTSTYLE:;
#DIFFICULTY:Easy;
#METER:2;
#RADARVALUES:0.134104,0.173163,0.009114,0.027342,0.000000,103.000000,102.000000,1.000000,3.000000,0.000000,0.000000,0.000000,0.000000,0.000000,0.134104,0.173163,0.009114,0.027342,0.000000,103.000000,102.000000,1.000000,3.000000,0.000000,0.000000,0.000000,0.000000,0.000000;
#CREDIT:;
#NOTES:
// measure 0
0000
0000
0000
0000
,  // measure 1
0000
0000
0000
0000
,  // measure 2
0000
0000
0000
0000
,  // measure 3
0000
0000
0000
0010
,  // measure 4
0000
1000
0000
0001
,  // measure 5
0000
0010
0001
2000
,  // measure 6
3001
0000
1000
0010
,  // measure 7
1000
0100
1000
0001
,  // measure 8
0000
0010
0000
0001
,  // measure 9
1000
0001
0100
0020
,  // measure 10
0130
0000
0001
1000
,  // measure 11
0100
1000
0000
0010
,  // measure 12
0000
0000
0000
0000
,  // measure 13
0000
0000
0000
0100
,  // measure 14
0000
0100
0000
0000
0000
0000
0010
0000
,  // measure 15
0010
0010
0000
1000
,  // measure 16
0000
1000
0000
0000
0000
0000
0001
0000
,  // measure 17
0000
0001
0000
0000
0000
0000
0100
0000
,  // measure 18
0000
0100
0000
0000
0000
0000
0010
0000
,  // measure 19
0100
0000
0001
1000
0001
0000
2000
0000
,  // measure 20
3010
0100
0000
0010
,  // measure 21
1000
0001
0010
0100
,  // measure 22
0010
0001
1000
0010
,  // measure 23
0100
0010
1000
0000
1000
0000
0001
0000
,  // measure 24
0001
0000
0100
0010
,  // measure 25
1000
1001
0000
0001
,  // measure 26
0001
0000
1000
0000
0010
0000
0100
0001
,  // measure 27
0100
0001
0010
0001
,  // measure 28
1000
0000
0001
1000
,  // measure 29
0010
0100
0000
0010
,  // measure 30
0010
0000
1000
0000
0001
1000
0001
0000
,  // measure 31
0000
0100
0000
0010
,  // measure 32
0000
1000
0000
0001
,  // measure 33
0000
0010
0000
0001
,  // measure 34
1000
0000
0100
0000
0000
0100
0000
0000
,  // measure 35
0010
0001
0010
0000
0000
0000
0001
0000
,  // measure 36
0000
1000
0000
0010
,  // measure 37
0000
0100
0000
0010
,  // measure 38
0010
0000
0000
0000
;

//---------------dance-single - ----------------
#NOTEDATA:;
#CHARTNAME:;
#STEPSTYPE:dance-single;
#DESCRIPTION:;
#CHARTSTYLE:;
#DIFFICULTY:Beginner;
#METER:1;
#RADARVALUES:0.058589,0.104923,0.009114,0.000000,0.000000,45.000000,44.000000,1.000000,0.000000,0.000000,0.000000,0.000000,0.000000,0.000000,0.058589,0.104923,0.009114,0.000000,0.000000,45.000000,44.000000,1.000000,0.000000,0.000000,0.000000,0.000000,0.000000,0.000000;
#CREDIT:;
#NOTES:
0000
0000
0000
0000
,
0000
0000
0000
0000
,
0000
0000
0000
0000
,
0000
0000
0000
1000
,
0000
0000
0000
0001
,
0000
0000
0000
0100
,
0000
0000
0000
0010
,
0000
0010
0000
0010
,
0000
0000
0000
1000
,
0000
0000
0000
0001
,
0000
0000
0000
0100
,
0100
0100
0000
0010
,
0000
0000
0000
0000
,
0000
0000
0000
1000
,
0000
0000
0000
0001
,
0000
0001
0000
0100
,
0000
0000
0000
0010
,
0000
0000
0000
1000
,
0000
0000
0000
0001
,
0000
0000
0100
0100
,
0000
0000
0000
0010
,
0000
0000
0000
1000
,
0000
0000
0000
0001
,
0000
1000
0000
0000
,
0000
0001
0000
0000
,
0000
0100
0000
0000
,
0000
0010
0000
0100
,
0000
0001
0000
0000
,
0000
1000
0000
0000
,
0000
0100
0000
0000
,
0000
1000
0001
1000
,
0000
0110
0000
0000
,
0000
0100
0000
0000
,
0000
0010
0000
0000
,
0000
1000
0000
0000
,
0001
1000
0000
0000
,
0000
0010
0000
0000
,
0000
0100
0000
0000
,
0000
0000
0000
0001
0000
0000
0000
0000
;

//---------------dance-double - ----------------
#NOTEDATA:;
#CHARTNAME:;
#STEPSTYPE:dance-double;
#DESCRIPTION:;
#CHARTSTYLE:;
#DIFFICULTY:Challenge;
#METER:6;
#RADARVALUES:0.290342,0.388478,0.054683,0.054683,0.209619,223.000000,217.000000,6.000000,6.000000,0.000000,0.000000,0.000000,0.000000,0.000000,0.290342,0.388478,0.054683,0.054683,0.209619,223.000000,217.000000,6.000000,6.000000,0.000000,0.000000,0.000000,0.000000,0.000000;
#CREDIT:;
#NOTES:
00000000
00000000
00000000
00000000
,
00000000
00000000
00000000
00000000
,
00000000
00000000
00000000
00000000
,
00000000
00000000
00000000
00000000
00000000
00000000
00000000
00000000
00000000
00000000
00000000
00000000
01000000
00000000
00000000
00010000
,
00000000
00100000
00000000
00000000
00001000
00000000
00010000
00000000
00000100
00000000
00001000
00000000
00000010
00000000
00000000
00000000
,
00000100
00000000
00000000
00000001
00000000
00001000
00000000
00000100
00001000
00000000
00000010
00000000
00000200
00000000
00000000
00000000
,
00000310
00000000
00000000
00000100
00000000
00000000
00000001
00000000
00001000
00000000
00000000
00000000
00000100
00000000
00001000
00000000
,
00000100
00000000
00010000
00000000
00001000
00000000
01000000
00000000
00100000
00000000
10000000
00000000
01000000
00000000
00000000
00100000
,
00000000
01000000
00000000
00000000
00100000
00000000
00010000
00000000
00100000
00000000
00001000
00000000
00010000
00000000
00000000
00000000
,
00001000
00000000
00000000
00100000
00000000
00010000
00000000
00000000
01000000
00000000
00100000
00000000
20000000
00000000
00000000
00000000
,
31000000
00000000
00000000
10000000
00000000
00000000
00100000
00000000
01000000
00000000
00000000
00100000
01000000
00000000
00010000
00000000
,
00100000
00001000
00010000
00000000
00000000
00000000
00010200
00000000
,
00000000
00001000
00000000
00000000
00000000
00000000
00010000
00000000
,
00000000
00000000
00001000
00000000
00000000
00000000
00000000
00000000
00000300
00000000
00000000
00000000
00001000
00010000
00000000
00000000
,
00000000
00000000
00001000
00100000
00000000
00000000
00000000
00000000
00000000
00000000
00000000
00000000
01000000
00000000
00000000
01000000
,
00000000
00000000
01000000
00000000
00100000
00000000
00010000
00000000
01000000
00010000
00100000
00000000
00001000
00100000
00000000
00000000
,
00000000
00000000
00010000
00000100
00000000
00000000
00000000
00000000
00000000
00000000
00000000
00000000
00001000
00010000
00000000
00000000
,
00000000
00000000
00010000
00000010
00000000
00000000
00000000
00000000
00000000
00000000
00000000
00000000
00000100
00000001
00000000
00000000
,
00000000
00000000
00001000
00000100
00000000
00000000
00000000
00000000
00000000
00000000
00000000
00000000
00000100
00000000
00000000
00000100
,
00000000
00000100
00001000
00000001
00000200
00000000
00000320
00000000
,
00000000
00000000
00001030
00000100
00000000
00000100
00010000
00000000
00000000
00001000
00010000
00000000
00001000
00000000
01000000
00000000
,
00100000
10000000
00100000
00010000
00100000
10000000
00010000
00000000
,
00010000
00100000
00001000
00010000
00000100
00001000
00000100
00010000
,
00001000
00100000
01000000
00000000
00100000
00000000
00000000
00000000
00010000
00000000
00000000
00000000
01000000
00000000
00100000
00000000
,
10000000
00000000
00000000
01000000
00100000
00010000
00000100
00001000
,
00000010
00000000
00000000
00000100
00000001
00000000
00001000
00000000
00000000
00000000
00000010
00000000
00000010
00000000
00000100
00000000
,
00000001
00000000
00001000
00000100
00001000
00000100
00001100
00011000
,
00001100
00000000
00000100
00000000
00010000
00000000
00001000
00100000
,
01000000
00000000
00000000
00100000
01000000
10000000
01000000
00100000
,
00010000
00000000
00000000
10000000
00100000
00000000
01000000
00000000
00000000
00000000
00010000
00000000
00010000
00000000
00100000
00000000
,
00001000
00000000
00000000
00000000
00010000
00000000
00001000
00010000
00001000
00000000
00010000
00000000
00000100
00000000
00000000
00000000
,
00000000
00000000
00000000
00000000
00001000
00000000
00000000
00000010
00000000
00000100
00000000
00000000
00000010
00000000
00001000
00000000
,
00000001
00000000
00000010
00000000
00000100
00000000
00000000
00000000
00000010
00000000
00000000
00000001
00000000
00000100
00000000
00000000
,
00000010
00000000
00001000
00000001
00000100
00000000
00000010
00000000
00000000
00000000
00001000
00000000
00001000
00000000
00000100
00000000
,
00010000
00000000
00000000
00000000
00001000
00100000
00001000
00100000
00001000
00000000
00010000
00000100
00010000
00000100
00010000
00000000
,
00010100
00000000
00011000
00000000
00001000
00000000
00000000
00100000
00000000
00100000
00000000
00000000
01000000
00000000
00100000
00000000
,
00010000
00000000
01000000
00000000
10000000
00000000
00000000
00000000
01000000
00000000
00000000
00100000
00000000
10000000
00000000
00010000
,
00100000
00000000
00010000
01000000
00100000
00000000
10000000
00000000
00000000
00000000
00010000
00000000
00100000
00000000
01000000
00000000
,
20000000
00000000
00000000
00000000
30000000
00000000
00100000
00000000
00000000
00100000
00000000
00000000
00100000
00000000
00000000
00000000
;
