#VERSION:0.83;
#TITLE:Energizer;
#SUBTITLE:;
#ARTIST:ZiGZaG;
#TITLETRANSLIT:;
#SUBTITLETRANSLIT:;
#ARTISTTRANSLIT:;
#GENRE:;
#ORIGIN:;
#CREDIT:;
#BANNER:banner.png;
#BACKGROUND:background.png;
#PREVIEWVID:;
#JACKET:jacket.png;
#CDIMAGE:;
#DISCIMAGE:;
#LYRICSPATH:;
#CDTITLE:;
#MUSIC:music.ogg;
#OFFSET:-0.005000;
#SAMPLESTART:12.660000;
#SAMPLELENGTH:12.780000;
#SELECTABLE:YES;
#BPMS:0.000=303.000,
258.500=295.000,
263.000=204.000,
265.000=180.500,
266.500=134.000,
268.000=75.750,
283.000=75.910,
284.000=303.000;
#STOPS:;
#DELAYS:;
#WARPS:;
#TIMESIGNATURES:0.000=4=4;
#TICKCOUNTS:0.000=4;
#COMBOS:0.000=1;
#SPEEDS:0.000=1.000=0.000=0;
#SCROLLS:0.000=1.000;
#FAKES:;
#LABELS:0.000=Song Start;
#BGCHANGES:;
#KEYSOUNDS:;
#ATTACKS:
;

//---------------dance-single - ----------------
#NOTEDATA:;
#CHARTNAME:;
#STEPSTYPE:dance-single;
#DESCRIPTION:;
#CHARTSTYLE:;
#DIFFICULTY:Hard;
#METER:10;
#RADARVALUES:0.776694,1.456205,0.245888,0.018214,0.159372,597.000000,570.000000,27.000000,2.000000,0.000000,0.000000,0.000000,0.000000,0.000000,0.776694,1.456205,0.245888,0.018214,0.159372,597.000000,570.000000,27.000000,2.000000,0.000000,0.000000,0.000000,0.000000,0.000000;
#CREDIT:;
#NOTES:
// measure 0
0000
0000
0000
0000
,  // measure 1
0000
0000
0000
0000
,  // measure 2
0000
0000
0000
0000
,  // measure 3
0000
0000
0000
0000
,  // measure 4
0000
0000
0000
0000
,  // measure 5
0000
0000
0000
0000
,  // measure 6
0000
0000
0000
0000
,  // measure 7
0000
0000
0000
0000
,  // measure 8
0000
0000
1000
0010
0000
0000
0100
0000
,  // measure 9
1001
0000
0101
0000
,  // measure 10
0000
0000
0001
0010
0000
0000
0001
0000
,  // measure 11
1000
0010
1000
0001
0010
0000
0000
0000
,  // measure 12
0000
0000
0100
0010
0000
0000
0001
0000
,  // measure 13
0100
0000
1010
0000
,  // measure 14
1000
0001
1000
0000
0001
0000
0100
0010
,  // measure 15
1000
0010
0100
0001
0010
0100
0010
0001
,  // measure 16
1000
0001
1000
0000
0001
0000
0100
0010
,  // measure 17
0100
0000
0010
1000
0000
0100
0010
0000
,  // measure 18
0100
1000
0100
0000
1000
0000
0001
0100
,  // measure 19
0001
0000
0100
0010
0000
0100
0001
0000
,  // measure 20
1000
0010
1000
0000
0010
0000
0100
0001
,  // measure 21
0100
0000
0001
0010
0000
0001
1000
0000
,  // measure 22
0100
0010
0100
0000
0010
0000
0001
0010
,  // measure 23
0001
0000
0010
0001
1000
0010
0100
0001
,  // measure 24
1000
0001
1000
0000
0010
0000
0100
0001
,  // measure 25
0100
0000
0001
1000
0000
0010
0100
0000
,  // measure 26
0001
0010
0001
0000
0010
0000
0001
1000
,  // measure 27
0001
0000
0100
0010
0000
1000
0100
0000
,  // measure 28
0010
0100
0010
0000
0100
0000
1000
0001
,  // measure 29
1000
0000
0001
0100
0000
0010
1000
0000
,  // measure 30
1001
0000
0000
0011
0000
0000
1100
0000
,  // measure 31
1001
0000
0001
0100
0000
0010
1000
0000
,  // measure 32
0001
0100
1000
0100
,  // measure 33
0010
1000
0001
0010
,  // measure 34
0100
0010
0001
1000
,  // measure 35
0010
1000
0100
1000
,  // measure 36
0001
0010
1000
0010
,  // measure 37
0001
0100
1000
0100
,  // measure 38
0001
0100
0010
1000
,  // measure 39
0001
0010
0100
1000
,  // measure 40
1000
0010
1000
0000
1000
0001
1000
0000
,  // measure 41
1000
0100
1000
0000
1000
0001
1000
0000
,  // measure 42
0001
1000
0010
0000
0010
0100
0001
0000
,  // measure 43
0001
0010
0100
0000
0100
1000
0001
0000
,  // measure 44
0001
0100
0001
0000
0001
1000
0001
0000
,  // measure 45
0001
0010
0001
0000
0001
1000
0001
0000
,  // measure 46
1000
0001
0100
0000
0100
0001
1000
0000
,  // measure 47
1000
0100
0010
0000
0010
0100
1000
0000
,  // measure 48
0000
0000
0001
0100
0000
0000
0010
0000
,  // measure 49
1001
0000
0110
0000
,  // measure 50
0000
0000
1000
0010
0000
0000
0100
0000
,  // measure 51
0001
1000
0010
1000
0100
0000
0000
0000
,  // measure 52
0000
0000
0010
0100
0000
0000
0010
0000
,  // measure 53
0011
0000
1010
0000
,  // measure 54
0000
0000
1000
0010
0000
0000
0100
0000
,  // measure 55
0010
1000
0010
1000
0001
0100
0010
0000
,  // measure 56
0000
0000
1000
0100
0000
0000
0010
0000
,  // measure 57
0011
0000
0101
0000
,  // measure 58
0000
0000
0001
0100
0000
0000
0010
0000
,  // measure 59
0100
0001
1000
0100
0010
0000
0000
0000
,  // measure 60
0000
0000
0100
1000
0000
0000
0001
0000
,  // measure 61
0101
0000
1010
0000
,  // measure 62
0000
0000
1000
0001
1000
0000
0001
0000
,  // measure 63
0100
0000
0010
0000
1000
0000
0001
0000
0010
0000
0100
0000
,  // measure 64
1000
0000
0000
0000
,  // measure 65
0000
0000
0000
0000
,  // measure 66
0000
0000
0000
0000
,  // measure 67
0001
0000
1000
0000
0100
1000
0010
0000
0100
0000
0010
0100
0010
0000
0000
0000
0010
0000
1000
0000
0000
0000
0001
0000
,  // measure 68
0010
0000
0000
0001
0000
0000
0100
0000
0010
0000
1000
0000
0001
0000
0000
0000
0000
0000
1000
0000
0100
0000
0100
0000
,  // measure 69
1000
0000
0010
0000
0100
0010
1000
0000
0001
0000
0010
0100
1000
0000
0000
0000
0100
0000
0010
0000
0000
0000
0010
0000
,  // measure 70
0100
0000
0000
0010
0000
0000
0100
0000
1000
0000
0010
0000
0110
0000
0000
0000
0000
0000
0100
0100
0001
1000
1000
0100
,  // measure 71
0010
0001
0100
0010
,  // measure 72
1000
0100
0010
0100
,  // measure 73
1000
0010
0100
0001
,  // measure 74
0010
0010
0010
0100
,  // measure 75
0010
0100
1000
0010
,  // measure 76
0100
0001
0010
0100
,  // measure 77
0010
0001
1000
0010
,  // measure 78
0100
0101
0000
1001
,  // measure 79
1000
0010
1000
0010
1000
0010
1000
0010
,  // measure 80
0100
0001
0100
0001
0100
0001
0100
0001
,  // measure 81
0100
0010
1000
0001
0010
0100
1000
0001
,  // measure 82
0100
0010
1000
0001
0100
0010
1000
0100
,  // measure 83
0010
0001
0010
0001
0010
0001
0010
0001
,  // measure 84
1000
0100
1000
0100
1000
0100
1000
0100
,  // measure 85
1000
0010
0100
0001
0010
0100
0010
0001
,  // measure 86
0100
0010
1000
0001
0010
0100
0010
0001
,  // measure 87
0100
0001
0010
0000
0100
0000
1000
0100
,  // measure 88
0010
0000
0100
1000
0000
0001
0100
0000
,  // measure 89
0010
0100
0001
0000
1000
0000
0001
0010
,  // measure 90
0100
0000
0010
0001
0000
0100
0010
0000
,  // measure 91
1000
0001
0010
0000
0001
0000
0100
0010
,  // measure 92
1000
0000
0100
0010
0000
0100
1000
0000
,  // measure 93
0001
1000
0010
0000
1000
0000
0010
1000
,  // measure 94
0100
0000
0010
0100
1000
0010
0100
0001
,  // measure 95
0010
0001
0100
0000
0010
0000
1000
0001
,  // measure 96
0010
0000
0001
0100
0000
0010
1000
0000
,  // measure 97
0100
0010
0001
0000
0010
0000
0001
1000
,  // measure 98
0010
0000
0100
0001
0000
0100
0010
0000
,  // measure 99
0100
0001
1000
0000
0100
0000
0010
0100
,  // measure 100
1000
0000
0100
0010
0000
0100
1000
0000
,  // measure 101
0011
0000
0000
1010
0000
0000
1001
0000
,  // measure 102
0101
0000
0001
0100
0000
0010
1000
0000
,  // measure 103
0001
1000
0100
0010
0001
1000
0010
0000
,  // measure 104
0000
0000
0100
0010
0100
0000
0010
0000
,  // measure 105
1000
0000
0001
1000
0001
0000
0100
0000
,  // measure 106
0010
0100
0001
1000
,  // measure 107
0001
0100
0001
0100
0001
0100
0010
0000
,  // measure 108
0000
0000
0100
0010
1000
0000
0001
0000
,  // measure 109
1000
0000
0100
0000
0001
0000
0100
0000
0000
0000
0010
0000
,  // measure 110
0001
0000
0010
0000
1000
0000
0010
0000
0000
0000
0000
0000
,  // measure 111
0100
0010
0001
1000
0010
0100
0001
0000
,  // measure 112
0101
0000
1000
0010
1000
0000
0010
0000
,  // measure 113
0100
0000
0001
0010
0100
0000
0100
0000
,  // measure 114
0010
0001
1000
0000
1000
0001
0010
0000
,  // measure 115
0100
1000
0100
1000
0100
1000
0001
0000
,  // measure 116
0000
0000
0010
0100
1000
0000
0001
0000
,  // measure 117
1000
0010
0110
0000
0100
0001
0011
0000
,  // measure 118
0001
0010
0110
0000
0100
0000
0100
1000
,  // measure 119
2002
0000
0000
0000
,  // measure 120
0000
0000
0000
0000
,  // measure 121
0000
0000
0000
0000
,  // measure 122
0000
0000
0000
0000
,  // measure 123
3003
0000
0000
0000
;

//---------------dance-single - ----------------
#NOTEDATA:;
#CHARTNAME:;
#STEPSTYPE:dance-single;
#DESCRIPTION:;
#CHARTSTYLE:;
#DIFFICULTY:Challenge;
#METER:12;
#RADARVALUES:0.904192,1.863286,0.628381,0.036428,0.236781,695.000000,626.000000,69.000000,4.000000,95.000000,0.000000,0.000000,0.000000,0.000000,0.904192,1.863286,0.628381,0.036428,0.236781,695.000000,626.000000,69.000000,4.000000,95.000000,0.000000,0.000000,0.000000,0.000000;
#CREDIT:;
#NOTES:
0000
0000
0000
0000
,
0000
0000
0000
0000
,
0000
0000
0000
0000
,
0000
0000
0000
0000
,
0000
0000
0000
0000
,
0000
0000
0000
0000
,
0000
0000
0000
0000
,
0000
0000
0000
0000
,
1001
0000
0001
0100
0010
0000
1000
0001
,
0010
0100
1M01
0000
,
0000
0000
0001
0100
0010
0000
0100
0000
,
0010
1000
0010
0100
0001
0000
0000
0000
,
0000
0000
1000
0001
0010
0000
0100
0010
,
0001
1000
M101
0000
,
0001
0100
0001
0000
1001
0000
0001
1000
,
0001
0010
1000
0001
0100
1000
0100
0010
,
1000
0010
0100
0000
0001
0000
1000
0001
,
0010
0000
0100
0010
0000
0010
0001
0000
,
1000
0001
0100
0000
0010
0000
1000
0010
,
0100
0000
0001
0010
0000
0001
1000
0000
,
0001
0100
0010
0000
0100
0000
0010
1000
,
0100
0000
0010
0100
0000
0100
1000
0000
,
1000
0010
0100
0000
0010
0000
0100
0001
,
1000
0000
0001
1000
0001
0100
1000
0100
,
0001
0010
0100
0000
0010
0000
0001
1000
,
0010
0000
0100
0001
0000
0001
1000
0000
,
0100
1000
0010
0000
0100
0000
0010
1000
,
0001
0000
0010
0001
0000
1000
0010
0000
,
0100
0010
1000
0000
0001
0000
0010
0001
,
0100
0000
0010
1000
0000
0001
0100
0000
,
1001
0000
0000
MMMM
0000
0000
1010
0000
0000
MMMM
0000
0000
0101
0000
0000
0000
,
0001
0100
0010
1000
0001
0100
0010
1000
,
0001
0010
1000
0010
,
0001
0100
0010
1000
,
0001
0000
0010
0000
0001
0000
1000
0001
,
0100
0001
0000
0100
0010
0000
1000
0100
,
0010
0100
1000
0010
,
0100
0001
0010
0001
,
1000
0100
0010
0100
,
1000
0000
0001
1000
0001
0000
1001
0000
,
0001
0100
0001
0100
0001
0100
0001
0100
,
0010
1000
0010
1000
0010
1000
0010
1000
,
0001
0100
0010
1000
0001
0100
0010
1000
,
0001
0100
0010
1000
0001
0100
0010
1000
,
0001
0010
0001
0010
0001
0010
0001
0010
,
0100
1000
0100
1000
0100
1000
0100
1000
,
0001
0010
0100
1000
0100
0010
0001
0010
,
0100
1000
0010
0100
0001
1000
0010
0100
,
0001
0000
1000
0010
0100
0000
0001
0000
,
0011
10MM
1001
0000
,
0000
0000
0001
0100
0010
0000
0100
0010
,
1000
0001
0010
0001
0010
0100
0010
0000
,
0000
0000
0100
0010
0001
0000
0001
0000
,
0101
1M0M
0110
0000
,
0000
0000
0100
0010
1000
0000
0001
1000
,
0010
0100
0010
0100
0010
1000
0001
0000
,
0000
0000
1000
0100
0010
0000
0100
0000
,
1100
MM01
0101
0000
,
0000
0000
0001
0010
0001
0000
0010
0000
,
0100
0010
0001
0010
0100
1000
0001
0000
,
0000
0000
0001
0100
0010
0000
1000
0000
,
1100
MM01
1010
0000
,
0000
0000
1000
0001
0100
0000
0010
0000
,
0110
0000
01M0
0000
M100
0000
010M
0000
01M0
0000
M100
0000
,
2M02
0000
00M0
0000
0M00
0000
00M0
0000
0M00
0000
00M0
0000
,
0M00
0000
0000
0000
00M0
0000
0000
0000
0M00
0000
0000
0000
0000
0000
00M0
0000
0000
0000
0M00
0000
0000
00M0
0000
0000
,
0M00
0000
0000
00M0
0000
0000
0M00
0000
0000
00M0
0000
0000
0M00
0000
0000
0M00
00M0
0M00
00M0
0M00
00M0
0M00
30M3
0M00
,
100M
0000
0100
0000
0001
0100
0010
0000
0001
0000
0010
0100
1000
0000
0000
0000
0001
0000
1010
0000
0000
0000
1000
0000
,
0101
0000
0000
0011
0000
0000
0011
0000
1001
0000
0110
0000
1001
0000
0000
0000
0000
0000
0001
0000
1010
M0M0
1010
0000
,
1001
0000
1000
0000
0001
0010
1000
0000
0010
0000
0100
0010
0001
0000
0000
0000
1000
0000
1100
0000
0000
0000
1000
0000
,
1010
0000
0000
0011
0000
0000
0001
0000
0100
0000
1000
0000
0010
0000
0000
0000
0000
0000
0MM1
0MM1
0MM1
1MM0
1MM0
1MM0
,
0110
0100
0001
0010
,
0001
1000
0010
0100
,
0001
0010
0100
0011
,
1100
0101
1010
1100
,
1001
0001
0100
0001
,
0100
0010
1000
0010
,
0100
0001
1000
0010
,
1000
0101
0001
1100
,
0001
1000
0010
0100
0010
1000
0010
0100
,
0001
0010
0100
0010
0001
0100
0010
1000
,
0001
0010
0100
0010
0001
0100
0010
1000
,
0001
0010
0100
1000
0001
0010
0100
0010
,
0001
1000
0001
0100
0001
0100
0010
1000
,
0010
0100
0001
0010
0100
0010
0001
1000
,
0M10
1M00
0M10
0M01
0M10
1M00
0M10
0M01
,
1M00
0001
0010
0001
1000
0010
1000
0001
,
1000
0100
1000
0000
1100
0000
1000
0100
,
0001
0000
0100
0001
0000
0001
0010
0000
,
0100
1000
0010
0000
0110
0000
0010
1000
,
0001
0000
0010
0001
0000
0010
0100
0000
,
0010
0100
0010
0000
1010
0000
1000
0010
,
0001
0000
0100
0010
0000
0010
1000
0000
,
0001
1000
0010
0000
1100
0000
0100
1000
,
0010
0000
0100
0010
1000
0001
1000
0001
,
1000
0010
0001
0000
0011
0000
0001
0010
,
1000
0000
1000
0010
0000
0010
0100
0000
,
0100
0001
0010
0000
0100
0000
0010
0001
,
1000
0000
0001
0100
0000
0010
1000
0000
,
1000
0100
0001
0000
0101
0000
0001
0100
,
0010
0000
0100
0010
0000
0010
0001
0000
,
1001
0001
1000
0000
0001
0000
1000
0001
,
1000
0000
0001
1000
0000
1000
0001
0000
,
0100
0010
0100
0010
0100
0010
M11M
0000
,
0000
0000
0100
0010
1000
0000
0001
0000
,
0011
0000
1000
0010
0100
0000
0110
0000
,
1010
0101
0011
0110
,
1000
0100
0010
0100
1000
0001
M1M1
0000
,
0000
0000
0001
0100
0010
0000
1000
0000
,
0001
0000
0010
0000
1000
0000
0110
0000
0000
0000
0100
0000
,
1000
0000
0100
0000
0001
0000
0110
0000
0000
0000
0010
0000
,
0001
0100
0010
1000
0001
0010
0110
0100
,
0110
0000
0100
0010
0001
0000
1000
0000
,
0101
0000
0001
1000
0010
0000
1010
0000
,
0101
0001
0100
0000
0101
0001
0100
0001
,
1000
0001
0100
0001
0010
0100
11MM
0000
,
0000
0000
1000
0100
1000
0000
0001
0000
,
1000
0010
1M1M
0000
0010
0100
M11M
0000
,
0100
0000
0001
0000
M1M1
0000
0000
0000
1MM1
0000
0000
0000
M10M
0000
M01M
M00M
,
2MM2
0000
0000
0000
,
0000
0000
0000
0000
,
0000
0000
0000
0000
,
0000
0000
0000
0000
,
0000
0000
0000
0000
,
3003
0000
0000
0000
;

//---------------dance-double - ----------------
#NOTEDATA:;
#CHARTNAME:;
#STEPSTYPE:dance-double;
#DESCRIPTION:;
#CHARTSTYLE:;
#DIFFICULTY:Challenge;
#METER:11;
#RADARVALUES:0.845647,1.904268,0.509990,0.382493,0.168479,650.000000,594.000000,56.000000,42.000000,91.000000,0.000000,0.000000,0.000000,0.000000,0.845647,1.904268,0.509990,0.382493,0.168479,650.000000,594.000000,56.000000,42.000000,91.000000,0.000000,0.000000,0.000000,0.000000;
#CREDIT:;
#NOTES:
00000000
00000000
00000000
00000000
,
00000000
00000000
00000000
00000000
,
00000000
00000000
00000000
00000000
,
00000000
00000000
00000000
00000000
,
00000000
00000000
00000000
00000000
,
00000000
00000000
00000000
00000000
,
00000000
00000000
00000000
00000000
,
00000000
00000000
00000000
00000000
,
10010000
00000000
00010000
00100000
01000000
00000000
00100000
00000000
,
00110000
00000000
00MM1010
00000000
,
00000000
00000000
00000010
00000100
00000001
00000000
00001000
00000000
,
00000001
00001000
00000010
00010000
00001000
00000000
00000000
00000000
,
00000000
00000000
00001000
00100000
00010000
00000000
01000000
00000000
,
01010000
00000000
0M0M1100
00000000
,
00010000
00000100
00001000
00000000
00000010
00000000
00000100
00000001
,
00000010
00001000
00000010
00000001
00000100
00000010
00001000
00000100
,
00010000
00001000
00200000
00000000
01300000
00000000
10000000
00010000
,
01000000
00000000
00100000
10000000
00000000
10000000
00010000
00000000
,
00100000
00001000
00020000
00000000
00030100
00000000
00001000
00000010
,
00000100
00000000
00000010
00010000
00000000
00000100
00010000
00000000
,
00001000
00100000
00020000
00000000
01030000
00000000
00100000
10000000
,
00010000
00000000
00100000
00001000
00000000
00010000
00000100
00000000
,
00001000
00000010
00000200
00000000
00000301
00000000
00000010
00000100
,
00000010
00000000
00000100
00000010
00000001
00000100
00001000
00000100
,
00000010
00001000
00000200
00000000
00010300
00000000
00001000
00100000
,
00010000
00000000
10000000
00100000
00000000
00100000
01000000
00000000
,
00100000
10000000
00020000
00000000
00130000
00000000
01000000
00100000
,
00001000
00000000
00010000
00000100
00000000
00001000
00000010
00000000
,
00000100
00000001
00000020
00000000
00000130
00000000
00000010
00000001
,
00000100
00000000
00000010
00001000
00000000
00001000
00000100
00000000
,
00001100
00000000
00000000
00011000
00000000
00000000
01010000
00000000
,
10010000
00000000
00010000
01000000
00000000
00100000
10000000
00000000
,
02000000
03200000
00320000
00230000
,
00001000
00000000
00310000
00000000
,
00100000
00000000
00010000
00000000
,
01000000
00001000
00010000
00000100
,
00002100
00000000
00003020
00000000
,
00000230
00000000
00000302
00000000
,
00000013
00000000
00000001
00000000
,
00000100
00000010
00001001
00000000
,
00000001
00000100
00000001
00000100
00000010
00001000
00000010
00001000
,
00000100
00001000
00000100
00010000
00000100
00010000
00001000
00100000
,
00001000
00100000
00010000
01000000
00010000
01000000
00100000
01000000
,
00100000
10000000
00100000
10000000
00100000
01000000
00010000
00100000
,
01000000
00100000
01000000
00100000
00010000
00100000
00010000
00100000
,
00001000
00010000
00001000
00010000
00000100
00001000
00000100
00001000
,
00000001
00000010
00000001
00000010
00000100
00001000
00000100
00001000
,
00000100
00010000
00000100
00010000
00001000
00010000
00001000
00000000
,
00000000
00000000
00010000
00000100
00000000
00000000
00010000
00000000
,
00011000
MMMMMMMM
00011000
00000000
,
00000000
00000000
00001000
00100000
00000000
00000000
00001000
00000000
,
00100000
01000000
10000000
01000000
00100000
00000000
00000000
00000000
,
00000000
00000000
00100000
00001000
00000000
00000000
00010000
00000000
,
00011000
MMMMMMMM
00011000
00000000
,
00000000
00000000
00010000
00000100
00000000
00000000
00010000
00000000
,
00000100
00001000
00000010
00000001
00000010
00001000
00000100
00000000
,
00000010
00000001
00000010
00000200
00000000
00001300
00000010
00000100
,
00000001
00001000
00000010
00000000
00001000
00000000
00000100
00000000
,
00010000
00001000
00100000
00020000
00000000
00000000
01030000
00000000
,
00100000
10000000
00010000
00100000
00001000
00010000
00000010
00000100
,
00000001
00000010
00000100
00000020
00000000
00000000
00000130
00000010
,
00001000
00000100
00010000
00001000
00100000
00000000
01000000
00000000
,
00100000
00010000
01000000
00200000
00000000
00000000
01300000
00000000
,
00010000
00000000
00010000
00000000
00010000
00000000
10000000
00000000
10000000
00000000
10000000
00000000
,
02200000
00000000
00000000
00000000
,
00000000
00000000
00000000
00000000
,
00000000
00000000
00000000
03300000
,
11000000
00000000
00110000
00000000
00100000
00010000
01000000
00000000
01010000
00000000
01000000
00001000
00011000
00000000
00000000
00000000
00010000
00000000
00001100
00000000
00000000
00000000
00000100
00000000
,
00000110
00000000
00000000
00000011
00000000
00000000
00000001
00000000
00001100
00000000
00001000
00000000
00001010
00000000
00000000
00000000
00000000
00000000
00000010
00000000
00010010
00000000
00010010
00000000
,
00010100
00000000
00011000
00000000
00001000
00100000
01000000
00000000
00100000
00000000
00010000
01000000
01100000
00000000
00000000
00000000
10100000
00000000
01010000
00000000
00000000
00000000
00010000
00000000
,
00110000
00000000
00000000
00101000
00000000
00000000
00010000
00000000
00000010
00000000
00000100
00000000
00001001
00000000
00000000
00000000
00000000
00000000
00001000
00001000
00001000
00000010
00000010
00000010
,
00000200
00000310
00002000
00003100
,
00000020
00000031
00000200
00000310
,
00000100
00000010
00001000
00001010
,
00001100
00001100
00010100
00001100
,
00012000
00000000
00010000
00000000
,
01000000
00000000
00103000
00000000
,
00010000
00100000
01000000
10000000
,
00010000
10100000
00000000
10010000
,
10000000
01000000
10000000
00100000
01000000
00010000
00100000
00001000
,
00010000
00000100
00001000
00000010
00000100
00000001
00000010
00000100
,
00000010
00000001
00001000
00000010
00001000
00000100
00010000
00001000
,
00100000
01000000
00100000
00001000
00010000
00000100
00001000
00000010
,
00001000
00000100
00010000
00001000
00100000
01000000
00100000
00001000
,
00010000
00000100
00001000
00000010
00000100
00000001
00000010
00000100
,
00000110
00000110
00001100
00001100
,
00000100
00010000
00001000
00100000
00001000
00010000
00000100
00010000
,
00001000
00100000
02000000
00000000
23000000
00000000
30100000
01000000
,
00010000
00000000
00100000
00010000
00000000
10000000
01000000
00000000
,
10000000
00100000
02000000
00000000
03020000
00000000
00130000
00001000
,
00010000
00000000
00000100
00001000
00000000
00001000
00000010
00000000
,
00000100
00000001
00000020
00000000
00000230
00000000
00000310
00000001
,
00001000
00000000
00000010
00001000
00000000
00001000
00000001
00000000
,
00001000
00000100
00000020
00000000
00000230
00000000
00000310
00000001
,
00000100
00000000
00000010
00001000
00000100
00010000
00001000
00100000
,
01000000
00100000
00020000
00000000
02030000
00000000
03100000
10000000
,
00010000
00000000
00100000
00001000
00000000
00100000
00010000
00000000
,
01000000
10000000
00200000
00000000
02300000
00000000
03010000
00100000
,
00001000
00000000
00010000
00000100
00000000
00001000
00000010
00000000
,
00000100
00000001
00000020
00000000
00000230
00000000
00000310
00000001
,
00000100
00000000
00000010
00001000
00000000
00000100
00010000
00000000
,
00011000
00000000
00000000
MMMMMMMM
00000000
00000000
00110000
00000000
00000000
MMMMMMMM
00000000
00000000
00011000
00000000
00000000
00000000
,
00010000
00000000
00000100
00001000
00000000
00000010
00000100
00000000
,
00000001
00000100
00000010
00001000
00000100
00010000
MMM11MMM
00000000
,
00000000
00000000
00001000
00100000
00010000
00000000
00100000
00000000
,
11000000
00000000
10000000
00100000
01000000
00000000
00010000
00000000
,
00100000
00001000
00010000
00000000
00010000
00001000
00100000
00000000
,
00010000
01000000
00100000
10000000
00010000
00100000
MM1M1MMM
00000000
,
00000000
00000000
00100000
00001000
00010000
00000000
00000100
00000000
,
00001000
00000000
00001000
00000000
00000010
00000000
00000100
00000000
00000000
00000000
00000010
00000000
,
00000100
00000000
00000100
00000000
00000001
00000000
00001000
00000000
00000000
00000000
00000000
00000000
,
00000001
00000100
00000010
00001000
00000100
00000010
MMMMMMM1
00000010
,
MMMMMM11
00000000
00000001
00000010
00000100
00000000
00000010
00000000
,
00000100
00000000
00001000
00000010
00010000
00000000
00010000
00000000
,
00001000
00100000
00010000
00000000
00001000
00010000
00000100
00001000
,
00000010
00000100
00000010
00001000
00000100
00010000
MMM11MMM
00000000
,
00000000
00000000
00100000
00010000
00100000
00000000
00010000
00000000
,
10000000
01000000
0001MMMM
00000000
00001000
00100000
0001MMMM
00000000
,
00000100
00001000
MMMM0010
00000000
00000100
00000000
MMMM0010
0MMMM100
,
MMMM2002
00000000
00000000
00000000
,
00000000
00000000
00000000
00000000
,
00000000
00000000
00000000
00000000
,
00000000
00000000
00000000
00000000
,
00003003
00000000
00000000
00000000
;

//---------------dance-single - ----------------
#NOTEDATA:;
#CHARTNAME:;
#STEPSTYPE:dance-single;
#DESCRIPTION:;
#CHARTSTYLE:;
#DIFFICULTY:Medium;
#METER:9;
#RADARVALUES:0.604963,1.344189,0.145712,0.182139,0.136605,465.000000,449.000000,16.000000,20.000000,0.000000,0.000000,0.000000,0.000000,0.000000,0.604963,1.344189,0.145712,0.182139,0.136605,465.000000,449.000000,16.000000,20.000000,0.000000,0.000000,0.000000,0.000000,0.000000;
#CREDIT:;
#NOTES:
0000
0000
0000
0000
,
0000
0000
0000
0000
,
0000
0000
0000
0000
,
0000
0000
0000
0000
,
0000
0000
0000
0000
,
0000
0000
0000
0000
,
0000
0000
0000
0000
,
0000
0000
0000
0000
,
0000
0000
0001
0100
0000
0000
0010
0000
,
1001
0000
0110
0000
,
0000
0000
0010
1000
0000
0000
0001
0000
,
0010
0100
0010
0000
,
0000
0000
0100
0010
0000
0000
0001
0000
,
1001
0000
0110
0000
,
0001
0100
0010
0000
,
0100
0010
1000
0001
,
1000
0001
0010
0001
,
0100
0000
0001
0100
0000
0001
1000
0000
,
0100
1000
0010
0100
,
0001
0000
0010
0100
0000
0100
1000
0000
,
0100
1000
0010
0100
,
0001
0000
0010
0001
0000
0010
0100
0000
,
0010
0001
1000
0010
,
0100
0000
0001
1000
0100
1000
0100
1000
,
0100
1000
0010
0100
,
0001
0000
0010
0100
0000
0010
0001
0000
,
0010
0001
1000
0010
,
0100
0000
0001
0100
0000
0100
0001
0000
,
0100
0010
1000
0010
,
0100
0000
0010
0100
0000
0010
1000
0000
,
0001
0000
0000
0001
0000
0000
0001
0000
,
1000
0000
0001
0010
0000
0100
1000
0000
,
0010
0100
0001
2000
,
0100
0000
0100
0000
,
3001
0000
1000
0000
,
0010
0000
0100
0010
,
2000
0000
3020
0000
,
0230
0000
0302
0000
,
0013
0000
0100
0000
,
0010
0000
0100
1000
,
0001
0100
1000
0100
,
0001
0010
1000
0010
,
0100
0010
0001
0100
,
1000
0100
0010
1000
,
0001
0010
1000
0010
,
0001
0100
0010
1000
,
0001
0010
1000
0001
,
0100
1000
0100
0010
,
0000
0000
0100
0001
0000
0000
0010
0000
,
0110
0000
0110
0000
,
0000
0000
0010
0100
0000
0000
1000
0000
,
0001
0100
0001
0100
0001
0000
0000
0000
,
0000
0000
1000
0010
0000
0000
0100
0000
,
0101
0000
0011
0000
,
0000
0000
0001
0010
0000
0000
0100
0000
,
0100
0010
0100
0010
0100
0010
0100
0000
,
0000
0000
0100
1000
0000
0000
0001
0000
,
1001
0000
1010
0000
,
0000
0000
1000
0010
0000
0000
0100
0000
,
0001
1000
0001
1000
0001
0000
0000
0000
,
0000
0000
1000
0100
0000
0000
0010
0000
,
0110
0000
0011
0000
,
0000
0000
0001
0100
0000
0000
0010
0000
,
1000
0000
0010
0000
0100
0000
0001
0000
0010
0000
0100
0000
,
2000
0000
0000
0000
,
0000
0000
0000
0000
,
0000
0000
0000
3000
,
0010
0000
0100
0000
0010
0100
0010
0000
0100
0000
0010
0100
0001
0000
0000
0000
0100
0000
0010
0000
0000
0000
1000
0000
,
0010
0000
0000
0100
0000
0000
0001
0000
0010
0000
0100
0000
1000
0000
0000
0000
0000
0000
0100
0000
0010
0000
0010
0000
,
0100
0000
0010
0000
0001
0010
0100
0000
0010
0000
0010
0001
0100
0000
0000
0000
0010
0000
0100
0000
0000
0000
0010
0000
,
1000
0000
0000
1000
0000
0000
0001
0000
0010
0000
0100
0000
0010
0000
0000
0000
0000
0000
0110
0000
0000
1001
0000
0000
,
0120
0000
2030
0000
,
3200
0000
0320
0000
,
0130
0000
0010
0001
,
0100
0100
0001
1000
,
0200
0000
2300
0000
,
3020
0000
0230
0000
,
0310
0000
1000
0000
,
0001
1000
0000
1000
,
0010
0100
0001
0010
,
1000
0010
0001
0100
,
1000
0100
0010
1000
,
0001
0010
0100
1000
,
0001
0010
1000
0001
,
0100
1000
0100
0001
,
2000
3010
0200
0301
,
0020
0130
2000
3001
,
1000
0010
0100
0001
,
0010
0000
0100
0010
0000
0100
1000
0000
,
0100
1000
0001
0100
,
0010
0000
1000
0010
0000
0010
0100
0000
,
0010
0100
0001
1000
,
0001
0000
0010
0100
0000
0010
0001
0000
,
0010
0001
0100
0010
,
1000
0000
0001
1000
0010
0100
0010
0100
,
0010
1000
0001
0010
,
0100
0000
0010
0100
0000
0010
0001
0000
,
0010
0001
0100
0010
,
1000
0000
0001
0100
0000
0100
0010
0000
,
0100
0010
1000
0001
,
0010
0000
0100
0010
0000
0100
1000
0000
,
1002
0000
0000
0010
0000
0000
0013
0000
,
0001
0000
0010
0100
0000
0100
1000
0000
,
0010
0100
0010
0100
0010
0100
0010
0000
,
0000
0100
0100
0010
,
1000
0001
0010
0100
,
0010
0001
1000
0001
,
1000
0010
1000
0010
1000
0010
0100
0000
,
0000
0010
1000
0001
,
1000
0000
0010
0000
0100
0000
0001
0000
0000
0000
0000
0000
,
0001
0000
0100
0000
0010
0000
1000
0000
0000
0000
0000
0000
,
0001
0100
0001
0100
0001
0100
0010
1000
,
0010
0100
0100
0010
,
1000
0001
0010
0001
,
0100
1000
0100
0001
,
1000
0001
1000
0001
1000
0001
0010
0000
,
0000
0100
0100
0010
,
0001
0100
0001
0000
0100
0010
0100
0000
,
0010
1000
0010
0000
1000
0000
0001
1000
,
0020
0000
0000
0000
,
0000
0000
0000
0000
,
0000
0000
0000
0000
,
0000
0000
0000
0000
,
0030
0000
0000
0000
;

//---------------dance-single - ----------------
#NOTEDATA:;
#CHARTNAME:;
#STEPSTYPE:dance-single;
#DESCRIPTION:;
#CHARTSTYLE:;
#DIFFICULTY:Easy;
#METER:6;
#RADARVALUES:0.392901,0.650238,0.264102,0.236781,0.031874,302.000000,273.000000,29.000000,26.000000,0.000000,0.000000,0.000000,0.000000,0.000000,0.392901,0.650238,0.264102,0.236781,0.031874,302.000000,273.000000,29.000000,26.000000,0.000000,0.000000,0.000000,0.000000,0.000000;
#CREDIT:;
#NOTES:
0000
0000
0000
0000
,
0000
0000
0000
0000
,
0000
0000
0000
0000
,
0000
0000
0000
0000
,
0000
0000
0000
0000
,
0000
0000
0000
0000
,
0000
0000
0000
0000
,
0000
0000
0000
0000
,
1000
0000
0001
0000
,
0011
0000
1100
0000
,
0000
0000
0100
0000
,
0010
0001
1000
0000
,
0000
0000
0001
0000
,
1010
0000
1100
0000
,
1000
0001
1000
0000
,
0001
0100
0010
1000
,
0010
1000
0100
0000
,
0010
0000
0000
0100
0000
0000
0010
0000
,
0001
0100
0010
0000
,
0100
0000
0000
0001
0000
0000
1000
0000
,
0100
1000
0010
0000
,
0100
0000
0000
0010
0000
0000
0100
0000
,
0010
1000
0001
0000
,
1000
0000
0000
0001
0000
0000
0010
0000
,
0100
1000
0010
0000
,
0100
0000
0000
0010
0000
0000
1000
0000
,
0100
1000
0001
0000
,
0100
0000
0000
0010
0000
0000
0100
0000
,
0001
0010
0100
0000
,
0010
0000
0000
0001
0000
0000
1000
0000
,
0001
0000
0000
0100
0000
0000
1000
0000
,
0100
0000
0000
0010
0000
0000
1000
0000
,
0001
0010
0100
2000
,
0000
0000
0000
0000
,
3000
0000
0000
0000
,
0000
0000
0000
0000
,
0200
0000
2300
0000
,
3020
0000
0230
0000
,
0301
0000
0000
0000
,
0000
0000
0000
0000
,
1000
0001
1000
0000
,
0001
0100
0001
0000
,
0100
0010
0100
0000
,
0010
1000
0010
0000
,
1000
0010
0100
0000
,
0010
1000
0001
0000
,
0020
0000
0230
0000
,
2300
0000
3002
0000
,
0003
1000
0001
0010
,
0100
0000
0110
0000
,
0000
0100
0010
0001
,
1000
1000
1000
0000
,
0000
0001
0100
0010
,
1010
0000
0101
0000
,
0000
0001
0010
0001
,
1000
1000
1000
1000
,
0000
0001
1000
0010
,
0110
0000
1010
0000
,
0000
1000
0010
0100
,
0001
0001
0001
0000
,
0000
0010
0100
1000
,
1100
0000
0011
0000
,
0000
0001
0100
0010
,
1001
0000
0110
0000
,
2002
0000
0000
0000
,
0000
0000
0000
0000
,
0000
0000
3003
0000
,
1000
0000
0010
0000
0100
0000
0001
0000
0000
0010
0000
0000
,
0001
0000
0000
0000
1000
0000
0001
0000
0000
0000
0100
0000
,
0010
0000
1000
0000
0010
0000
0100
0000
0000
0010
0000
0000
,
0100
0000
0000
0000
0000
0000
0000
0000
0010
0000
0000
0000
1000
0000
0000
0000
0000
0000
0001
0000
0000
1000
0000
0000
,
2010
3000
0201
0000
,
0302
0000
2003
0000
,
3000
0000
0000
0001
,
1000
1000
0001
1000
,
0020
0000
0230
0000
,
0320
0000
2030
0000
,
0002
0000
0000
3003
,
0000
1100
0000
1001
,
1000
0010
1000
0010
,
0100
0010
0100
0010
,
0100
0001
0100
0010
,
1000
0001
0100
0010
,
1000
0001
1000
0001
,
0010
0001
0010
0001
,
0020
0000
0230
0000
,
2300
0000
3020
0000
,
0130
0010
1000
0000
,
0001
0000
0000
1000
0000
0000
0100
0000
,
1000
0010
0100
0000
,
0010
0000
0000
1000
0000
0000
0100
0000
,
0010
0001
0100
0000
,
0001
0000
0000
1000
0000
0000
0001
0000
,
0010
0001
0100
0000
,
0010
0000
0000
0100
0000
0000
0001
0000
,
1000
0001
0100
0000
,
0010
0000
0000
1000
0000
0000
0100
0000
,
0010
0100
1000
0000
,
0100
0000
0000
1000
0000
0000
0001
0000
,
0100
0010
1000
0000
,
0001
0000
0000
1000
0000
0000
0010
0000
,
2002
0000
0000
0000
,
0000
0000
3003
0000
,
0001
0100
0010
1010
,
0000
0000
0000
0000
,
0000
0000
0000
0000
,
0000
0000
0000
0000
,
1000
0100
0010
0011
,
0000
0000
0000
0000
,
0001
0000
0000
0000
,
0001
0000
0000
0000
,
0001
0100
0010
1010
,
1010
0000
0000
0000
,
0000
0000
0000
0000
,
0000
0000
0000
0000
,
0010
0100
0001
1001
,
0000
0000
0000
0000
,
0001
0011
0000
1100
,
0000
0011
0000
1100
,
0011
0000
0000
0000
;

//---------------dance-single - ----------------
#NOTEDATA:;
#CHARTNAME:;
#STEPSTYPE:dance-single;
#DESCRIPTION:;
#CHARTSTYLE:;
#DIFFICULTY:Beginner;
#METER:3;
#RADARVALUES:0.157420,0.379305,0.063749,0.000000,0.000000,121.000000,114.000000,7.000000,0.000000,0.000000,0.000000,0.000000,0.000000,0.000000,0.157420,0.379305,0.063749,0.000000,0.000000,121.000000,114.000000,7.000000,0.000000,0.000000,0.000000,0.000000,0.000000,0.000000;
#CREDIT:;
#NOTES:
0000
0000
0000
0000
,
0000
0000
0000
0000
,
0000
0000
0000
0000
,
0000
0000
0000
0000
,
0000
0000
0000
0000
,
0000
0000
0000
0000
,
0000
0000
0000
0000
,
0000
0000
0000
0000
,
0010
0000
0000
0000
,
0100
0000
0100
0000
,
0000
0000
0000
0000
,
0010
0000
0010
0000
,
0000
0000
0000
0000
,
1000
0000
1000
0000
,
0001
0000
0000
0000
,
1000
0000
0000
0000
,
0010
0000
0000
0000
,
0000
0000
0000
0000
,
0100
0000
0000
0000
,
0000
0000
0000
0000
,
0001
0000
0000
0000
,
0000
0000
0000
0000
,
1000
0000
0000
0000
,
0001
0000
0000
0000
,
0100
0000
0000
0000
,
0000
0000
0000
0000
,
0010
0000
0000
0000
,
0000
0000
0000
0000
,
1000
0000
0000
0000
,
0001
0000
0000
0000
,
0110
0000
0000
0000
,
0000
0000
0000
0000
,
0010
0000
0000
0000
,
0100
0000
0000
0000
,
0000
0000
0000
0000
,
0000
0000
0000
0000
,
0001
0000
0000
0000
,
1000
0000
0000
0000
,
0001
0000
0000
0000
,
0000
0000
0000
0000
,
0100
0000
0000
0000
,
0010
0000
0000
0000
,
1000
0000
0000
0000
,
0001
0000
0000
0000
,
0010
0000
0000
0000
,
0001
0000
0000
0000
,
1000
0000
1000
0000
,
0001
0000
0001
0000
,
0000
0000
0100
0000
,
0010
0000
0010
0000
,
0000
0000
0100
0000
,
0001
0000
0001
0000
,
0000
0000
1000
0000
,
0100
0000
0100
0000
,
0000
0000
1000
0000
,
0010
0000
0010
0000
,
0000
0000
0100
0000
,
0010
0000
0010
0000
,
0000
0000
1000
0000
,
0001
0000
0001
0000
,
0000
0000
0010
0000
,
0100
0000
0100
0000
,
0000
0000
0010
0000
,
1001
0000
0110
0000
,
1001
0000
0000
0000
,
0000
0000
0000
0000
,
0000
0000
0000
0000
,
1000
0000
0001
0000
,
0100
0000
0010
0000
,
0100
0000
0001
0000
,
1000
0000
0100
0010
,
1001
0000
0001
0000
,
0000
0000
0000
0000
,
0000
0000
0000
0000
,
1000
0000
0001
0000
,
0100
0000
0100
0000
,
0010
0000
0010
0000
,
1000
0000
0000
0000
,
0000
0001
0000
0001
,
1000
0000
0000
0000
,
0001
0000
0000
0000
,
0100
0000
0000
0000
,
0010
0000
0000
0000
,
1000
0000
0000
0000
,
0010
0000
0000
0000
,
0100
0000
0010
0000
,
1000
0000
0001
0000
,
1000
0000
0000
0000
,
0000
0000
0000
0000
,
0010
0000
0000
0000
,
0000
0000
0000
0000
,
0100
0000
0000
0000
,
0000
0000
0000
0000
,
0001
0000
0000
0000
,
1000
0000
0000
0000
,
0010
0000
0000
0000
,
0000
0000
0000
0000
,
0100
0000
0000
0000
,
0000
0000
0000
0000
,
0010
0000
0000
0000
,
1000
0000
0000
0000
,
1001
0000
0000
0000
,
0000
0000
0000
0000
,
0001
0000
0000
1000
,
0000
0000
0000
0000
,
0000
0000
0000
0000
,
0000
0000
0000
0000
,
0010
0000
0000
0100
,
0000
0000
0000
0000
,
0010
0000
0000
0000
,
0010
0000
0000
0000
,
0100
0000
0000
0001
,
0000
0000
0000
0000
,
0000
0000
0000
0000
,
0000
0000
0000
0000
,
1000
0000
0000
0010
,
0000
0000
0000
0000
,
0000
0100
0000
0100
,
0000
0100
0000
0100
,
1001
0000
0000
0000
;
