#VERSION:0.83;
#TITLE:Electrorgasm;
#SUBTITLE:;
#ARTIST:Sota Fujimori;
#TITLETRANSLIT:;
#SUBTITLETRANSLIT:;
#ARTISTTRANSLIT:;
#GENRE:;
#ORIGIN:;
#CREDIT:;
#BANNER:;
#BACKGROUND:;
#PREVIEWVID:;
#JACKET:;
#CDIMAGE:;
#DISCIMAGE:;
#LYRICSPATH:;
#CDTITLE:;
#MUSIC:Electrorgasm.ogg;
#OFFSET:-0.100000;
#SAMPLESTART:28.544445;
#SAMPLELENGTH:14.222221;
#SELECTABLE:YES;
#BPMS:0.000=135.000;
#STOPS:;
#DELAYS:;
#WARPS:;
#TIMESIGNATURES:0.000=4=4;
#TICKCOUNTS:0.000=4;
#COMBOS:0.000=1;
#SPEEDS:0.000=1.000=0.000=0;
#SCROLLS:0.000=1.000;
#FAKES:;
#LABELS:0.000=Song Start;
#BGCHANGES:;
#KEYSOUNDS:;
#ATTACKS:
;

//---------------dance-single - ----------------
#NOTEDATA:;
#CHARTNAME:;
#STEPSTYPE:dance-single;
#DESCRIPTION:;
#CHARTSTYLE:;
#DIFFICULTY:Hard;
#METER:7;
#RADARVALUES:0.370771,0.515183,0.152670,0.305341,0.152670,306.000000,288.000000,18.000000,36.000000,0.000000,0.000000,0.000000,0.000000,0.000000,0.370771,0.515183,0.152670,0.305341,0.152670,306.000000,288.000000,18.000000,36.000000,0.000000,0.000000,0.000000,0.000000,0.000000;
#CREDIT:;
#NOTES:
0000
0000
0000
0000
,
0000
0000
0000
0000
,
0000
0000
0000
0000
,
0000
0000
0000
0000
,
0001
0000
0000
0010
0000
0000
0100
0000
0000
0000
0010
0000
0001
0000
0100
0000
,
0000
0000
0010
0000
1000
0000
0000
0100
0000
0000
1000
0000
0001
0000
0000
0100
,
0000
0010
0000
0010
0000
0000
0100
0000
0010
0000
1000
0000
0001
0000
0001
0000
,
0010
1000
0010
0001
0100
0010
1001
0000
,
0101
0000
0000
0000
0001
0000
1000
0000
0100
0000
0000
0100
0000
0000
0100
0000
,
0000
0000
0010
0000
0100
0000
1000
0000
0001
0000
0000
1000
0000
0000
0010
0000
,
0100
0000
0000
0000
0010
0000
1000
0000
0001
0000
0000
0001
0000
0000
0001
0000
,
0000
0000
0010
0000
0001
0000
1000
0000
0100
0000
0000
1000
0000
0000
0000
0000
,
0001
0000
0000
0000
1000
0000
0001
0000
0100
0000
0000
0100
0000
0000
0100
0000
,
0000
0000
0010
0000
1000
0000
0100
0000
0010
0000
0000
0100
0000
0000
1000
0000
,
0001
0000
0000
0000
1000
0000
0001
0000
0010
0000
0000
0010
0000
0000
0010
0000
,
0000
0000
0001
0000
0100
0000
1000
0000
0100
0000
0000
0010
0000
0000
0000
0000
,
1001
0000
0000
0000
1000
0000
0001
0000
0010
0000
0000
0010
0000
0000
0100
0000
,
0000
0000
0010
0000
0001
0000
1000
0000
0010
0000
0000
0100
0000
0000
0001
0000
,
1000
0000
0000
0000
0100
0000
1000
0000
0010
0000
0000
0010
0000
0000
0100
0000
,
0000
0000
0010
0000
1000
0000
0001
0000
1000
0000
0000
1000
0000
0000
0000
0000
,
2002
0000
0000
0000
3003
0000
0000
0000
0001
0000
0000
0100
0000
0010
0000
0000
,
2002
0000
0000
0000
3003
0000
0000
0000
1000
0000
0000
0100
0000
0010
0000
0000
,
1001
0000
0000
0000
0001
0000
1000
0000
0010
0000
0000
0010
0000
0000
0100
0000
,
0000
0000
0010
0000
1000
0000
0100
0000
0001
0000
0000
0100
0000
0000
0000
0000
,
1000
0001
0100
0001
,
0010
0100
0010
0001
,
1000
0001
0100
0001
,
0010
0001
1000
0001
,
1000
0100
0001
0100
1000
0010
1000
0000
,
1000
0010
0001
0010
1000
0001
0100
0000
,
0001
0100
1000
0100
0001
0010
1000
0010
,
0001
0000
0000
0100
0000
0000
1000
0000
0000
0100
0000
0000
0010
0000
0000
1000
0000
0000
0001
0000
1000
0000
0010
0000
,
2000
0000
0000
0000
,
0000
0000
0000
0000
0000
0000
0000
3000
,
0002
0000
0000
0000
,
0000
0000
0000
0000
0000
0000
0000
0003
,
0100
0000
0100
0000
0000
0100
0000
0000
,
0100
0000
0010
0000
0100
0010
0000
0100
0000
0000
0100
0000
0000
0000
0000
0000
,
0010
0000
0010
0000
0000
0010
0000
0000
,
0020
0000
0000
0000
0000
0130
0010
0000
,
1002
0000
0203
0000
0302
0000
0013
0200
,
0000
0000
0000
2000
0000
0000
3300
0000
,
2001
0000
0010
0000
3002
0000
0013
0200
,
0000
0000
0000
0020
0000
0000
0330
0000
,
2100
0000
0010
0000
3002
0000
0103
0020
,
0000
0000
0000
0200
0000
0000
0330
0000
,
0210
0000
0302
0000
0023
0000
0130
2000
,
0000
0000
0000
3000
,
0102
0000
0010
0000
0100
0000
0013
0002
,
0000
0000
0000
2000
0000
0000
3003
0000
,
2010
0000
0100
0000
0010
0000
3001
0200
,
0000
0000
0000
0020
0000
0000
0330
0000
,
1002
0000
0100
0000
1000
0000
0103
0020
,
0000
0000
0000
2000
0000
0000
3030
0000
,
2100
0000
0010
0000
0100
0000
3001
1000
,
0010
0010
0010
0000
2002
0000
3003
0000
,
0001
0100
0010
1000
0001
0010
0100
0010
,
0001
1000
0100
0010
0100
1000
0001
0100
,
0001
0100
1000
0100
0001
0010
1000
0010
,
0001
0010
1000
0010
0001
0100
1000
0100
,
0010
0000
0000
1000
0000
0000
0001
0000
0000
0000
0010
0000
0001
0000
0000
1000
,
0000
0000
0001
0000
1000
0000
0000
0000
0010
0000
1000
0100
0000
0100
0010
0000
,
0000
0100
0000
1000
0000
0000
0001
0000
1000
0000
0000
0010
0000
0000
1000
0000
,
0001
0000
0010
0000
1001
0000
1001
0000
1001
0000
0000
0000
0010
0100
0010
0100
;

//---------------dance-single - ----------------
#NOTEDATA:;
#CHARTNAME:;
#STEPSTYPE:dance-single;
#DESCRIPTION:;
#CHARTSTYLE:;
#DIFFICULTY:Challenge;
#METER:9;
#RADARVALUES:0.547675,0.623643,0.178116,0.720944,0.496179,452.000000,431.000000,21.000000,85.000000,0.000000,0.000000,0.000000,0.000000,0.000000,0.547675,0.623643,0.178116,0.720944,0.496179,452.000000,431.000000,21.000000,85.000000,0.000000,0.000000,0.000000,0.000000,0.000000;
#CREDIT:;
#NOTES:
0000
0000
0000
0000
,
0000
0000
0000
0000
,
0000
0000
0000
0000
,
0000
0000
0000
0000
,
0001
0100
0000
0001
0000
0000
1000
0100
0000
0010
0100
1000
0001
0000
0100
0010
,
0000
0000
0100
0000
0010
0000
0000
1000
0000
0001
0010
0000
0100
0010
0000
0001
,
0000
1000
0000
0001
0000
0000
0100
0010
0000
0000
1000
0001
0010
0000
0001
0000
,
0100
0000
0010
0100
0010
0100
0010
1000
0001
0010
0100
1000
0002
0003
0000
0000
,
1001
0000
0000
0000
0001
0000
0100
0010
1000
0000
0000
1000
0000
0000
1000
0000
,
0000
0000
0100
0000
1000
0000
0001
0000
0100
0000
0000
0001
0000
0000
0010
0000
,
0100
0000
0000
0000
0010
0000
0001
0010
0001
0000
0000
1000
0000
0000
1000
0000
,
0000
0000
0001
0000
0010
0000
0001
0000
0100
0000
0000
0001
0000
0000
0000
0000
,
1000
0000
0000
0000
0001
0000
0010
0100
0010
0000
0000
0001
0000
0000
1000
0000
,
0000
0000
0001
0000
0010
0000
0001
0000
1000
0000
0000
0010
0000
0000
0100
0000
,
0010
0000
0000
0000
0100
0000
0010
0100
0010
0000
0000
1000
0000
0000
0100
0000
,
0000
0000
0000
0000
0000
0000
0010
0000
0000
0000
0000
0000
0001
0000
0000
0000
0000
0000
1000
0000
0000
0000
0000
0000
0010
0000
0000
0000
0000
0000
0100
0000
0000
0000
0000
0000
0001
0000
1000
0000
0001
0000
1000
0000
0000
0001
0000
0000
,
1000
0000
0000
0000
0010
0000
0100
0001
0010
0000
0000
0010
0000
0000
0001
0000
,
0000
0000
1000
0000
0001
0000
0010
0000
0100
0000
0000
0010
0000
0000
0001
0000
,
0100
0000
0000
0000
1000
0000
0100
0010
1000
0000
0000
0010
0000
0000
0100
0000
,
0001
0010
0001
0010
0001
0000
1000
0000
0100
0000
0000
0100
0000
0000
0010
0000
,
2002
0000
0000
0000
3003
0000
0000
0000
0101
0000
0000
1010
0000
0011
0000
0000
,
2002
0000
0000
0000
3003
0000
0000
0000
0011
0000
0000
1100
0000
0101
0000
0000
,
1001
0000
0000
0000
1000
0000
0010
0100
0001
0000
0000
0010
0000
0000
0100
0000
,
0010
0001
0010
0001
1000
0000
0001
0000
0100
0000
0010
1000
0000
0000
0000
0000
,
0001
0000
1000
0010
1000
0000
0001
0000
0010
0001
0010
0001
0010
0000
0100
0000
,
0010
0001
0010
0000
0001
0000
0100
0010
0100
0010
0100
0000
0010
0000
1000
0000
,
0100
1000
0000
0100
0010
0000
0010
0001
0000
0001
0100
0000
0010
0000
1000
0000
,
0001
1000
0000
0010
0100
0000
0100
0010
0000
0010
1000
0000
0001
0000
1000
0000
,
0200
2300
3020
0230
0302
0023
2030
3020
,
0032
0203
0320
2030
3200
0302
0203
2300
,
3200
0320
0032
0023
0032
0203
0320
2030
,
3002
0000
0000
0023
0000
0000
0230
0000
0000
0320
0000
0000
0032
0000
0000
0203
0000
0000
0310
0000
0010
0000
0010
0000
,
1001
0000
1000
0000
0001
0000
0000
0010
0000
0010
0000
0100
0000
0100
0000
1000
,
0000
1000
0000
0001
0000
1000
0000
0010
0000
1000
0000
0001
1000
0000
0010
0000
,
1000
0000
1000
0000
0100
0000
0000
1000
0000
1000
0000
0100
0000
0100
0000
0010
,
0000
0010
0000
0100
0000
0010
0000
0001
0000
0100
0000
0010
1000
0000
0001
0000
,
1010
0000
0000
0000
1010
0000
0000
0000
0000
0100
0001
0000
0000
0000
0000
0000
,
0001
1000
0001
1000
0001
0100
0000
0010
0000
0000
1100
0000
0000
0000
0001
1000
,
0001
0000
0011
0000
0000
1001
0000
0000
,
1000
0010
0100
0001
0010
0100
0010
0001
2000
0000
3020
0000
0200
0000
0330
0000
,
0001
1000
0010
1000
0100
0001
0100
0020
,
0000
0000
0000
0002
0000
0000
0033
0000
,
0001
0010
0001
1000
0100
0001
0100
0020
,
0000
0000
0000
0200
0000
0000
0330
0000
,
0100
1000
0010
0001
0010
1000
0010
0200
,
0000
0000
0000
0002
0000
0000
0303
0000
,
0001
0010
0100
0010
0001
1000
0010
0200
,
0000
0000
0000
0000
0010
0010
0310
0000
,
1001
1000
0010
0001
0010
0100
0001
0020
,
0000
0000
0000
0200
0000
0000
0330
0000
,
0100
0001
0100
1000
0010
0100
0001
2000
,
0000
0000
0000
0200
0000
0000
3300
0000
,
1000
0100
0001
0100
0010
0001
1000
0020
,
0000
0000
0000
0200
0000
0000
0330
0000
,
0100
1000
0100
0001
0010
0100
0010
0001
,
1000
0001
1000
0001
1000
0000
0000
0000
0202
0000
0000
0000
0303
0000
0000
0000
,
2000
3200
0320
0230
2300
3020
0032
0023
,
0230
0302
2003
3002
0023
2030
3020
0032
,
0203
0302
2003
3020
2030
3200
0320
0230
,
2300
3002
0203
2300
3200
0320
2030
3200
,
0310
0001
0000
0100
0000
0000
0010
1000
0000
0000
0001
1000
0001
0000
0100
0010
,
0000
0000
0100
0000
0001
0000
0000
0010
0000
0100
0010
0001
0000
0001
1000
0000
,
0000
0010
0000
0100
0000
0000
0010
1000
0000
0000
1000
0100
0010
0001
1000
0001
,
1000
0000
0001
0000
0101
0000
1010
0000
0101
0000
0100
0000
0001
1000
0010
0001
;

//---------------dance-single - ----------------
#NOTEDATA:;
#CHARTNAME:;
#STEPSTYPE:dance-single;
#DESCRIPTION:;
#CHARTSTYLE:;
#DIFFICULTY:Beginner;
#METER:1;
#RADARVALUES:0.083605,0.162212,0.033927,0.000000,0.000000,69.000000,65.000000,4.000000,0.000000,0.000000,0.000000,0.000000,0.000000,0.000000,0.083605,0.162212,0.033927,0.000000,0.000000,69.000000,65.000000,4.000000,0.000000,0.000000,0.000000,0.000000,0.000000,0.000000;
#CREDIT:;
#NOTES:
0000
0000
0000
0000
,
0000
0000
0000
0000
,
0000
0000
0000
0000
,
0000
0000
0000
0000
,
0010
0000
0000
0000
,
0100
0000
0000
0000
,
0001
0000
0000
0000
,
1000
0000
0000
0010
,
0100
0000
0000
0000
,
0010
0000
0000
0000
,
1000
0000
0000
0000
,
0001
0000
0000
0000
,
0010
0000
0000
0000
,
0001
0000
0000
0000
,
0100
0000
0000
0000
,
0010
0000
0000
0000
,
1000
0000
0000
0000
,
0001
0000
0000
0000
,
0100
0000
0000
0000
,
0010
0000
0100
0000
,
1001
0000
0000
0000
,
1001
0000
0000
0000
,
0010
0000
0000
0000
,
0100
0000
0000
0000
,
0001
0000
0000
0000
,
1000
0000
0000
0000
,
0010
0000
0000
0000
,
0010
0000
0000
0000
,
0100
0000
0000
0000
,
0001
0000
0000
0000
,
1000
0000
0000
0000
,
0010
0000
0000
1000
,
1001
0000
0000
0000
,
0000
0000
0000
0000
,
0000
0000
0000
0000
,
0000
0000
0000
0000
,
0010
0010
0000
0000
,
0010
0000
0000
0000
,
0100
0100
0000
0000
,
0100
0000
0000
0000
,
0001
0000
0000
0000
,
1000
0000
0000
0000
,
0010
0000
0000
0000
,
0100
0000
0000
0000
,
0001
0000
0000
0000
,
0010
0000
0000
0000
,
0001
0000
0000
0000
,
1000
0000
0000
0000
,
0100
0000
0000
0000
,
1000
0000
0000
0000
,
0010
0000
0000
0000
,
0100
0000
0000
0000
,
0001
0000
0000
0000
,
0010
0000
0000
0000
,
0001
0000
0000
0000
,
1000
1000
0010
0000
,
0100
0000
0000
0000
,
0010
0000
0000
0000
,
1000
0000
0000
0000
,
0100
0000
0000
0000
,
1000
0000
0000
0000
,
0001
0000
0000
0000
,
0100
0000
0000
0000
,
0010
0000
0000
1001
;

//---------------dance-single - ----------------
#NOTEDATA:;
#CHARTNAME:;
#STEPSTYPE:dance-single;
#DESCRIPTION:;
#CHARTSTYLE:;
#DIFFICULTY:Medium;
#METER:5;
#RADARVALUES:0.306553,0.379238,0.135707,0.364713,0.004241,253.000000,237.000000,16.000000,43.000000,0.000000,0.000000,0.000000,0.000000,0.000000,0.306553,0.379238,0.135707,0.364713,0.004241,253.000000,237.000000,16.000000,43.000000,0.000000,0.000000,0.000000,0.000000,0.000000;
#CREDIT:;
#NOTES:
0000
0000
0000
0000
,
0000
0000
0000
0000
,
0000
0000
0000
0000
,
0000
0000
0000
0000
,
1000
0001
1100
0001
,
0100
0010
0010
1000
,
0001
0010
1001
0001
,
0100
0000
0010
0000
1000
0010
0101
0000
,
0001
0000
1000
0100
1000
0000
0100
0000
,
1000
0000
0010
0100
0010
0000
1000
0000
,
0001
0000
0010
0100
0010
0000
0001
0000
,
1000
0000
0001
0100
1000
0000
0100
0000
,
0010
0000
1000
0010
0001
0000
0010
0000
,
1000
0000
0100
0010
0100
0000
0010
0000
,
0001
0000
1000
0001
0100
0000
0001
0000
,
1000
0100
0010
0001
0010
0100
1000
0000
,
1001
0000
0001
0100
0010
0000
0100
0000
,
0010
0000
1000
0010
0100
0000
0010
0000
,
1000
0000
0001
0010
0100
0000
0010
0000
,
0001
0001
0001
0000
1000
0000
0001
0000
,
1001
0000
0001
0100
0010
0000
1000
0000
,
1001
0000
1000
0100
0010
0000
0001
0000
,
1001
0000
0001
1000
0010
0000
0100
0000
,
0010
0010
0010
0000
1000
0010
0100
0000
,
0010
1000
0010
0100
,
0001
0010
0100
0010
,
0001
1000
0010
1000
,
0100
1000
0010
0100
,
0002
0203
0320
1030
,
2000
3020
0230
0301
,
2000
3200
0320
0230
,
2300
3020
0230
0302
,
1003
0000
0000
0000
,
0000
0000
0000
0000
,
0000
0000
0000
0000
,
0000
0000
0000
0000
,
1001
0000
1001
0000
0000
1001
0000
0000
,
0001
0000
1000
0000
0010
0000
0000
0010
0000
0000
0010
0000
0000
0000
0000
0000
,
0110
0000
0110
0000
0000
0110
0000
0000
,
0100
0000
0010
0000
1000
0001
0010
0000
,
0100
0000
0010
0000
0001
0000
1000
0020
,
0000
0000
0000
0200
0000
0000
0330
0000
,
0100
0000
0010
0000
1000
0000
0001
0020
,
0000
0000
0000
0002
0000
0000
0033
0000
,
0001
0000
1000
0000
0010
0000
1000
0200
,
0000
0000
0000
0020
0000
0000
0330
0000
,
0100
0000
1000
0000
0010
0000
0100
0002
,
0000
0000
0000
0000
,
1003
0000
0001
0000
0010
0000
1000
0020
,
0000
0000
0000
0200
0000
0000
0330
0000
,
0100
0000
0010
0000
0001
0000
1000
0200
,
0000
0000
0000
2000
0000
0000
3300
0000
,
1000
0000
0010
0000
0001
0000
0010
0200
,
0000
0000
0000
0002
0000
0000
0303
0000
,
0001
0000
1000
0000
0010
0000
0100
0002
,
1000
1000
1000
0000
0020
0000
0033
0000
,
0002
0203
0320
0130
,
0020
2030
3200
0310
,
0200
2300
3020
0230
,
0302
2003
3002
0203
,
0310
1000
0010
0000
0100
0000
0101
0000
,
0001
0010
0100
0000
1000
0000
1100
0000
,
0100
1000
0010
0000
0100
0000
0101
0000
,
0001
0000
0100
0100
0100
0001
1000
1000
;

//---------------dance-single - ----------------
#NOTEDATA:;
#CHARTNAME:;
#STEPSTYPE:dance-single;
#DESCRIPTION:;
#CHARTSTYLE:;
#DIFFICULTY:Easy;
#METER:3;
#RADARVALUES:0.173269,0.270884,0.025445,0.110262,0.000000,143.000000,140.000000,3.000000,13.000000,0.000000,0.000000,0.000000,0.000000,0.000000,0.173269,0.270884,0.025445,0.110262,0.000000,143.000000,140.000000,3.000000,13.000000,0.000000,0.000000,0.000000,0.000000,0.000000;
#CREDIT:;
#NOTES:
0000
0000
0000
0000
,
0000
0000
0000
0000
,
0000
0000
0000
0000
,
0000
0000
0000
0000
,
1000
0000
0010
0000
,
0000
0000
0000
0000
,
0100
0000
0001
0000
,
0000
0000
0000
0100
,
0010
0000
1000
0000
,
0001
1000
0001
0000
,
0010
0000
0001
0000
,
1000
0100
1000
0000
,
0010
0000
0100
0000
,
0001
1000
0001
0000
,
0010
0000
0001
0000
,
0100
0010
1000
0001
,
0010
0000
0001
0000
,
1000
0100
0010
0000
,
0100
0000
1000
0000
,
0020
0030
0100
0000
,
1001
0000
0000
0000
,
1001
0000
0000
0000
,
0010
0000
0100
0000
,
0002
0003
1000
0000
,
0010
0000
0000
0000
,
0100
0000
0000
0000
,
0002
0000
0000
0003
,
2000
0000
0000
3000
,
0001
0100
0010
1000
,
0010
0100
0001
1000
,
0001
0010
0100
1000
,
0100
0010
0001
1000
,
0110
0000
0000
0000
,
0000
0000
0000
0000
,
0000
0000
0000
0000
,
0000
0000
0000
0000
,
1000
0000
0000
0000
,
0001
0000
0000
0000
,
0100
0000
0000
0000
,
0010
0000
0000
0000
,
1000
0001
0100
0010
,
2000
0000
0000
3000
,
0001
0010
0100
0010
,
0002
0000
0000
0003
,
1000
0001
0100
0001
,
0020
0000
0000
0030
,
0100
0010
0001
1000
,
0002
0000
0000
0003
,
1000
0001
0100
0010
,
2000
0000
0000
3000
,
0010
1000
0100
0010
,
0002
0000
0000
0003
,
0010
0001
1000
0100
,
0020
0000
0000
0030
,
0100
0010
0001
1000
,
0002
0000
2000
3003
,
1000
0001
0100
0001
,
0010
0001
1000
0100
,
1000
0010
0100
0001
,
0010
0100
0010
0001
,
1000
0001
0100
0010
,
1000
0010
0100
0001
,
1000
0100
0010
0001
,
0010
0000
0100
0000
1000
0000
0001
1000
;

//---------------dance-double - ----------------
#NOTEDATA:;
#CHARTNAME:;
#STEPSTYPE:dance-double;
#DESCRIPTION:;
#CHARTSTYLE:;
#DIFFICULTY:Challenge;
#METER:7;
#RADARVALUES:0.404698,0.542298,0.169634,0.398640,0.220524,334.000000,314.000000,20.000000,47.000000,0.000000,0.000000,0.000000,0.000000,0.000000,0.404698,0.542298,0.169634,0.398640,0.220524,334.000000,314.000000,20.000000,47.000000,0.000000,0.000000,0.000000,0.000000,0.000000;
#CREDIT:;
#NOTES:
// measure 0
00000000
00000000
00000000
00000000
,  // measure 1
00000000
00000000
00000000
00000000
,  // measure 2
00000000
00000000
00000000
00000000
,  // measure 3
00000000
00000000
00000000
00000000
,  // measure 4
10000000
00000000
00000000
00100000
00000000
00000000
01000000
00010000
00000000
00100000
01000000
00000000
00100000
00000000
00010000
00000000
,  // measure 5
00000000
00000000
10000000
00000000
00010000
00000000
00100000
00000000
00000000
00001000
00000000
00000100
00010000
00000000
00000000
00000010
,  // measure 6
00000000
00000100
00000000
00000100
00000000
00000000
00000010
00001000
00000000
00000000
00000001
00000000
00000010
00000000
00000100
00000000
,  // measure 7
00002000
00003200
00020300
00031000
,  // measure 8
01010000
00000000
00000000
00000000
00010000
00000000
10000000
00000000
01000000
00000000
00000000
01000000
00000000
00000000
01000000
00000000
,  // measure 9
00000000
00000000
00100000
00000000
01000000
00000000
10000000
00000000
00010000
00000000
00000000
00100000
00000000
00000000
00001000
00000000
,  // measure 10
00010000
00000000
00000000
00000000
00000100
00000000
00001000
00000000
00000010
00000000
00000000
00000010
00000000
00000000
00000100
00000000
,  // measure 11
00000000
00000000
00000001
00000000
00000010
00000000
00000001
00000000
00001000
00000000
00000000
00000100
00000000
00000000
00000000
00000000
,  // measure 12
00001000
00000000
00000000
00000000
00000100
00000000
00010000
00000000
00001000
00000000
00000000
01000000
00000000
00000000
00100000
00000000
,  // measure 13
00000000
00000000
01000000
00000000
00010000
00000000
00100000
00000000
00001000
00000000
00000000
00010000
00000000
00000000
00000100
00000000
,  // measure 14
00001000
00000000
00000000
00000000
00000010
00000000
00000100
00000000
00000001
00000000
00000000
00001000
00000000
00000000
00000100
00000000
,  // measure 15
00000010
00000001
00001000
00001000
00000001
00001000
00000110
00000000
,  // measure 16
00000010
00000000
00000000
00000000
00010000
00000000
00001000
00000000
00100000
00000000
00000000
00100000
00000000
00000000
00100000
00000000
,  // measure 17
00000000
00000000
00010000
00000000
00100000
00000000
00010000
00000000
01000000
00000000
00000000
00010000
00000000
00000000
10000000
00000000
,  // measure 18
01000000
00000000
00000000
00000000
00100000
00000000
00001000
00000000
00010000
00000000
00000000
00010000
00000000
00000000
00010000
00000000
,  // measure 19
00000010
00001000
00000010
00001000
00000010
00000000
00000100
00000000
00000001
00000000
00000000
00001000
00000000
00000000
00000000
00000000
,  // measure 20
00001100
00000000
00000000
00000000
00000000
00000000
00000000
00000000
00012000
00000000
00000000
00100000
00000000
00103000
00000000
00000000
,  // measure 21
00110000
00000000
00000000
00000000
00000000
00000000
00000000
00000000
20100000
00000000
00000000
00010000
00000000
30010000
00000000
00000000
,  // measure 22
00100000
00000000
00000000
00000000
00001000
00000000
00010000
00000000
00000100
00000000
00000000
00000100
00000000
00000000
00000100
00000000
,  // measure 23
00001000
00000010
00001000
00000010
00001000
00000000
00000010
00000000
00000001
00000000
00000010
00000000
00000100
00000000
00000000
00000000
,  // measure 24
00000010
00001000
00000100
00010000
,  // measure 25
00001000
00100000
01000000
10000000
,  // measure 26
00200000
00000000
10300000
00000000
01000000
00010000
00100000
00000000
,  // measure 27
00002000
00000000
00013000
00000000
00000100
00010000
00000100
00000000
,  // measure 28
00001000
00000010
00000001
00000010
00001000
00000100
00010000
00001000
,  // measure 29
00100000
10000000
00100000
00010000
01000000
00010000
00100000
00001000
,  // measure 30
00010000
00000100
00001000
00000010
00001000
00000100
00010000
00001000
,  // measure 31
00100000
00000000
00000000
10000000
00000000
00000000
00100000
00000000
00000000
00001000
00000000
00000000
00010000
00000000
00000000
00000100
00000000
00000000
00001000
00000000
00000010
00000000
00000100
00000000
,  // measure 32
00000001
00000000
00000000
00000000
,  // measure 33
00000000
00000000
00000000
00000000
,  // measure 34
00000000
00000000
00000000
00000000
,  // measure 35
00000000
00000000
00000000
00000000
,  // measure 36
00001010
00000000
00001010
00000000
00000000
00001100
00000000
00000000
,  // measure 37
00000100
00000000
00010000
00000000
00001000
01000000
00000000
01000000
00000000
00000000
01100000
00000000
00000000
00000000
00000000
00000000
,  // measure 38
01100000
00000000
01100000
00000000
00000000
10100000
00000000
00000000
,  // measure 39
10000000
01000000
00010000
01000000
00100000
00001000
00011000
00000000
,  // measure 40
00012000
00000000
00023000
00000000
00030200
00000000
00001300
00000020
,  // measure 41
00000000
00000000
00000000
00000200
00000000
00000000
00000330
00000000
,  // measure 42
00000201
00000000
00000320
00000000
00002030
00000000
00003100
00020000
,  // measure 43
00000000
00000000
00000000
00002000
00000000
00000000
00033000
00000000
,  // measure 44
00102000
00000000
00203000
00000000
02300000
00000000
03100000
00020000
,  // measure 45
00000000
00000000
00000000
20000000
00000000
00000000
30030000
00000000
,  // measure 46
10200000
00000000
02300000
00000000
03020000
00000000
00230000
00002000
,  // measure 47
00000000
00000000
00000000
00303000
,  // measure 48
00021000
00000000
00030020
00000000
00000230
00000000
00000301
00000020
,  // measure 49
00000000
00000000
00000000
00000200
00000000
00000000
00000330
00000000
,  // measure 50
00000020
00000000
00000032
00000000
00002003
00000000
00003010
00002000
,  // measure 51
00000000
00000000
00000000
00000200
00000000
00000000
00003300
00000000
,  // measure 52
00002000
00000000
00003200
00000000
00020300
00000000
00031000
02000000
,  // measure 53
00000000
00000000
00000000
00020000
00000000
00000000
03030000
00000000
,  // measure 54
02000000
00000000
03020000
00000000
00230000
00000000
00301000
00010000
,  // measure 55
00000100
00010000
00000100
00010000
00000100
00000000
00000000
00000000
00000022
00000000
00000000
00000000
00000000
00000000
00000033
00000000
,  // measure 56
00000001
00001000
00000010
00010000
00001000
01000000
00100000
10000000
,  // measure 57
00010000
00100000
00001000
00010000
00000100
00001000
00000010
00000100
,  // measure 58
00000001
00000100
00001000
00000100
00010000
00001000
00100000
10000000
,  // measure 59
00100000
00010000
00100000
00001000
00010000
00000100
00001000
00000010
,  // measure 60
00000001
00000010
00000000
00001000
00000000
00000000
00000100
00010000
00000000
00001000
00000000
00100000
00010000
00000000
01000000
00100000
,  // measure 61
00000000
00000000
01000000
00000000
00010000
00100000
00000000
00010000
00000000
00100000
00001000
00010000
00000000
00010000
00000100
00000000
,  // measure 62
00000000
00010000
00000000
00000010
00000000
00000000
00000100
00000000
00000010
00000000
00001000
00000000
00000100
00001000
00000000
00000001
,  // measure 63
00000000
00000000
00001000
00000000
00000010
00000000
00010000
00000000
00001000
00000000
00100000
00000000
01000000
10000000
01000000
10000000
;
