#VERSION:0.83;
#TITLE:Dragon Blade;
#SUBTITLE:-The Arrange-;
#ARTIST:あさき & RENO;
#TITLETRANSLIT:;
#SUBTITLETRANSLIT:;
#ARTISTTRANSLIT:;
#GENRE:;
#ORIGIN:;
#CREDIT:;
#BANNER:Dragon Blade -The Arrange--banner.png;
#BACKGROUND:Dragon Blade -The Arrange--background.png;
#PREVIEWVID:;
#JACKET:Dragon Blade -The Arrange--jacket.png;
#CDIMAGE:;
#DISCIMAGE:;
#LYRICSPATH:;
#CDTITLE:;
#MUSIC:Dragon Blade -The Arrange-.ogg;
#OFFSET:-1.000000;
#SAMPLESTART:23.133844;
#SAMPLELENGTH:14.769232;
#SELECTABLE:YES;
#BPMS:0.000=260.000;
#STOPS:;
#DELAYS:;
#WARPS:;
#TIMESIGNATURES:0.000=4=4;
#TICKCOUNTS:0.000=4;
#COMBOS:0.000=1;
#SPEEDS:0.000=1.000=0.000=0;
#SCROLLS:0.000=1.000;
#FAKES:;
#LABELS:0.000=Song Start;
#BGCHANGES:;
#KEYSOUNDS:;
#ATTACKS:
;

//---------------dance-single - ----------------
#NOTEDATA:;
#CHARTNAME:;
#STEPSTYPE:dance-single;
#DESCRIPTION:;
#CHARTSTYLE:;
#DIFFICULTY:Hard;
#METER:9;
#RADARVALUES:0.547262,0.778139,0.255389,0.223465,0.031924,480.000000,448.000000,32.000000,28.000000,0.000000,0.000000,0.000000,0.000000,0.000000,0.547262,0.778139,0.255389,0.223465,0.031924,480.000000,448.000000,32.000000,28.000000,0.000000,0.000000,0.000000,0.000000,0.000000;
#CREDIT:;
#NOTES:
0000
0000
0000
0000
,
0000
0000
0000
0000
,
0000
0000
0000
0000
,
0000
0000
0000
0000
,
0000
0000
0000
0000
,
0000
0000
0000
0000
,
0000
0000
0000
0000
,
0000
0000
0000
0000
0000
0000
0000
1020
,
0000
0130
0001
0010
,
0001
0000
1000
0000
0100
0000
0000
1000
,
0000
0000
0001
0100
0001
0000
0000
0010
,
0000
0000
0100
1000
0100
0000
0000
1002
,
0000
0013
0100
0010
,
0001
0000
1000
0000
0010
0000
0000
0100
,
0000
0000
0001
0010
0100
0000
0000
0010
,
0000
0000
0100
1000
0010
0000
0100
0000
,
1001
0000
0101
0000
,
0011
0000
0110
0000
,
1100
0000
0110
0000
,
1001
0000
0101
0000
,
1010
0000
0101
0000
,
1010
0000
1100
0000
,
1000
0100
0010
0001
,
1000
0100
0010
0001
,
1000
0001
1000
0000
0001
0100
0001
0000
,
0100
0010
1000
0010
,
0100
0010
0100
0000
0001
1000
0001
0000
,
1000
0001
0100
0000
,
0010
1000
0010
0000
0100
0001
0100
0000
,
0001
0010
0001
0000
1000
0100
1000
0000
,
1002
0000
0000
0010
0000
0013
0000
0000
,
2001
0000
0000
0200
0000
0000
3300
0000
,
1000
0010
1000
0000
0001
0100
0001
0000
,
0010
0100
0010
0001
,
1000
0010
1000
0000
0001
0100
0001
0000
,
0010
0000
0100
0000
0010
0000
0000
1001
,
0000
0000
0001
0000
1000
0000
0010
0100
,
0000
0000
0001
0000
1000
0000
0100
0010
,
0100
0010
0001
0100
,
1000
0100
0001
1000
,
1001
0000
0000
0000
0001
0010
0000
0100
,
0000
0010
0000
0001
0000
1000
0001
0000
,
0101
0000
0000
1010
0000
0000
2002
0000
,
0000
0000
0000
3003
,
1001
0000
1000
0100
0010
0000
0010
0000
,
0011
0000
0001
0010
0100
0000
0100
0000
,
1100
0000
1000
0010
0100
0000
0100
0000
,
0110
0000
0010
0100
0001
0000
0001
0000
,
1001
0000
0000
0000
0001
0100
0001
0100
,
0000
0001
0000
1000
0000
0100
0000
0010
,
0100
0000
0000
0100
0000
0000
0200
0000
,
0000
0000
0300
0000
,
0010
0000
0001
0010
0001
0000
0010
0100
,
0010
0000
0100
1000
0100
0000
1000
0001
,
1000
0100
0000
0100
0010
0000
0010
0001
,
0000
0001
0010
0000
0001
0000
1000
0000
,
0001
0100
0000
0010
0000
0100
0001
1000
,
0000
0000
0000
0000
,
0001
1000
0000
0000
0000
0000
0000
0000
,
0000
0000
0000
0000
,
0001
1000
0000
0000
0000
0000
0000
0000
,
0000
0000
0000
0000
,
0001
1000
0000
0000
0001
1000
0000
0000
,
0001
1000
0000
0000
0001
1000
0000
0000
,
0010
0010
0010
0010
,
0100
0010
0100
0000
,
0001
0100
0010
1000
,
0001
0100
0010
1000
,
0001
0010
0100
1000
,
0100
0001
0100
1000
,
0001
1000
0010
1000
,
0001
0010
0100
0010
,
0001
1000
0010
1000
,
0010
0001
0010
1000
,
0002
0000
0000
0000
,
1003
0000
0000
0100
0000
0000
1000
0000
,
0020
0000
0000
0000
,
0130
0000
0100
0010
0000
0010
0100
0000
,
0002
0000
0000
0000
,
1003
0000
1000
0001
0000
0001
1000
0000
,
0200
0000
0000
0000
,
0020
0000
0000
0330
,
1000
0001
1000
0010
0000
0000
0100
0001
,
0000
0000
1000
0001
1000
0010
0000
0000
,
1000
0001
1000
0100
0000
0000
1000
0001
,
0000
0000
0001
1000
0001
0010
0000
0000
,
0010
0001
1000
0001
0000
0000
1000
0001
,
0000
0000
1000
0001
1000
0100
0000
0000
,
1000
0001
1000
0010
0000
0000
0100
0001
,
0000
0000
0000
0000
,
0000
0000
0000
0000
,
0000
0000
0000
0000
,
0000
0000
0000
0000
,
0000
0000
0000
0000
,
1000
0000
0200
0000
0302
0000
0103
0010
,
0000
0010
0001
0000
1000
0001
0000
0001
,
0200
0302
0023
0032
,
2003
3020
0200
0330
,
0001
0100
0001
0000
1000
0010
1000
0000
,
0001
1000
0001
0000
0010
0001
0010
0000
,
0100
0000
0000
0010
0000
0001
0000
0000
,
1000
0000
0000
0202
0000
0000
0303
0000
,
1000
0010
1000
0000
0001
0100
0001
0000
,
1000
0000
0001
0000
0010
0100
0000
0100
,
0010
0001
0010
0000
0100
1000
0100
0000
,
1000
0001
1000
0001
1000
0000
0001
0100
,
0000
0000
0010
0000
1000
0000
0001
0010
,
0000
0000
0100
0000
0010
0000
0001
1000
,
0001
0100
1000
0100
,
0010
0000
0010
0000
0100
0000
0001
0000
0001
0000
1000
0000
,
0001
0000
1000
0000
0100
0000
1000
0000
0001
0000
1000
0000
,
0000
0000
0000
0000
,
0201
0000
0310
0000
,
1000
0100
0001
0100
,
0010
0001
1000
0010
,
0001
0010
0100
0001
,
2000
0000
3100
0010
,
0001
0010
0001
0100
,
0010
1000
0100
0001
,
0100
0000
0000
0100
0000
0000
0100
0000
,
0020
0000
0031
0000
,
1000
0001
0100
0001
,
1000
0100
0001
0100
,
1000
0010
0100
0010
,
1000
0100
0010
0001
,
1000
0100
0010
0001
,
0010
0010
0011
1100
,
1000
1000
1100
0011
,
0001
0100
0010
1000
0001
0010
0100
0010
,
0002
0000
0000
0000
,
0003
0000
0000
0000
;

//---------------dance-single - X----------------
#NOTEDATA:;
#CHARTNAME:;
#STEPSTYPE:dance-single;
#DESCRIPTION:X;
#CHARTSTYLE:;
#DIFFICULTY:Edit;
#METER:11;
#RADARVALUES:0.780989,1.248613,0.303275,0.359141,0.247408,685.000000,647.000000,38.000000,45.000000,0.000000,0.000000,0.000000,0.000000,0.000000,0.780989,1.248613,0.303275,0.359141,0.247408,685.000000,647.000000,38.000000,45.000000,0.000000,0.000000,0.000000,0.000000,0.000000;
#CREDIT:;
#OFFSET:-1.000000;
#BPMS:0.000000=130.000000
,16.000000=260.000000
,48.000000=130.000000
,64.000000=260.000000
,200.000000=130.000000
,216.000000=260.000000
,318.000000=130.000000
,326.000000=260.000000
,379.000000=130.000000
,383.000000=260.000000
;
#STOPS:281.500000=0.230766
,282.500000=0.230774
,284.500000=0.230766
,286.500000=0.230766
,287.500000=0.230774
,289.500000=0.230766
,291.500000=0.230766
,292.500000=0.230774
,294.500000=0.230766
,296.500000=0.230766
,378.000000=0.692307
;
#DELAYS:;
#WARPS:;
#TIMESIGNATURES:0.000000=4=4
;
#TICKCOUNTS:0.000000=4
;
#COMBOS:0.000000=1
;
#SPEEDS:0.000000=1.000000=0.000000=0
;
#SCROLLS:0.000000=1.000000
;
#FAKES:;
#LABELS:0.000000=Song Start
;
#NOTES:
0000
0000
0000
0000
,
0000
0000
0000
0000
,
0000
0000
0000
0000
,
0000
0000
0000
0000
0000
0000
0000
0000
0000
0000
0000
0000
0000
0000
0000
1020
,
0000
0130
0001
0010
,
0011
0000
1100
0000
0001
1000
0000
1010
,
0000
1000
0010
0100
0001
0010
0000
1200
,
0000
0310
0001
0100
0001
1000
0000
1002
,
0000
0013
0100
1000
,
1100
0000
0110
0000
0010
0001
0000
2001
,
0000
3001
0100
0001
0010
0100
0000
0120
,
0000
0130
0010
0001
1000
0001
0010
0100
,
1000
0001
0100
0001
0000
0010
0100
0000
0010
0000
0001
0100
0000
0100
0001
0000
,
1000
0100
0000
0010
0000
0100
1000
0001
0000
0100
0010
0000
1000
0010
0000
0100
,
0000
0010
1000
0010
0000
0100
0001
0000
0010
0000
0100
0010
0000
0010
0100
0000
,
0010
0001
0100
0010
1000
0001
0010
0100
0010
0001
0100
0010
1000
0001
0010
0100
,
1000
0100
1000
0001
0100
0001
1000
0001
,
0000
0010
0001
0000
0010
0100
0000
0010
,
0001
0100
0010
1000
0100
0010
0100
1000
,
0001
0100
0001
0010
0200
0000
0000
0000
,
0310
0001
0010
0001
1000
0100
1000
0100
,
1000
0010
1000
0010
0100
0001
0100
0001
,
0020
0000
0000
0031
0000
0200
0000
0310
,
1000
0001
0000
2002
0000
0000
0000
3003
,
0001
0100
0001
0010
0100
0010
0001
1000
,
0000
1000
0100
0000
0100
1000
0000
0100
,
0010
0001
0010
0001
0100
0001
0100
0010
,
1000
0001
0010
0100
0020
0000
0000
0230
,
0000
0000
1300
0100
0001
0100
0010
0001
,
0000
0010
0100
1000
0100
0001
0100
0010
,
0000
0001
0010
0100
1000
0001
0010
0100
,
0010
0001
1000
0100
0010
0001
1000
0010
,
0100
0000
0000
0000
0010
1000
0000
0001
,
0000
0010
0000
0001
0000
0100
0010
0000
,
1010
0000
0000
0101
0000
0000
2002
0000
,
0000
0000
0000
0000
0000
0000
0000
3003
,
1001
0000
1000
0100
0001
0100
0010
0001
,
0011
0000
0001
0010
1000
0010
0100
1000
,
1001
0000
1000
0010
0001
0010
0100
1000
,
1001
0000
1000
0100
0001
0100
1000
0100
,
0110
0000
0000
0000
0010
0001
0010
0001
,
0000
1100
0000
0101
0000
1100
0000
1000
,
1001
0000
0000
1001
0000
0000
2002
0000
,
0000
0000
3003
0000
,
0001
0000
1000
0010
1000
0000
0001
0100
,
0001
0000
0010
0001
0010
0000
0100
1000
,
0100
0010
0000
0010
0001
0000
0001
0010
,
0000
0010
0100
0000
0010
0100
1000
0010
,
0100
0010
0000
0100
0000
0010
0010
1000
,
0000
0000
0000
0000
,
0001
0001
0000
0000
0000
0000
0000
0000
0000
0000
0000
0000
1000
2000
0000
0000
,
3100
0100
0000
0000
0000
0000
0000
0000
0100
0010
0001
1000
0020
0000
0000
0000
,
0130
0100
0000
0000
0100
0100
0000
0000
0100
0100
0000
0000
0100
0100
0000
0000
,
0010
0010
0010
0010
0010
0010
0010
0010
,
1000
0010
1000
0010
1000
0010
1000
0010
,
0100
0010
0100
0010
0100
0010
0100
0010
,
0001
0010
0001
0010
0001
0010
0001
0010
,
0100
0010
1000
0001
0010
0100
0010
0001
,
1000
0010
1000
0010
1000
0010
1000
0010
,
0100
0001
0100
0001
0100
0001
0100
0001
,
0010
0001
0010
0001
0010
0001
0010
0001
,
0010
0100
0010
0001
1000
0100
0010
0001
,
2000
0000
0000
0000
,
3001
0100
0001
0010
0000
0100
0010
0000
,
0002
0000
0000
0000
,
2003
0000
0000
3200
0000
0000
0302
0000
,
0203
0000
0000
0000
,
0320
0000
0000
0032
0000
0000
2003
0000
,
0020
0000
3000
0000
,
0230
0000
0000
0000
,
0301
1000
0100
0010
0100
1000
0100
0010
,
0001
1000
0001
0100
0010
1000
0100
0010
,
0100
1000
0010
0100
0001
0010
0100
0010
,
0001
0100
0010
1000
0001
0010
0100
0010
,
0001
1000
1000
0001
0000
0000
0000
0000
,
0000
0000
0000
0000
,
0000
0000
0000
0000
,
0000
0000
0000
0000
,
0000
0000
0000
0000
,
0000
0000
0000
0000
0000
0000
0000
0000
0001
0100
1000
0100
0010
1000
0001
1000
,
0000
0001
0010
0000
0100
0010
0000
0010
0001
0100
0010
1000
0001
0010
0100
0010
,
0001
1000
0010
0100
0002
0000
1003
0000
0001
0000
0010
0000
0001
0000
0010
0000
,
0100
1000
0100
1000
0010
1000
0010
1000
,
0001
0100
0001
0100
0020
0000
0000
2030
,
0000
3002
0000
0013
0100
0010
0000
2200
,
0000
0000
0000
3300
0010
0001
0100
0001
,
1000
0001
0010
0100
0000
0010
0001
0000
,
0001
0100
0000
0100
0010
1000
0001
0010
,
0100
0010
0001
1000
0010
0100
0010
1000
,
0001
0010
0100
2000
0000
0000
3100
0010
,
0001
1000
0001
2000
0000
0000
3010
0100
,
0001
0100
0010
0100
0001
1000
0001
1000
,
0001
0000
0000
1000
0000
0000
0001
0000
0000
1000
0000
0000
1001
0000
0000
0000
0101
0000
0000
0000
1010
0000
0000
0000
,
1100
0000
0110
0000
0011
0000
0110
0000
1100
0000
1010
0000
,
0101
0000
1100
0000
0210
0000
0000
0300
0000
0020
0000
0000
,
0031
0100
0000
0100
0010
1000
0010
0100
0001
0010
0100
0010
0001
0000
1000
0000
,
0010
1000
0001
1000
0100
1000
0001
0010
,
0100
0010
0001
1000
0100
0010
0200
0000
,
0000
0000
0310
0001
0000
0010
0100
0000
,
0010
0001
0000
0100
0010
0000
1000
0100
,
0010
0001
1000
0100
0010
0100
2000
0000
,
0000
3002
0000
0000
0203
0000
0320
0000
,
0000
0000
1030
0010
0000
0010
0100
0010
,
0100
0001
1000
0010
1000
0100
0010
0100
,
1000
0001
0010
0100
1000
0100
1000
0010
,
0100
0001
0010
0100
0010
0001
1000
0100
,
0010
0001
1000
0100
0010
0001
1000
0010
,
0100
0001
1000
0010
0100
0001
1000
0100
,
0001
0100
1000
0100
0001
1000
0010
0001
,
0010
1000
0010
0001
0010
0100
0010
0100
,
0001
1000
0001
0010
0100
1000
0020
0000
,
0000
0000
0000
0030
;

//---------------dance-single - ----------------
#NOTEDATA:;
#CHARTNAME:;
#STEPSTYPE:dance-single;
#DESCRIPTION:;
#CHARTSTYLE:;
#DIFFICULTY:Medium;
#METER:7;
#RADARVALUES:0.413867,0.622511,0.199523,0.215485,0.031924,363.000000,338.000000,25.000000,27.000000,0.000000,0.000000,0.000000,0.000000,0.000000,0.413867,0.622511,0.199523,0.215485,0.031924,363.000000,338.000000,25.000000,27.000000,0.000000,0.000000,0.000000,0.000000,0.000000;
#CREDIT:;
#NOTES:
0000
0000
0000
0000
,
0000
0000
0000
0000
,
0000
0000
0000
0000
,
0000
0000
0000
0000
,
0000
0000
0000
0000
,
0000
0000
0000
0000
,
0000
0000
0000
0000
,
0000
0000
0000
0000
0000
0000
0000
2000
,
0000
3100
1000
0010
,
0100
0000
0001
0000
0010
0000
0000
0200
,
0000
0000
1300
0000
0001
0000
0000
0200
,
0000
0000
0310
0000
1000
0000
0000
0002
,
0000
1003
0001
0010
,
0001
0000
0100
0000
0010
0000
0000
2000
,
0000
0000
3100
0000
0010
0000
0000
0002
,
0000
0013
0100
0000
,
1001
0000
1001
0000
,
0110
0000
0110
0000
,
1010
0000
1010
0000
,
0101
0000
0101
0000
,
0011
0000
0011
0000
,
1100
0000
1100
0000
,
1000
0100
0010
0001
,
1000
0100
0010
0001
,
1000
0001
1000
0001
,
0100
0000
0001
0000
,
0010
0100
0010
0001
,
1000
0010
0100
0000
,
0010
1000
0010
0000
,
0100
0001
0100
0000
,
0001
0000
0000
1000
0000
0001
0000
0000
,
0100
0000
0000
0020
0000
0000
0000
0000
,
1030
0010
0100
0000
,
0010
0100
1000
0000
,
0100
0001
0010
0100
,
0010
0000
0001
0000
1000
0000
0000
1100
,
0000
0000
1000
0000
0010
0000
0000
0101
,
0000
0001
1000
0000
,
0001
1000
0010
1000
,
0100
1000
0010
0100
,
0001
0000
0000
0000
1000
0100
0000
1000
,
0000
0010
0000
0100
0000
0000
0010
0000
,
0110
0000
0000
0110
0000
0000
0220
0000
,
0000
0000
0000
0330
,
0110
0010
1000
0001
,
0011
1000
0100
1000
,
1010
0001
0100
0001
,
0011
1000
0100
0010
,
1100
0000
0000
0000
1000
0000
0000
0001
,
0000
0100
0000
0001
0000
0010
0000
0000
,
0100
0000
0000
0100
0000
0000
0200
0000
,
0000
0000
0000
0000
,
1300
0000
0100
0000
,
0010
0000
0001
0000
,
1000
0000
0000
0001
0000
0000
0100
0000
,
0000
0001
0000
0000
0010
0000
0100
0000
,
0010
0000
0000
0001
0000
0100
0000
0001
,
0000
0000
0000
0000
,
1000
0001
0000
0000
0000
0000
0000
0000
,
0000
0000
0000
0000
,
1000
0001
0000
0000
0000
0000
0000
0000
,
0000
0000
0000
0000
,
1000
0001
0000
0000
1000
0001
0000
0000
,
1000
0001
0000
0000
1000
0001
0000
0000
,
0100
0010
0100
0010
,
0100
0010
0100
0000
,
0001
0100
0001
0000
,
0100
0010
0100
0000
,
0010
1000
0010
0000
,
1000
0010
0001
0010
,
0100
0001
0100
0000
,
0010
0100
0010
0000
,
0100
0001
0100
0000
,
0001
0100
1000
0100
,
0002
0000
0000
0000
,
1003
0000
0000
0001
0000
0000
0010
0000
,
0002
0000
0000
0000
,
0013
0000
0000
0001
0000
0000
0100
0000
,
0020
0000
0000
0000
,
1030
0000
0000
0100
0000
0000
1000
0000
,
0002
0000
0000
0000
,
2000
0000
0000
3003
,
1000
0000
0000
0001
0000
0000
1000
0000
,
0000
0000
0010
0000
0000
1000
0000
0000
,
0100
0000
0000
0010
0000
0000
0100
0000
,
0000
0000
0010
0000
0000
0100
0000
0000
,
1000
0000
0000
0001
0000
0000
1000
0000
,
0000
0000
0001
0000
0000
0100
0000
0000
,
0010
0000
0000
1000
0000
0000
0100
0000
,
0000
0000
0000
0000
,
0000
0000
0000
0000
,
0000
0000
0000
0000
,
0000
0000
0000
0000
,
0000
0000
0000
0000
,
2000
0000
3002
0000
,
0103
0001
0010
0000
,
0200
0000
0320
0000
,
0130
1000
0001
0000
,
1000
0010
0100
0000
,
0010
1000
0100
0000
,
0010
0000
0000
0001
0000
0100
0000
0000
,
0010
0000
0000
2000
0000
0000
0000
0000
,
3100
0010
0100
0000
,
0001
1000
0001
0000
,
0100
0001
0010
0001
,
1000
0000
0100
0000
0010
0000
0000
0011
,
0000
0000
0100
0000
0010
0000
0000
1100
,
0000
1000
0001
0000
,
1000
0010
0100
0001
,
1000
0000
0100
0000
0010
0000
0001
0000
0010
0000
0100
0000
,
1000
0000
0001
0000
0100
0000
0010
0000
1000
0000
0200
0000
,
0000
0000
0300
0000
,
2000
0000
3200
0000
,
0310
0100
1000
0001
,
0100
0010
1000
0001
,
0010
0100
0010
0001
,
2000
0000
3001
0000
,
1000
0000
0000
0100
0000
0000
0010
0000
,
0100
0010
0001
1000
,
0010
0000
0000
1000
0000
0000
0100
0000
,
0020
0000
0130
0000
,
0010
0001
1000
0010
,
0100
0001
0010
0001
,
1000
0100
0010
0001
,
1000
0010
0100
0000
,
0001
0010
0100
0000
,
0010
0010
0001
1000
,
0010
0010
1000
0001
,
1000
0100
0010
0001
,
2002
0000
0000
0000
,
3003
0000
0000
0000
;

//---------------dance-single - ----------------
#NOTEDATA:;
#CHARTNAME:;
#STEPSTYPE:dance-single;
#DESCRIPTION:;
#CHARTSTYLE:;
#DIFFICULTY:Easy;
#METER:6;
#RADARVALUES:0.313536,0.622511,0.159618,0.119714,0.000000,275.000000,255.000000,20.000000,15.000000,0.000000,0.000000,0.000000,0.000000,0.000000,0.313536,0.622511,0.159618,0.119714,0.000000,275.000000,255.000000,20.000000,15.000000,0.000000,0.000000,0.000000,0.000000,0.000000;
#CREDIT:;
#NOTES:
0000
0000
0000
0000
,
0000
0000
0000
0000
,
0000
0000
0000
0000
,
0000
0000
0000
0000
,
0000
0000
0000
0000
,
0000
0000
0000
0000
,
0000
0000
0000
0000
,
0000
0000
0000
0000
,
1000
0000
0001
0000
,
0100
0000
0001
0000
,
0010
0001
0010
0000
,
0001
0100
0001
0000
,
0100
0000
0010
0000
,
1000
0000
0100
0000
,
0010
0100
0010
0000
,
0100
1000
0100
0000
,
1000
0000
1000
0000
,
0001
0000
0001
0000
,
0100
0000
0100
0000
,
0010
0000
0010
0000
,
1000
0000
0010
0000
,
0100
0000
0001
0000
,
1000
0001
1000
0001
,
1000
0001
1000
0001
,
0001
1000
0010
0000
,
0100
0000
0010
0000
,
0100
0001
0010
0000
,
0100
0010
0001
0000
,
1000
0000
0001
0000
,
0010
0000
0100
0000
,
0020
0000
0031
0000
,
0200
0000
0310
0000
,
0100
0010
1000
0000
,
0001
0000
1000
0000
,
0100
1000
0010
0000
,
0100
0010
1000
0000
,
0001
0000
1000
0000
,
0001
0000
0100
0000
,
0001
0000
0010
0000
,
0100
0000
0010
0000
,
0002
0000
1003
0000
,
0001
0000
0100
0000
,
0101
0000
0000
2020
,
0000
0000
0000
3030
,
1001
0001
0010
0100
,
1100
1000
0100
0010
,
0011
0001
0010
0100
,
1100
1000
0100
0010
,
0011
0000
0001
0000
,
1000
0000
0010
0000
,
0200
0000
0000
0002
,
0000
0000
0303
0000
,
0001
0000
0010
0000
,
1000
0000
0010
0000
,
0001
0000
1000
0000
,
0010
0000
1000
0000
,
0100
0000
1000
0000
,
0001
0000
0000
0000
,
0110
0000
0000
0000
,
0000
0000
0100
0000
,
1001
0000
0000
0000
,
0000
0000
0000
0000
,
1001
0000
0110
0000
,
1001
0000
0110
0000
,
1000
0001
1000
0001
,
1000
0001
1000
0000
,
0001
0000
0100
0000
,
0010
0000
1000
0000
,
0010
0000
0100
0000
,
0001
0010
0100
1000
,
0100
0000
1000
0000
,
0010
0000
0100
0000
,
0001
0000
0010
0000
,
0100
0010
0001
1000
,
0100
0000
0000
0000
,
1000
0000
0001
0100
,
0001
0000
0000
0000
,
0100
0010
0100
0000
,
0010
0000
0000
0000
,
1000
0010
1000
0000
,
0002
0000
0000
0000
,
2000
0000
0000
3003
,
1001
0000
0000
0010
,
0000
1000
0000
0000
,
0100
0000
0000
1000
,
0000
0001
0000
0000
,
0100
0000
0000
0010
,
0000
0100
0000
0000
,
0010
0000
0000
1000
,
0000
0000
0000
0000
,
0000
0000
0000
0000
,
0000
0000
0000
0000
,
0000
0000
0000
0000
,
0000
0000
0000
0000
,
2000
0000
0000
0000
,
0000
0000
3000
0000
,
0002
0000
0000
0000
,
0000
0000
0003
0000
,
0100
0000
0001
0000
,
0010
0000
0100
0000
,
0110
0000
0000
0000
,
1100
0000
0000
0000
,
0100
0000
1000
0000
,
0010
0000
0100
0000
,
0001
0000
0010
0000
,
0001
1000
0001
0000
,
1000
0000
0010
0000
,
0100
0000
0001
0000
,
0010
0001
1000
0100
,
0110
0000
1100
0000
,
0011
0000
1001
0000
,
0000
0000
0000
0000
,
0020
0000
1030
0000
,
0010
0000
0100
0000
,
0001
0100
0010
1000
,
0010
0100
0001
1000
,
0001
0000
0010
0000
,
0001
0000
1000
0000
,
0100
0000
0010
0000
,
0200
0000
0000
0000
,
2300
0000
3010
0000
,
0100
0010
1000
0001
,
0010
0100
1000
0100
,
0010
0001
1000
0001
,
0100
0000
0001
0000
,
0010
0000
0100
0000
,
0010
0001
1000
0100
,
0010
0001
0010
0100
,
0010
0001
1000
0010
,
0200
0000
0000
0000
,
0300
0000
0000
0000
;

//---------------dance-single - ----------------
#NOTEDATA:;
#CHARTNAME:;
#STEPSTYPE:dance-single;
#DESCRIPTION:;
#CHARTSTYLE:;
#DIFFICULTY:Beginner;
#METER:3;
#RADARVALUES:0.143656,0.308861,0.119714,0.000000,0.000000,126.000000,111.000000,15.000000,0.000000,0.000000,0.000000,0.000000,0.000000,0.000000,0.143656,0.308861,0.119714,0.000000,0.000000,126.000000,111.000000,15.000000,0.000000,0.000000,0.000000,0.000000,0.000000,0.000000;
#CREDIT:;
#NOTES:
0000
0000
0000
0000
,
0000
0000
0000
0000
,
0000
0000
0000
0000
,
0000
0000
0000
0000
,
0000
0000
0000
0000
,
0000
0000
0000
0000
,
0000
0000
0000
0000
,
0000
0000
0000
0000
,
1000
0000
0000
0000
,
0001
0000
0000
0000
,
0100
0000
0000
0000
,
0010
0000
0000
0000
,
1000
0000
0000
0000
,
1000
0000
0000
0000
,
0001
0000
0000
0000
,
0001
0000
0000
0000
,
0110
0000
0000
0000
,
0010
0000
0000
0000
,
0100
0000
0000
0000
,
0001
0000
0000
0000
,
1000
0000
0000
0000
,
0001
0000
0000
0000
,
1000
0000
1000
0000
,
1000
0000
1000
0000
,
0001
0000
0000
0000
,
0000
0000
0000
0000
,
0100
0000
0000
0000
,
0000
0000
0000
0000
,
0010
0000
0000
0000
,
1000
0000
0000
0000
,
1001
0000
0000
0000
,
0010
0000
0000
0000
,
0100
0000
0000
0000
,
0000
0000
0000
0000
,
0010
0000
0000
0000
,
0000
0000
0000
0000
,
1000
0000
0000
1000
,
0000
0000
0000
1000
,
0000
0000
0000
0000
,
0001
0000
0000
0000
,
1001
0000
0000
0000
,
0000
0000
0000
0000
,
0010
0000
0000
0010
,
0000
0000
0000
0000
,
0110
0000
0000
0000
,
1001
0000
0000
0000
,
0110
0000
0000
0000
,
1001
0000
0000
0000
,
1000
0000
0000
0000
,
0000
0000
0000
0000
,
0010
0000
0000
0010
,
0000
0000
0000
0000
,
0100
0000
0000
0000
,
0001
0000
0000
0000
,
1000
0000
0000
0000
,
0000
0000
0000
0000
,
0001
0000
0000
0000
,
0000
0000
0000
0000
,
0100
0000
0000
0000
,
0000
0000
0000
0000
,
0100
0000
0000
0000
,
0000
0000
0000
0000
,
0100
0000
0100
0000
,
0100
0000
0100
0000
,
0100
0000
0000
0000
,
0000
0000
0000
0000
,
0010
0000
0000
0000
,
1000
0000
0000
0000
,
0100
0000
0000
0000
,
1000
0000
0000
0000
,
0001
0000
0000
0000
,
0100
0000
0000
0000
,
0010
0000
0000
0000
,
1000
0000
0000
0000
,
1001
0000
0000
0000
,
0001
0000
0000
0000
,
1000
0000
0000
0000
,
0010
0000
0010
0000
,
0010
0000
0000
0000
,
0100
0000
0100
0000
,
0100
0000
0000
0000
,
0010
0000
0000
0000
,
1000
0000
0000
0001
,
0000
1000
0000
0000
,
0001
0000
0000
1000
,
0000
0001
0000
0000
,
1000
0000
0000
0001
,
0000
1000
0000
0000
,
0001
0000
0000
1000
,
0000
0000
0000
0000
,
0000
0000
0000
0000
,
0000
0000
0000
0000
,
0000
0000
0000
0000
,
0000
0000
0000
0000
,
0010
0000
0000
0000
,
0000
0000
0000
0000
,
0100
0000
0000
0000
,
0000
0000
0000
0000
,
0001
0000
0000
0000
,
0000
0000
0000
0000
,
1001
0000
0000
0000
,
0110
0000
0000
0000
,
1000
0000
0000
0000
,
0000
0000
0000
0000
,
0100
0000
0000
0000
,
0000
0000
0000
0000
,
1000
0000
0000
1000
,
0000
0000
0000
1000
,
0000
0000
0000
0000
,
1001
0000
0010
0000
,
1001
0000
0100
0000
,
0000
0000
0000
0000
,
0010
0000
0000
0000
,
0000
0000
0000
0000
,
0100
0000
0000
0000
,
0001
0000
0000
0000
,
1000
0000
0000
0000
,
0100
0000
0000
0000
,
0010
0000
0000
0000
,
1001
0000
0000
0000
,
0110
0000
0000
0000
,
0100
0000
0000
0000
,
0010
0000
0000
0000
,
1000
0000
0000
0000
,
0001
0000
0000
0000
,
0010
0000
0000
0000
,
0001
0000
0000
0000
,
1000
0000
0000
0000
,
0010
0000
0000
0000
,
0110
0000
0000
0000
;

//---------------dance-double - ----------------
#NOTEDATA:;
#CHARTNAME:;
#STEPSTYPE:dance-double;
#DESCRIPTION:;
#CHARTSTYLE:;
#DIFFICULTY:Challenge;
#METER:9;
#RADARVALUES:0.616810,0.881890,0.295294,0.263370,0.031924,541.000000,504.000000,37.000000,33.000000,0.000000,0.000000,0.000000,0.000000,0.000000,0.616810,0.881890,0.295294,0.263370,0.031924,541.000000,504.000000,37.000000,33.000000,0.000000,0.000000,0.000000,0.000000,0.000000;
#CREDIT:;
#NOTES:
// measure 0
00000000
00000000
00000000
00000000
,  // measure 1
00000000
00000000
00000000
00000000
,  // measure 2
00000000
00000000
00000000
00000000
,  // measure 3
00000000
00000000
00000000
00000000
,  // measure 4
00000000
00000000
00000000
00000000
,  // measure 5
00000000
00000000
00000000
00000000
,  // measure 6
00000000
00000000
00000000
00000000
,  // measure 7
00000000
00000000
00000000
00000000
00000000
00000000
00000000
21000000
,  // measure 8
00000000
30100000
01000000
00010000
,  // measure 9
00100000
00000000
00001000
00000000
00010000
00000100
00000000
00001200
,  // measure 10
00000000
00000000
00000310
00000001
00000100
00000000
00000000
00002010
,  // measure 11
00000000
00000000
00003010
00000100
00000001
00000000
00000000
00001002
,  // measure 12
00000000
00000103
00000010
00001000
,  // measure 13
00000100
00000000
00010000
00000000
00001000
00000000
00000000
12000000
,  // measure 14
00000000
00000000
03100000
00010000
01000000
00000000
00000000
02010000
,  // measure 15
00000000
00000000
03001000
00010000
00000100
00000000
00000000
00000000
,  // measure 16
00011000
00000000
00101000
00000000
,  // measure 17
00110000
00000000
01100000
00000000
,  // measure 18
11000000
00000000
10010000
00000000
,  // measure 19
01010000
00000000
01001000
00000000
,  // measure 20
00101000
00000000
00011000
00000000
,  // measure 21
00010100
00000000
00001100
00000000
,  // measure 22
00001000
00000100
00000010
00000001
,  // measure 23
00000100
00001000
00000100
00000001
,  // measure 24
00001000
00000010
00001000
00000000
00000001
00000100
00000001
00000000
,  // measure 25
00000100
00000000
00000010
00000000
00001000
00000100
00000000
00000100
,  // measure 26
00010000
00001000
01000000
00100000
,  // measure 27
10000000
01000000
10000000
01000000
10000000
00000000
00000000
00000000
,  // measure 28
00010000
01000000
00010000
00000000
01000000
00000000
00100000
00000000
,  // measure 29
10000000
00010000
10000000
00000000
00010000
00000000
00100000
00000000
,  // measure 30
00210000
00000000
00000000
00301000
00000000
00010000
00000000
00000100
,  // measure 31
00010000
00000010
00000000
00000202
00000000
00000000
00000303
00000000
,  // measure 32
00000001
00000100
00000001
00000000
00000100
00000010
00000100
00000000
,  // measure 33
00000010
00000000
00001000
00000000
00000100
00010000
00000000
00010000
,  // measure 34
00001000
01000000
00100000
10000000
,  // measure 35
00010000
00100000
00010000
00100000
00010000
00000000
00000000
12000000
,  // measure 36
00000000
00000000
03100000
00000000
00010000
01000000
00001000
00020000
,  // measure 37
00000000
00000000
00030100
00000000
00001000
00000010
00000100
00000001
,  // measure 38
00000010
00000100
00000010
00000001
,  // measure 39
00000100
00000010
00001000
00000100
,  // measure 40
00011000
00000000
00000000
00000000
01000000
00010000
00000000
00100000
,  // measure 41
00000000
00010000
00000000
01000000
00000000
00000000
00100000
00000000
,  // measure 42
10010000
00000000
00000000
01010000
00000000
00000000
00220000
00000000
,  // measure 43
00000000
00000000
00000000
00330000
,  // measure 44
11000000
00000000
01000000
00100000
00001000
00010000
00000100
00001000
,  // measure 45
00000100
00000000
00001000
00000100
00000010
00000001
00000100
00000010
,  // measure 46
00001000
00000000
00000010
00001000
00000100
00010000
00001000
01000000
,  // measure 47
00100000
00000000
01000000
00010000
00100000
00001000
00010000
00000100
,  // measure 48
00001000
00000000
00000000
00000000
00000100
00000010
00000000
00000001
,  // measure 49
00000000
00000100
00000000
00000010
00000000
00001000
00000000
00000100
,  // measure 50
00010100
00000000
00000000
00011000
00000000
00000000
00201000
00000000
,  // measure 51
00000000
00000000
00000000
00300000
,  // measure 52
00010000
01000000
00100000
10000000
,  // measure 53
01000000
00010000
01000000
00100000
,  // measure 54
00010000
01000000
00000000
00001000
01000000
00000000
00001000
00010000
,  // measure 55
00000000
00010000
00000100
00000000
00001000
00000010
00000100
00000001
,  // measure 56
00001000
00000001
00000000
00000100
00000000
00000010
00001000
00000010
,  // measure 57
00000000
00000000
00000000
00000000
,  // measure 58
00001000
00000100
00000000
00000000
00000000
00000000
00000000
00000000
,  // measure 59
00000000
00000000
00000000
00000000
00000100
00010000
00000000
00000000
,  // measure 60
00010000
00001000
00000000
00000000
00000000
00000000
00000000
00000000
,  // measure 61
00000000
00000000
00000000
00000000
,  // measure 62
00001000
01000000
00000000
00000000
00001000
01000000
00000000
00000000
,  // measure 63
00001000
01000000
00000000
00000000
00001000
01000000
00000000
00000000
,  // measure 64
00001000
01000000
00100000
10000000
,  // measure 65
01000000
00100000
00010000
00000000
,  // measure 66
10000000
00100000
10000000
00000000
00010000
00000000
00100000
00000000
,  // measure 67
00001000
00100000
00001000
00000000
00010000
00000000
00000100
00000000
,  // measure 68
00001000
00000010
00001000
00000000
00000010
00000000
00000100
00000000
,  // measure 69
00000001
00000010
00000100
00001000
00000100
00010000
00001000
00100000
,  // measure 70
01000000
10000000
01000000
00000000
10000000
00000000
00100000
00000000
,  // measure 71
01000000
00010000
01000000
00000000
00010000
00000000
00100000
00000000
,  // measure 72
00001000
00100000
00001000
00000000
00010000
00000000
00000100
00000000
,  // measure 73
00010000
00001000
00100000
00001000
01000000
00100000
10000000
01000000
,  // measure 74
00200000
00000000
00000000
00000000
,  // measure 75
01300000
10000000
00100000
01000000
00000000
00010000
00100000
00000000
,  // measure 76
00020000
00000000
00000000
00030000
,  // measure 77
00200000
00000000
00000000
00302000
00000000
00000000
00023000
00000000
,  // measure 78
00030200
00000000
00000000
00000000
,  // measure 79
00002300
00000000
00000000
00003020
00000000
00000000
00000130
00000000
,  // measure 80
00000002
00000000
00001003
00000000
,  // measure 81
00000220
00000000
00000000
00000330
,  // measure 82
00000010
00010000
00001000
01000000
00000000
00000000
01000000
00010000
,  // measure 83
00000000
00000000
00100000
00001000
00010000
00000100
00000000
00000000
,  // measure 84
00001000
00000100
00010000
00001000
00000000
00000000
00010000
00001000
,  // measure 85
00000000
00000000
00001000
01000000
00010000
00100000
00000000
00000000
,  // measure 86
00100000
00001000
00010000
00000100
00000000
00000000
00010000
00001000
,  // measure 87
00000000
00000000
00010000
00000100
00001000
00000010
00000000
00000000
,  // measure 88
00000100
00000010
00001000
00000100
00000000
00000000
00000010
00000100
,  // measure 89
00000000
00000000
00000000
00000000
,  // measure 90
00000000
00000000
00000000
00000000
,  // measure 91
00000000
00000000
00000000
00000000
,  // measure 92
00000000
00000000
00000000
00000000
,  // measure 93
00000000
00000000
00000000
00000000
,  // measure 94
00000001
00000100
00000010
00001000
,  // measure 95
00000100
00010000
00001000
00100000
,  // measure 96
10000000
00100000
00010000
01000000
,  // measure 97
00100000
10000000
02000000
00000000
,  // measure 98
13000000
01000000
10000000
00000000
01000000
00000000
00100000
00000000
,  // measure 99
00010000
00100000
00010000
00000000
00100000
00000000
00001000
00000000
,  // measure 100
00021000
00000000
00000000
00030100
00000000
00001000
00000000
00000010
,  // measure 101
00000100
00000001
00000000
00002200
00000000
00000000
00003300
00000000
,  // measure 102
00000100
00010000
00000100
00000000
00001000
00010000
00001000
00000000
,  // measure 103
01000000
00100000
10000000
01000000
,  // measure 104
00100000
00010000
00100000
00000000
00001000
00100000
00001000
00000000
,  // measure 105
00010000
00000100
00001000
00000010
00000100
00000010
00000100
00000001
,  // measure 106
00000000
00001000
00000100
00001000
00000100
00010000
00001000
00200000
,  // measure 107
00000000
00000000
01300000
00100000
00010000
00100000
00001000
00010000
,  // measure 108
00001000
01000000
00001000
00000000
01000000
00100000
01000000
00000000
,  // measure 109
10000000
00000000
00100000
00000000
01000000
00000000
00010000
00000000
00100000
00000000
00001000
00000000
,  // measure 110
00010000
00000000
00000100
00000000
00001000
00000000
00000010
00000000
00000100
00000000
00000001
00000000
,  // measure 111
00000000
00000000
00000000
00000000
,  // measure 112
00000102
00000000
00000013
00000000
,  // measure 113
00000100
00001000
00000100
00000010
,  // measure 114
00000001
00000100
00000001
00000000
00000100
00000010
00000100
00000000
,  // measure 115
00000010
00000000
00001000
00000100
00000000
00000100
00010000
00000000
,  // measure 116
00001000
01000000
00001000
00000000
01000000
00100000
01000000
00000000
,  // measure 117
00100000
00000000
10000000
00100000
00000000
00100000
01000000
00000000
,  // measure 118
01000000
00010000
00100000
00000000
01000000
10000000
00100000
00000000
,  // measure 119
01100000
00000000
00000000
01010000
00000000
00000000
00110000
00000000
,  // measure 120
00102000
00000000
00000000
00000000
00013000
00001000
00000000
00001000
,  // measure 121
00010000
00000100
00001000
00000010
,  // measure 122
00000100
00000001
00000100
00000000
00000001
00000010
00000001
00000000
,  // measure 123
00000010
00000100
00000010
00000000
00000100
00001000
00000100
00000000
,  // measure 124
00001000
00000100
00010000
00000000
00001000
00100000
01000000
00000000
,  // measure 125
10000000
00100000
01000000
00000000
00100000
10000000
00010000
00000000
,  // measure 126
10000000
01000000
00100000
00010000
00100000
00001000
00010000
00000100
,  // measure 127
00001000
00000010
00000100
00000001
00000010
00000001
00001000
00000010
,  // measure 128
00010000
00001000
01000000
00100000
10000000
01000000
00100000
00010000
,  // measure 129
02000000
00000000
00000000
00000000
,  // measure 130
03000000
00000000
00000000
00000000
;
