#VERSION:0.83;
#TITLE:Disconnected Zeo;
#SUBTITLE:;
#ARTIST:G5;
#TITLETRANSLIT:;
#SUBTITLETRANSLIT:;
#ARTISTTRANSLIT:;
#GENRE:;
#ORIGIN:;
#CREDIT:;
#BANNER:banner.png;
#BACKGROUND:bg.png;
#PREVIEWVID:;
#JACKET:jacket.png;
#CDIMAGE:;
#DISCIMAGE:;
#LYRICSPATH:;
#CDTITLE:;
#MUSIC:Disconnected Zeo.ogg;
#OFFSET:-0.044000;
#SAMPLESTART:75.833473;
#SAMPLELENGTH:12.631577;
#SELECTABLE:YES;
#BPMS:0.000=152.000;
#STOPS:156.000=1.184;
#DELAYS:;
#WARPS:;
#TIMESIGNATURES:0.000=4=4;
#TICKCOUNTS:0.000=4;
#COMBOS:0.000=1;
#SPEEDS:0.000=1.000=0.000=0;
#SCROLLS:0.000=1.000;
#FAKES:;
#LABELS:0.000=Song Start;
#BGCHANGES:;
#KEYSOUNDS:;
#ATTACKS:
;

//---------------dance-single - ----------------
#NOTEDATA:;
#CHARTNAME:;
#STEPSTYPE:dance-single;
#DESCRIPTION:;
#CHARTSTYLE:;
#DIFFICULTY:Hard;
#METER:7;
#RADARVALUES:0.443801,0.610875,0.299760,0.390597,0.118087,342.000000,309.000000,33.000000,43.000000,0.000000,0.000000,0.000000,0.000000,0.000000,0.443801,0.610875,0.299760,0.390597,0.118087,342.000000,309.000000,33.000000,43.000000,0.000000,0.000000,0.000000,0.000000,0.000000;
#CREDIT:;
#NOTES:
0000
0000
0000
0000
,
0000
0000
0000
0000
,
0000
0000
0000
0000
,
0000
0000
0000
0000
,
1010
0000
0001
0020
0000
0000
0000
0000
,
0130
0000
0000
0000
0010
0000
0000
0000
0001
0000
1000
0000
0001
1000
0001
0000
,
0201
0000
0000
0310
0000
0000
0000
0100
,
0002
0000
0000
0000
2003
0000
0000
0000
3010
1000
0010
1000
0001
0100
0001
0100
,
0020
2030
0002
3003
,
1000
0001
0010
0001
,
0200
0000
0301
0000
0010
0100
1000
0000
,
0200
0000
0310
0000
0100
1000
0010
0000
,
0200
0320
2000
3030
,
0001
0010
0200
0300
,
0010
0000
0001
0000
1000
0010
0100
0000
,
0001
0000
1000
0000
0100
1000
0010
0100
,
0002
0023
0200
0330
,
0010
0000
0100
1000
0010
0000
0100
0000
,
0001
0000
1000
0001
0010
0000
0001
0000
,
1000
0000
0010
0000
0100
0000
0000
0001
0000
0001
0000
0000
1000
0001
0000
0000
,
0020
0032
0200
0303
,
0001
0000
0100
0010
1000
0000
0001
0000
,
1000
0000
0100
0010
1000
0000
0010
0000
,
0001
1000
0001
1000
0001
0000
0000
0000
0100
0010
0100
0010
0100
0010
0100
0010
,
0200
0000
0000
0001
0000
0010
0000
0000
,
1300
0000
0100
0000
0010
1000
0001
0000
,
0012
0000
0000
0100
0000
0010
0000
0000
,
1003
0000
0001
0000
1000
0010
1000
0100
,
0210
0000
0000
0001
0000
1000
0000
0000
,
0310
0000
0100
0000
0010
0001
0010
0001
,
0201
0000
0000
0010
0000
0001
0300
0000
,
2002
0000
0000
3003
,
1001
0000
0100
0001
0000
0001
0000
1000
,
0002
0000
0013
0000
0100
0010
0001
0100
,
0010
0000
1000
0001
0000
0001
0000
0010
,
0011
1100
0011
1100
,
1001
0000
1000
0010
0000
0010
0000
0100
,
0010
0000
1000
0000
0001
0010
1000
0010
,
0001
0000
0100
0001
0000
0001
0000
1000
,
0100
2001
3010
0100
,
0101
0001
0010
0000
0100
0000
1000
0100
,
0010
0100
1000
0000
0001
0000
1010
0010
,
0100
1001
0110
1001
,
0110
1001
1000
0001
,
0011
0010
0100
0000
0010
0000
0001
0100
,
0010
0100
0001
0000
1000
0000
1010
1000
,
0001
0220
0000
0000
,
0330
0000
1020
0000
0130
0001
0010
0000
,
0100
0000
0010
0000
0001
1000
0010
0000
,
1000
0000
0110
0000
1001
1000
0010
0000
,
0100
0000
0000
0000
0001
0000
1000
0000
0010
0000
0000
0100
0000
0100
0000
0000
,
0010
1000
0000
0000
0001
0000
0000
0000
0100
0000
0000
0000
0010
0000
1000
0000
,
0100
0020
0230
2300
,
3010
0000
0100
0000
0010
1000
0001
0000
,
0010
0000
0100
0000
0010
0001
2000
0000
,
3002
0203
0302
0020
,
0033
0000
0001
0000
0010
0001
0100
0000
,
0010
0000
1000
0000
0010
0100
0001
0000
,
1000
0000
0000
0000
0100
0000
1000
0000
0010
0000
0000
0100
0000
0100
0000
0000
,
0010
1000
0000
0000
0002
0000
0000
0000
2003
0000
0000
0000
0020
0000
0000
0000
,
3030
0000
1000
0000
0010
0100
0001
0000
,
0010
0000
0000
0000
0001
1000
0001
1000
0001
0000
0000
0000
0100
0010
0100
0010
,
0100
0010
0100
0010
0100
0000
0000
0000
0001
0000
0000
0000
0010
0000
0000
0000
,
0100
0010
0011
0000
1100
0000
0001
0000
,
0100
0101
0011
0100
,
1000
0001
0011
0000
0110
0000
0100
0000
,
1000
0001
0220
0000
0000
0000
0000
0000
,
0000
0330
0000
0000
;

//---------------dance-single - ----------------
#NOTEDATA:;
#CHARTNAME:;
#STEPSTYPE:dance-single;
#DESCRIPTION:;
#CHARTSTYLE:;
#DIFFICULTY:Challenge;
#METER:9;
#RADARVALUES:0.578758,0.730325,0.227091,0.336095,0.404222,446.000000,421.000000,25.000000,37.000000,73.000000,0.000000,0.000000,0.000000,0.000000,0.578758,0.730325,0.227091,0.336095,0.404222,446.000000,421.000000,25.000000,37.000000,73.000000,0.000000,0.000000,0.000000,0.000000;
#CREDIT:;
#NOTES:
0000
0000
0000
0000
,
0000
0000
0000
0000
,
0000
0000
0000
0000
,
0000
0000
0000
0000
,
1001
0000
0001
0100
0020
0000
0000
1030
,
0100
0000
0001
0000
0100
0000
0010
0000
0001
0000
0001
0000
0001
1000
0001
0000
,
0201
0000
0000
0310
0000
0000
0000
0100
,
0002
0000
0000
0000
2003
0000
0000
0000
3100
1000
0100
1000
0001
0100
0001
0100
,
M002
2M03
002M
3030
,
1000
0100
1000
0100
1000
0000
0001
0000
0010
0000
0000
0000
0001
0000
0000
0000
,
1010
0000
1100
0000
0010
1000
0001
0000
,
0010
0000
0001
0000
0100
0000
0010
0100
0000
0001
0000
0010
0001
1000
0000
0000
,
M020
023M
00M2
0303
,
0100
0001
0100
0001
0100
0000
0001
0000
0010
0000
0000
0000
0100
0000
0000
0000
,
0020
0000
0031
0000
0100
0001
0010
0000
,
0200
0000
0000
0000
1300
0000
0000
0000
0001
1000
000M
1000
0001
0000
0000
0000
,
020M
03M2
0M20
0033
,
0001
0010
0001
0010
0001
0000
0000
0000
1000
0000
0000
0000
0001
0000
0000
0000
,
0100
0010
1000
0000
0010
0000
1001
0000
,
0001
0000
0010
0000
0100
0000
0010
0001
0000
0100
0000
0010
1000
0100
0000
0000
,
2M00
32M0
002M
0330
,
0001
1000
0001
1000
0001
0000
0100
0000
1001
0000
0000
0000
0010
0000
0000
0000
,
1000
0000
0000
0001
0010
0000
0001
0000
0100
0000
0000
0000
0010
0000
0000
0000
,
1000
0010
0100
0001
0010
0000
00M0
0000
0100
0010
0001
1000
0010
0100
0001
0010
,
0100
0000
0010
0001
0100
0000
0010
0000
1000
0000
0001
0000
0000
0000
0010
0000
,
0120
0000
0000
0000
0130
0000
0000
0000
0010
0000
0010
0000
0010
0100
0010
0000
,
0100
0000
1000
0010
0100
0000
0010
0000
0100
0000
0001
0000
0000
0000
1000
0000
,
1002
0000
0000
0000
0013
0000
0000
0000
0100
0000
0100
0000
0010
0100
0010
0000
,
0100
0000
0010
0001
0100
0000
0010
0000
0100
0000
0001
0000
0000
0000
1000
0000
,
1200
0000
0000
0000
0310
0000
0000
0000
0100
0000
0100
0000
0010
0100
0010
0000
,
0100
0000
0010
0001
0100
0000
0010
1000
0001
0000
1000
0000
0000
0000
0001
0000
,
2002
0MM0
0MM0
3003
,
0001
0000
0100
0001
0100
0000
0010
0000
1000
0000
0001
0000
0000
0000
1000
0000
,
0100
0000
0000
0000
1000
0000
0000
0000
0100
0000
1000
0000
0010
0100
0010
0000
,
0100
0000
0001
1000
0010
0000
0100
0000
0001
0000
0010
0000
0000
0000
0100
0000
,
1001
MMMM
M11M
0000
1MM1
0000
M11M
MMMM
,
0001
0000
0100
0010
0100
0000
0010
0000
1000
0000
0001
0000
0000
0000
0010
0000
,
0100
0000
0000
0000
1000
0000
0000
0000
0100
0000
1000
0000
0010
1000
0010
0000
,
0100
0000
0010
1000
0001
0000
0100
0000
0010
0000
1000
0000
0000
0000
0001
0000
,
0MMM
0000
MMMM
0000
0000
0000
2002
0000
0000
0000
0000
0000
3003
0000
0000
0001
0000
0000
0000
0000
0000
1000
0000
0000
,
0000
0010
1000
0000
1000
0000
1000
0001
,
1000
0001
0010
0000
0100
0000
0010
0001
0100
0000
0010
0000
1000
0000
0001
0000
,
0000
1000
M1M1
MMMM
1M1M
MMMM
M1M1
MMMM
,
1010
0000
0000
0000
1001
0000
1000
0001
0010
0000
0100
0000
0010
0000
0001
0000
,
0000
1000
0010
0000
0100
0000
0010
0100
,
0001
1000
0001
0000
0010
0000
0001
0100
0010
0000
0100
0000
0010
0000
1000
0000
,
0000
0000
0000
0000
0000
0000
0000
0000
0000
0000
0000
0000
0000
0000
0000
0000
0000
0000
0000
0000
0000
0000
0000
0000
0001
0000
0000
0000
0000
0000
0000
0000
0000
0000
0000
0000
0000
0000
0000
0000
0000
0000
0000
0000
0000
0000
0000
0000
1000
0000
0000
0000
0000
0000
0001
0000
0000
0000
0000
0000
1000
0000
0000
0000
0000
0000
0001
0000
0000
0000
0000
0000
1000
0000
0000
0000
0000
0000
0001
0000
0000
0000
0000
0000
1000
0000
0000
0000
0000
0000
0001
0000
0000
0000
0000
0000
1000
0000
0000
0000
0000
0000
0000
0000
0000
0000
0000
0000
0000
0000
0000
0000
0000
0000
0000
0000
0000
0000
0000
0000
0000
0000
0000
0000
0000
0000
0000
0000
0001
0000
0000
0000
0000
0000
0000
0000
0000
0000
0000
0000
0000
0000
0000
0000
1000
0000
0000
0000
0000
0000
0000
0000
0000
0000
0000
0000
0000
0000
0000
0000
0000
0000
0000
0000
0000
0000
0000
0000
0000
0000
0000
0000
0000
0000
0000
0000
0000
0000
0000
0000
0001
0000
0000
0000
0000
0000
0000
0000
0000
0000
0000
0000
,
0000
M2M1
0301
0010
,
0100
0000
0010
0000
0001
1000
0010
1000
0001
0000
0100
0000
0010
0000
0000
0000
,
1000
1001
0110
0001
,
1000
0000
0000
0000
0100
0000
0010
0000
0001
0000
0100
0001
0000
0010
0000
0100
,
0010
0001
0000
0000
1000
0000
0000
0000
1010
0000
0000
0000
0101
0000
0000
0000
,
0001
0010
0200
0000
0320
0000
0032
0000
,
0103
0000
0000
0000
0010
0000
0000
0100
0010
0000
1000
0000
0001
0000
0000
0000
,
1000
0000
0000
0000
0001
0000
0000
0000
1000
0000
0100
0000
0010
0100
00M0
0100
,
0010
M002
02M3
002M
,
0330
0000
0000
0000
1000
0001
1000
0001
1000
0000
0100
0000
0010
0000
0000
0000
,
0100
0000
1000
0010
0100
0000
0001
0000
,
0010
0000
0000
0000
0001
0000
1000
0100
0010
0000
0100
0010
0000
0001
0000
0100
,
0010
1000
0000
0000
0M02
0000
0000
0000
20M3
0000
0000
0000
002M
0000
0000
0000
,
3030
0000
0000
0000
1000
0010
1000
0010
1000
0000
0001
0000
0100
0000
0000
0000
,
0010
0000
0000
0000
0100
0010
1000
0001
0010
0000
00M0
0000
0100
0010
0001
0100
,
0010
1000
0001
0010
0100
0000
0000
0010
0001
0000
0100
0000
0010
0000
0000
0000
,
1000
0000
0010
0000
0100
0001
1000
0001
1000
0000
0001
0000
0100
0000
0000
0000
,
0010
0000
0000
0000
1000
0000
0000
0010
1000
0000
0010
0000
0100
0000
0000
0000
,
0001
0000
1000
0000
0001
0010
0001
0010
0001
0000
0000
0000
0100
0000
0000
0000
,
0001
0000
0100
0000
MM2M
0000
0030
2MMM
0000
0000
0000
0000
0000
0000
0000
0000
,
3000
0000
0000
0000
;

//---------------dance-double - ----------------
#NOTEDATA:;
#CHARTNAME:;
#STEPSTYPE:dance-double;
#DESCRIPTION:;
#CHARTSTYLE:;
#DIFFICULTY:Challenge;
#METER:8;
#RADARVALUES:0.478838,0.617688,0.372429,0.381513,0.195298,369.000000,328.000000,41.000000,42.000000,14.000000,0.000000,2.000000,0.000000,0.000000,0.478838,0.617688,0.372429,0.381513,0.195298,369.000000,328.000000,41.000000,42.000000,14.000000,0.000000,2.000000,0.000000,0.000000;
#CREDIT:;
#NOTES:
00000000
00000000
00000000
00000000
,
00000000
00000000
00000000
00000000
,
00000000
00000000
00000000
00000000
,
00000000
00000000
00000000
00000000
,
10200000
00000000
00000000
01300000
00000000
00000000
00000000
00010000
,
00100000
10000000
00100000
00010000
01000000
01000000
00200000
00000000
,
10300000
00000000
00000000
00110000
00000000
00000000
00000000
00010000
,
00200000
00000000
00000000
00000000
00301000
00000000
00000000
00000000
00001000
00010000
00000100
00001000
00000100
00010000
00001000
00100000
,
00020000
02030000
00200000
03300000
,
01000000
00010000
00100000
00001000
00010000
00000000
00011000
00000000
,
00020000
00000000
00030100
00000000
00001000
00000010
00000100
00000000
,
00000010
00000000
00001000
00000000
00000001
00000000
00000010
00000001
00000000
00000100
00000000
00000010
00001000
00000100
00000000
00000000
,
00002000
00003200
00020000
00030300
,
00000200
00000000
00020300
00000000
00032000
00000000
00103000
00010000
,
01000000
00000000
00100000
10000000
00010000
00000000
00100000
01000000
,
10000000
00000000
00000000
00000000
00010000
00000000
00000000
00000000
00100000
00001000
00000000
00010000
00000100
00000000
00000000
00000000
,
00002000
00003020
00000200
00000330
,
00000100
00000001
00000010
00001000
00000010
00000000
00000100
00000000
,
00000010
00000000
00000011
00000000
00000001
00000100
00000010
00000000
,
00001000
00000000
00000100
00000000
00000010
00000000
00000001
00000010
00000000
00000001
00000000
00000100
00000010
00001000
00000000
00000000
,
00000200
00020300
00002000
00033000
,
00002000
00203000
02300000
13000000
,
02000000
13000000
00020000
01030000
,
00100000
01000000
00100000
01000000
00100000
00000000
00000000
00000000
10000000
00010000
10000000
00010000
00100000
00010000
00100000
00010000
,
01000000
00000000
00000000
00101000
00000000
00011000
00000000
00000000
,
00000110
00000000
00000000
00000000
,
00001001
00000000
00000000
00001010
00000000
00001100
00000000
00000000
,
00101000
00000000
00000000
00010000
,
00011000
00000000
00000000
00110000
00000000
11000000
00000000
00000000
,
10100000
00000000
00000000
10000000
,
10100000
00000000
00000000
00110000
00000000
00101000
00000000
00000000
,
00022000
MMM00000
00000MMM
00033000
,
00000100
00000010
00000010
00000001
00000001
00000001
00000000
00000100
,
00000100
00000000
00000010
00000000
00001000
00001000
00000100
00000100
,
00010000
00010000
00001000
01000000
01000000
01000000
00000000
00100000
,
01100000
01010000
00101000
00010100
,
00001100
00001000
00001000
00000010
00000010
00000010
00000000
00000100
,
00000001
00000000
00001000
00000000
00000100
00000100
00000010
00000010
,
00000001
00000010
00000100
00001000
00000010
00000010
00000000
00000100
,
00000000
MMMMMMMM
00000000
00000000
00210000
00000000
00000000
00000000
01300000
00000000
00000000
00000000
00100000
00000000
00000000
00000000
,
00110000
00001000
00010000
00000000
00010100
00000000
00010000
00000100
,
00000001
00000100
00001000
00000010
00000001
00000010
00001000
00000100
,
00000000
00001000
00001100
00000000
00010100
00000000
00011000
00000000
,
00110000
00000000
00010000
01000000
10000000
01000000
00100000
10000000
,
00000000
00010000
00100000
00000000
00001000
00000000
00100000
00010000
,
00100000
10000000
00100000
00001000
00010000
00000100
00010000
00001000
,
00000000
00000000
00010000
00000000
00044000
00000000
00000000
00000000
00000000
00000000
00000000
00000000
00000000
00000000
00000000
00033000
,
00000000
00010200
00001300
00000010
,
00000100
00000000
00000001
00000000
00000010
00000100
00000010
00000100
00000010
00000100
00000010
00000100
00001000
00000000
00000000
00000000
,
00000001
00001001
00001010
00000100
,
00001000
00000000
00000000
00000000
00000100
00000000
00001000
00000000
00000100
00000000
00010000
00001000
00000000
01000000
00000000
00100000
,
10000000
01000000
00000000
00000000
20000000
00000000
00000000
00000000
30100000
00000000
00000000
00000000
01000000
00000000
00010000
00000000
,
00100000
00200000
00302000
00023000
,
00030200
00000000
00001300
00000000
00000100
00001000
00000010
00000000
,
00000100
00000000
00000000
00000000
00000001
00000000
00000000
00000000
00000100
00000000
00000010
00000000
00001000
00000010
00000000
00000100
,
00000001
00002000
00003002
00000020
,
00000033
00000000
00000001
00000000
00000100
00000010
00001000
00000000
,
00000100
00000000
00001000
00000000
00000100
00010000
00001000
00000000
,
00010000
00000000
00000000
00000000
00001000
00000000
00010000
00000000
00000100
00000000
00010000
00001000
00000000
00100000
00000000
01000000
,
10000000
00100000
00000000
00000000
02000000
00000000
00000000
00000000
03020000
00000000
00000000
00000000
00200000
00000000
00000000
00000000
,
00330000
00100000
00001000
00020000
,
00031000
00000000
00000000
00000000
00001000
00100000
00010000
01000000
00100000
00000000
00000000
00000000
01000000
00010000
00100000
00001000
,
00010000
00000100
00001000
00000010
00000200
00000000
00000000
00000000
00000310
00000000
00000000
00000000
00001000
00000000
00000000
00000000
,
00000001
00001001
00000110
00000010
,
00001000
00010100
00011000
00001000
,
00010000
00011000
00110000
00100000
,
01000000
00000000
00000000
10000000
00020000
00000000
00000000
01000000
00000000
00000000
00000000
00000000
00000000
00000000
00000000
00000000
,
00000000
00000000
00000000
00000000
,
00030000
00000000
00000000
00000000
;

//---------------dance-single - ----------------
#NOTEDATA:;
#CHARTNAME:;
#STEPSTYPE:dance-single;
#DESCRIPTION:;
#CHARTSTYLE:;
#DIFFICULTY:Medium;
#METER:5;
#RADARVALUES:0.386704,0.458156,0.445098,0.327011,0.000000,298.000000,249.000000,49.000000,36.000000,0.000000,0.000000,0.000000,0.000000,0.000000,0.386704,0.458156,0.445098,0.327011,0.000000,298.000000,249.000000,49.000000,36.000000,0.000000,0.000000,0.000000,0.000000,0.000000;
#CREDIT:;
#NOTES:
0000
0000
0000
0000
,
0000
0000
0000
0000
,
0000
0000
0000
0000
,
0000
0000
0000
0000
,
1010
0000
0000
0100
0000
0000
0000
0000
,
0010
0000
1000
0000
0001
1000
0001
0000
,
1100
0000
0000
0010
0000
0000
0000
0000
,
1001
0000
0000
0000
0001
0100
1000
0100
,
0002
2003
0200
3300
,
1000
0100
0110
0100
,
1000
0001
0100
0001
,
1000
0100
1000
0000
0100
0000
0110
0000
,
0020
0032
2000
3003
,
0002
0203
0020
0330
,
0100
0000
0010
0100
0001
0000
1000
0000
,
0001
0000
1000
0100
0110
0000
1100
0000
,
1002
2003
0020
3030
,
0100
0000
0001
0100
0010
0000
1000
0000
,
0001
0000
0010
0100
1000
0000
0100
0000
,
1000
0010
0100
0000
0010
0000
1000
0000
,
0002
2003
0200
3300
,
1000
0010
0200
0000
,
0310
0000
1000
0001
0100
0000
0001
0000
,
1000
1000
0001
0000
0100
0100
0010
0010
,
0110
0000
0000
0101
0000
1010
0000
0000
,
1001
0000
0000
0000
,
1100
0000
0000
0110
0000
0011
0000
0000
,
1001
0000
0000
0001
,
1001
0000
0000
0101
0000
1010
0000
0000
,
0110
0000
0000
1000
,
1001
0000
0000
1010
0000
0101
0000
0000
,
2002
0000
0000
3003
,
0110
0000
0010
0000
1000
0000
0010
0100
,
0001
1000
0100
1000
,
0010
0000
0100
0000
0001
0000
1000
0100
,
0110
1100
0220
0330
,
0100
0000
1000
0000
0010
0000
0100
0001
,
1000
0001
0010
0100
,
0010
0000
0001
0000
0100
0010
0000
1000
,
0001
0110
0100
0001
,
0101
0001
0100
0000
0010
0000
1000
0000
,
1001
1000
0100
0010
,
0011
0010
0100
0000
0110
0000
2002
0000
,
3003
0101
0001
0100
,
1010
0010
0100
0000
0001
0000
1000
0000
,
1001
0000
0001
0000
1000
0000
0010
0100
,
0001
2000
0000
0000
,
3000
0220
0000
0000
,
0330
0000
0100
0100
0010
1000
0001
0000
,
1000
1100
0101
0001
,
1000
0000
0001
1000
0010
0000
1000
0001
,
0100
0001
1000
0100
,
0010
0100
2000
0000
3020
0000
0230
0000
,
0000
0000
0310
0000
1000
0000
0001
0100
,
0010
1000
0001
0010
,
0100
2000
3200
0020
,
0330
0000
0100
0000
0010
0001
0100
0000
,
0010
0000
1000
0000
0001
1000
0010
0000
,
1000
0000
0001
0100
0010
0000
0100
0010
,
1000
0002
2003
0200
,
3300
0000
1000
0000
0100
1000
0010
0000
,
0100
0000
0010
0010
0100
0000
0010
0010
,
0100
0100
0110
0000
0010
0000
0100
0000
,
0010
0110
1001
1000
,
0001
1001
0110
0100
,
0010
0110
1001
0010
,
1001
0220
0000
0000
,
0000
0330
0000
0000
;

//---------------dance-single - ----------------
#NOTEDATA:;
#CHARTNAME:;
#STEPSTYPE:dance-single;
#DESCRIPTION:;
#CHARTSTYLE:;
#DIFFICULTY:Easy;
#METER:3;
#RADARVALUES:0.218007,0.335981,0.109004,0.072669,0.000000,168.000000,156.000000,12.000000,8.000000,0.000000,0.000000,0.000000,0.000000,0.000000,0.218007,0.335981,0.109004,0.072669,0.000000,168.000000,156.000000,12.000000,8.000000,0.000000,0.000000,0.000000,0.000000,0.000000;
#CREDIT:;
#NOTES:
0000
0000
0000
0000
,
0000
0000
0000
0000
,
0000
0000
0000
0000
,
0000
0000
0000
0000
,
1000
0000
0000
1000
0000
0000
0000
0000
,
0000
0000
0000
0000
,
0001
0000
0000
0001
0000
0000
0000
0000
,
0200
0000
0310
1000
,
0001
0010
0100
0000
,
0000
0000
0000
0000
,
0010
0000
0001
0000
,
1000
0000
0010
0000
,
0100
0010
1000
0000
,
0001
0000
1000
0000
,
0100
0000
1000
0000
,
0010
0000
0100
0010
,
1000
0001
0010
0000
,
0100
0000
0010
0000
,
0001
0000
1000
0000
,
0010
0000
0100
0000
,
0010
1000
0100
0000
,
1000
0000
0001
0000
,
0100
0000
0010
0000
,
1001
0000
0110
1001
,
0110
0000
0000
0010
0000
0010
0000
0000
,
0100
0000
0000
0000
,
0001
0000
0000
1000
0000
1000
0000
0000
,
0100
0000
0000
0010
,
0100
0000
0000
1000
0000
1000
0000
0000
,
0001
0000
0000
0100
,
0010
0000
0000
1000
0000
1000
0000
0000
,
2002
0000
0000
3003
,
0110
0000
0000
0010
0000
0010
0000
0000
,
0100
0010
1000
0000
,
1001
0000
0000
0001
0000
0001
0000
0000
,
1000
0100
0020
0000
,
0130
0000
0000
0010
0000
0010
0000
0000
,
0001
0000
1000
0000
,
0010
0000
0000
0100
0000
0100
0000
0000
,
0000
0000
0110
0000
0000
0010
0000
0010
,
0000
1000
0010
0100
,
0001
0000
1000
0000
0000
0100
0000
0100
,
0000
1000
0001
0020
,
0000
0000
0031
0000
0000
0100
0000
0100
,
0000
0001
1000
0100
,
1000
0000
0010
0000
0000
0100
0000
0100
,
0000
0010
2000
0000
0000
0000
0000
0000
,
3000
1001
0001
0010
,
0000
0001
1000
0100
,
0000
1000
1000
0001
,
0000
0100
0010
1000
,
0010
0100
0001
0010
,
0000
0100
0010
0001
,
0000
1000
0001
0100
,
0000
0010
1000
0100
,
0000
1000
0001
0100
,
0000
0010
0000
0100
,
0000
0001
0000
1000
,
0000
0100
0000
0010
,
0000
0100
1000
0010
,
0000
0100
0000
0010
,
0000
1000
0001
1000
,
0001
1001
0000
0000
,
0000
0010
0010
0000
,
0000
1001
0000
0000
,
0000
0010
0010
0000
,
0000
2002
0000
0000
,
0000
3003
0000
0000
;

//---------------dance-single - ----------------
#NOTEDATA:;
#CHARTNAME:;
#STEPSTYPE:dance-single;
#DESCRIPTION:;
#CHARTSTYLE:;
#DIFFICULTY:Beginner;
#METER:1;
#RADARVALUES:0.115492,0.180537,0.081753,0.000000,0.000000,89.000000,80.000000,9.000000,0.000000,0.000000,0.000000,0.000000,0.000000,0.000000,0.115492,0.180537,0.081753,0.000000,0.000000,89.000000,80.000000,9.000000,0.000000,0.000000,0.000000,0.000000,0.000000,0.000000;
#CREDIT:;
#NOTES:
// measure 0
0000
0000
0000
0000
,  // measure 1
0000
0000
0000
0000
,  // measure 2
0000
0000
0000
0000
,  // measure 3
0000
0000
0000
0000
,  // measure 4
0010
0000
0000
0000
,  // measure 5
0000
0000
0000
0000
,  // measure 6
1000
0000
0000
0000
,  // measure 7
0000
0000
0001
0001
,  // measure 8
1001
0000
0000
0000
,  // measure 9
0100
0000
0000
0000
,  // measure 10
0010
0000
0000
0000
,  // measure 11
1000
0000
0001
0000
,  // measure 12
0100
0000
0000
0000
,  // measure 13
0010
0000
0000
0000
,  // measure 14
1000
0000
0000
0000
,  // measure 15
0100
0000
0000
0000
,  // measure 16
1000
0000
0000
0000
,  // measure 17
0001
0000
0000
0000
,  // measure 18
0100
0000
0000
0000
,  // measure 19
0010
0000
0000
0000
,  // measure 20
0100
0000
0000
0000
,  // measure 21
0001
0000
0000
0000
,  // measure 22
1000
0000
0000
0000
,  // measure 23
0010
0000
0100
0000
,  // measure 24
1001
0000
0001
0000
,  // measure 25
1000
0000
0000
0000
,  // measure 26
0010
0000
0100
0000
,  // measure 27
0001
0000
0000
0000
,  // measure 28
1000
0000
0100
0000
,  // measure 29
0010
0000
0000
0000
,  // measure 30
0100
0000
1000
0000
,  // measure 31
1001
0000
0000
0000
,  // measure 32
0110
0000
0000
0000
,  // measure 33
0010
0000
0000
0000
,  // measure 34
0100
0000
0000
0000
,  // measure 35
0001
0001
0001
0000
,  // measure 36
1000
0000
0000
0000
,  // measure 37
0100
0000
0000
0000
,  // measure 38
1000
0000
0000
0000
,  // measure 39
0000
0110
0000
0000
,  // measure 40
0000
0010
0000
0000
,  // measure 41
0000
1000
0000
0000
,  // measure 42
0000
0100
0100
0100
,  // measure 43
0000
0010
0000
0000
,  // measure 44
0000
0001
0000
0000
,  // measure 45
0000
1000
0000
0000
,  // measure 46
0000
0110
0000
0000
,  // measure 47
0000
1001
0000
0000
,  // measure 48
0000
1000
0000
0000
,  // measure 49
0000
0010
0010
0000
,  // measure 50
0000
0100
0000
0001
,  // measure 51
0000
0010
0000
0000
,  // measure 52
0000
0100
0000
0000
,  // measure 53
0000
0010
0000
0000
,  // measure 54
0000
0001
0000
0000
,  // measure 55
0000
1000
1000
1000
,  // measure 56
0000
0001
0000
0000
,  // measure 57
0000
0100
0000
0000
,  // measure 58
0000
0001
0000
0000
,  // measure 59
0000
0010
0010
0010
,  // measure 60
0000
0001
0000
0000
,  // measure 61
0000
1000
0000
0001
,  // measure 62
0000
0110
0000
0000
,  // measure 63
0000
0010
0000
0000
,  // measure 64
0000
0100
0000
0000
,  // measure 65
0000
0010
0000
0000
,  // measure 66
0000
1001
0000
0000
;
