#VERSION:0.83;
#TITLE:Disable Mark;
#SUBTITLE:;
#ARTIST:RoughSketch REVET D-crew;
#TITLETRANSLIT:;
#SUBTITLETRANSLIT:;
#ARTISTTRANSLIT:;
#GENRE:;
#ORIGIN:;
#CREDIT:;
#BANNER:banner.png;
#BACKGROUND:background.png;
#PREVIEWVID:;
#JACKET:jacket.png;
#CDIMAGE:;
#DISCIMAGE:;
#LYRICSPATH:;
#CDTITLE:;
#MUSIC:Disable Mark.ogg;
#OFFSET:-1.770000;
#SAMPLESTART:21.462309;
#SAMPLELENGTH:14.769232;
#SELECTABLE:YES;
#BPMS:0.000=195.000;
#STOPS:202.000=1.538;
#DELAYS:;
#WARPS:;
#TIMESIGNATURES:0.000=4=4;
#TICKCOUNTS:0.000=4;
#COMBOS:0.000=1;
#SPEEDS:0.000=1.000=0.000=0;
#SCROLLS:0.000=1.000;
#FAKES:;
#LABELS:0.000=Song Start;
#BGCHANGES:;
#KEYSOUNDS:;
#ATTACKS:
;

//---------------dance-single - ----------------
#NOTEDATA:;
#CHARTNAME:;
#STEPSTYPE:dance-single;
#DESCRIPTION:;
#CHARTSTYLE:;
#DIFFICULTY:Hard;
#METER:9;
#RADARVALUES:0.607435,0.804391,0.262055,0.262055,0.240921,503.000000,472.000000,31.000000,31.000000,0.000000,0.000000,0.000000,0.000000,0.000000,0.607435,0.804391,0.262055,0.262055,0.240921,503.000000,472.000000,31.000000,31.000000,0.000000,0.000000,0.000000,0.000000,0.000000;
#CREDIT:;
#NOTES:
0000
0000
0000
0000
,
0000
0000
0000
0000
,
0000
0000
0000
0000
,
0000
0000
0000
0000
,
0000
0000
0000
0000
,
0000
0000
0000
0000
,
0000
0000
0000
0000
,
0000
0000
0000
0000
,
1001
0001
1000
0000
,
1000
0001
0100
0000
,
1001
0001
1000
0000
,
1000
0001
0010
0100
,
1001
1000
0001
1000
,
1001
0001
1000
0001
,
1001
1000
0001
1000
1001
0001
1000
0001
,
0200
0000
0000
0320
,
1030
0010
0100
0001
0010
0100
0010
0001
,
1000
0001
0010
0001
1000
0010
1000
0001
,
0100
0001
0010
0100
0010
0001
1000
0010
,
1000
0001
0010
1000
0010
0100
0010
0001
,
1000
0010
1000
0010
1000
0010
1000
0010
,
0200
0000
0301
0010
0001
0010
0001
1000
,
0200
0000
0310
0100
0010
0100
0010
0001
,
1000
0010
0100
0001
0011
0000
1100
0000
,
1000
0000
1000
0000
0001
0000
0100
0010
1000
0000
0001
0000
,
0010
0000
0010
0000
0100
0000
0010
0001
1000
0000
0010
0000
,
0100
0010
0100
0000
0010
0000
1000
0010
0100
0000
0001
0000
,
0010
0000
0000
0000
0100
0000
0000
0000
1000
0000
0000
0000
0000
0000
0000
0000
0001
0000
0000
0000
0000
0000
0000
0000
1000
0000
0000
0000
0010
0000
0000
0000
0100
0000
0000
0000
0000
0000
0000
0000
0001
0000
0000
0000
0000
1000
0000
0000
,
0100
0000
0000
0010
0001
0000
0000
0001
0100
0000
0000
0100
0010
0000
0000
0100
,
0001
0000
1000
0010
0100
0001
0010
0100
,
1000
0100
0010
0001
1000
0100
0010
0001
,
1001
0000
0110
0000
1010
0000
0101
0000
0011
0000
0110
0000
,
0000
0000
0000
0000
,
0020
0000
0230
0000
1300
0010
0200
0000
0302
0000
2003
0000
,
3100
0000
0000
0000
1000
0002
0000
0000
,
1003
0001
0100
0010
0100
0001
0010
0100
,
0020
0030
0200
2300
,
3010
0100
0001
0010
1000
0010
0100
0010
,
0001
0000
2000
0000
,
3010
0100
0001
1000
0100
1000
0001
1000
,
0001
0000
0011
0000
0010
0100
1100
0000
,
1000
0010
1000
0010
1000
0010
0200
0000
,
0301
0000
0000
0010
0010
0100
0010
0001
,
0100
0100
0010
1000
0001
0010
0100
0010
,
0001
0000
1000
0000
0001
0001
0100
0010
,
1000
1000
0001
0010
0001
0010
0010
0001
,
1000
0000
1000
0001
0100
0010
0001
0100
,
1000
0100
0010
1000
1000
0010
0100
0001
,
0010
0001
0010
0000
0100
1000
0100
0000
,
1001
0000
1000
0010
0000
0100
0002
0000
,
0000
0000
0013
1000
,
0000
0001
0000
0100
,
0001
0010
0000
0001
,
0000
1000
0000
0100
,
0000
1000
1000
0001
,
0000
0100
0000
0010
,
0000
1000
1000
0001
,
0000
0010
0000
0100
,
0010
0001
0010
0001
1000
0010
0200
0000
,
0302
0023
0230
0310
,
0001
0010
0000
0010
0200
0000
1300
0000
,
0002
2003
3020
2030
,
3200
0320
0230
1300
,
1000
0010
0000
0100
0001
0000
0010
0100
,
0000
0010
0001
0000
1000
0000
0220
0000
,
0330
0000
0000
0000
0000
0000
1000
0100
,
0001
0000
0001
0010
1000
0001
1000
0000
,
0010
0100
0001
0010
,
0100
0000
0010
0000
0001
1000
0010
0000
,
1000
0001
0010
0100
,
0010
0000
0000
0000
0001
0000
1000
0001
1000
0000
0001
0000
0100
0000
0000
0000
,
0010
1000
0010
0100
,
0001
0000
0010
0010
0010
0000
0001
0000
,
1000
0100
1000
0110
,
1001
0000
0110
0000
1001
0000
0001
1000
,
0100
0010
0001
1000
0010
0100
0001
0010
,
0001
1000
0010
0100
0001
0010
0100
0010
,
0001
1000
0010
1000
0010
0100
0001
0010
,
0100
0010
0001
1000
0010
1000
0100
0010
,
0100
0010
0001
0010
0001
0100
0001
0100
,
0010
0100
0010
1000
0010
0100
0001
0010
,
0100
0010
0001
1000
0010
0100
0101
0000
,
1010
0000
0000
0000
0101
0000
0000
0000
2000
0000
0000
0000
3001
0000
0000
1000
,
0010
0000
0000
0010
0100
0000
0000
0100
0001
0000
0000
0010
0100
0000
0000
0100
,
1000
0000
0000
1000
0001
0000
0000
0001
0100
0000
0010
0000
1000
0000
0000
1000
,
0100
0000
0000
0100
0010
0000
0000
0010
0001
0000
0000
0001
0100
0000
0000
0100
,
0010
0000
0000
0100
0001
0000
0000
0001
1000
0000
0000
1000
0100
0000
0010
0000
,
0000
0011
0000
0001
0100
1000
0000
1000
,
0100
0010
1000
0010
0001
0010
0100
0000
,
0010
0100
0001
0000
0000
0000
1000
0010
0100
0001
0010
0000
0000
0000
1001
0000
,
0000
0101
0000
0000
0011
0000
0000
1010
0000
0000
1001
0000
0000
0000
0000
0000
;

//---------------dance-single - X----------------
#NOTEDATA:;
#CHARTNAME:;
#STEPSTYPE:dance-single;
#DESCRIPTION:X;
#CHARTSTYLE:;
#DIFFICULTY:Edit;
#METER:12;
#RADARVALUES:0.800655,1.056249,0.228241,0.456482,0.672043,663.000000,636.000000,27.000000,54.000000,18.000000,0.000000,0.000000,0.000000,25.000000,0.800655,1.056249,0.228241,0.456482,0.672043,663.000000,636.000000,27.000000,54.000000,18.000000,0.000000,0.000000,0.000000,25.000000;
#CREDIT:;
#OFFSET:-1.770000;
#BPMS:0.000000=195.000000
,183.000000=390.000000
,185.000000=195.000000
,217.000000=97.500000
,235.000000=195.000000
,263.000000=97.500000
,265.000000=195.000000
,293.000000=97.500000
,295.000000=195.000000
,323.000000=97.500000
,325.000000=195.000000
;
#STOPS:218.000000=1.230766
;
#DELAYS:;
#WARPS:63.000000=8.000000
,72.000000=8.000000
;
#TIMESIGNATURES:0.000000=4=4
;
#TICKCOUNTS:0.000000=4
;
#COMBOS:0.000000=1
;
#SPEEDS:0.000000=1.000000=0.000000=0
;
#SCROLLS:0.000000=1.000000
;
#FAKES:;
#LABELS:0.000000=Song Start
;
#NOTES:
0000
0000
0000
0000
,
0000
0000
0000
0000
,
0000
0000
0000
0000
,
0000
0000
0000
0000
,
0000
0000
0000
0000
,
0000
0000
0000
0000
,
0000
0000
0000
0000
,
0000
0000
0000
0000
0000
0000
0002
0003
,
2010
3100
0010
0100
,
1000
0010
0100
0001
,
0021
0130
1000
0100
,
1000
0010
0100
0100
,
1002
0013
0100
1000
,
2001
3100
0010
0001
,
1000
0010
0100
0001
1000
0010
0100
0001
,
0010
0100
0000
0100
0000
0010
0002
0000
,
1003
0010
0100
0001
0010
0100
0010
0001
,
1000
0000
0000
0002
,
M003
00M0
0M00
000M
00M0
0M00
00M0
000M
,
M000
00M0
000M
00M0
0M00
000M
00M0
0000
,
1000
0010
0100
0001
0010
0100
0010
0001
,
1000
0010
0001
0010
0100
0001
0010
0100
,
1000
0010
0100
0001
0010
0100
0010
0001
,
1000
0100
0001
0100
1000
0100
0010
0100
,
1000
0001
0100
0001
1000
0100
0010
0100
,
2000
0000
3001
0010
0100
0010
0001
0010
,
0200
0000
0310
0001
1000
0010
0100
0001
,
1000
0100
0001
0100
0011
0000
1010
0000
,
1002
0000
0103
0000
0010
0000
1000
0001
0010
0000
0010
0000
,
0100
0000
1000
0000
0010
0000
0100
0001
1000
0000
0100
0000
,
2100
3100
1000
0000
0010
0000
0100
0001
0010
0000
0100
0000
,
0010
0001
1000
0000
0100
0000
1000
0010
0100
0000
0010
0100
,
0001
0100
0010
0000
1000
0000
0000
0100
0010
0001
1000
0000
0010
0000
1000
0000
,
0100
0000
0000
0010
0001
0000
1000
0000
0010
0000
1000
0000
0100
0000
0020
0000
,
0100
0030
0020
0000
0001
0030
0200
0000
0010
0300
2000
0000
0001
3000
0020
0000
,
0100
0000
0000
0030
0000
0000
0000
0000
1100
0000
0000
0000
0000
0000
0000
0000
0011
0000
0000
0000
0000
0000
0000
0000
0101
0000
0000
0000
0000
0000
0000
0000
1010
0000
0000
0000
0000
0000
0000
0000
1001
0000
0000
0000
0000
0000
0000
0000
,
1000
0100
0010
0100
1000
0010
0100
0001
0010
0100
0010
0001
0100
0010
1000
0001
,
0020
0000
0230
0000
0320
0032
2000
0003
3002
0000
0203
0000
,
0310
0000
1010
0000
2000
0020
0000
3030
,
0001
0100
0001
0000
0100
0000
0010
1000
0010
0000
0100
0000
0001
1000
0001
1000
,
0100
0000
0110
0000
0010
0001
1000
0000
,
0001
0000
0100
0010
1000
0000
0001
1000
0001
0000
1000
0010
1000
0000
0001
0000
,
0010
0000
0100
1000
0010
0200
0000
0000
,
0310
1000
0010
0000
0100
0000
0001
0010
0001
0000
0010
0000
0100
1000
0010
0000
,
0100
0000
0001
0010
0100
0000
0000
0000
0010
0000
0001
0000
1000
0000
0000
0000
,
0001
0000
0100
0010
1000
0000
0010
0100
0001
0010
0100
1000
0020
0000
0000
0000
,
0000
0000
0000
0000
0130
0000
0000
0000
0001
0000
1000
0010
1000
0010
1000
0010
,
0200
0000
0301
0100
0010
0100
0010
0100
0001
0100
0001
0100
0010
1000
0010
1000
,
0001
0000
1000
0000
0110
0000
0000
0000
0100
0000
0010
1000
0010
1000
0010
1000
,
0001
0000
0010
0001
0010
0001
0010
0000
0100
1000
0010
0000
0100
0001
1000
0100
,
0010
0100
1000
0001
0100
0000
0010
1000
0010
0000
0100
0001
0200
0000
0000
0000
,
0302
0000
0000
0000
0103
0000
0001
1000
0001
0000
1000
0010
1000
0010
1000
0010
,
1000
0010
0100
0000
0001
1000
0001
0000
0010
0000
0100
1000
0010
0000
0100
0000
,
0001
0100
0010
0000
1010
0000
1000
0010
0100
0000
0101
0000
0001
0100
0020
0000
,
0000
0000
0000
0000
0000
0000
0000
0000
0000
0000
0000
0000
0000
0000
0000
0000
1000
0030
0000
0000
0000
0000
0000
0000
0001
0000
0000
0000
1000
0000
0001
0000
,
0100
0010
1000
0100
0010
0000
0100
0010
0000
0100
1000
0000
0010
0000
0100
0001
,
0010
0100
0010
0001
1000
0010
0001
0010
0100
0010
0001
0010
0100
0000
0001
0100
,
0000
0010
1000
0000
0100
1000
0000
1000
0001
0100
0010
1000
0100
0000
0010
0100
,
1000
0010
0100
0001
0010
1000
0010
0000
0100
0000
0010
0000
0021
0000
0000
0000
,
0130
0010
0001
0100
0010
1000
0002
0000
,
0013
0002
0000
1003
0002
0000
0203
0000
,
0310
1000
0010
0100
0001
0010
0100
0010
,
0001
1000
0010
0100
0001
0010
0200
0000
,
0310
0002
0000
0103
0020
0000
1030
0002
,
0000
0000
1003
0000
0002
0000
0000
0000
0013
0000
0000
0000
MM00
00M0
M000
000M
,
M000
000M
M000
00M0
MM00
0000
0000
0000
0000
0000
0000
0000
1000
0100
0002
0000
,
0103
0010
0001
1000
1001
0000
0000
0000
0001
0000
0000
0000
1000
0000
0100
0000
,
0000
0010
0001
0000
0010
0100
0000
1000
,
0001
0000
0100
0000
0001
0000
0101
0000
0000
0000
0000
0000
1000
0000
0000
0000
0000
0000
0001
0000
0000
0010
0000
0000
,
0000
0100
0010
0000
0100
1000
0000
0100
,
0010
0000
0001
0000
0100
0000
0110
0000
0000
0000
0000
0000
0100
0000
0000
0000
0000
0000
0001
0000
0000
0100
0000
0000
,
0000
0010
1000
0000
0100
0010
0000
0100
,
1000
0000
0001
0000
0100
0000
0101
0000
0000
0000
0000
0000
0011
0000
0000
0000
0000
0000
0010
0000
0000
0100
0000
0000
,
1000
0000
0010
0000
0210
0000
2000
3000
0002
0003
2000
3000
0301
1000
0001
0000
,
0010
0001
1000
0010
0100
0001
0010
0100
,
0010
0001
1000
0010
0001
0010
0001
0100
,
0010
1000
0001
0010
0100
0010
0001
0100
,
1000
0000
0100
0000
0001
0000
0100
0000
0010
1000
0001
0000
0001
0000
0010
0000
,
1000
0010
0100
0010
0001
0100
1000
0100
,
0010
1000
0100
0001
0100
0010
0001
0100
,
1000
0000
0100
0000
0010
0000
1000
0000
0001
0000
0010
0000
0210
0000
0002
0003
,
2000
3000
0002
0003
1300
0000
0001
0100
0001
0000
0100
0010
0100
0000
0010
1000
,
0010
0000
1000
0001
1000
0000
0001
0010
0001
0000
0010
0100
0010
0000
0100
1000
,
0100
0000
1000
0000
0001
0000
1000
0010
0100
0000
0010
1000
0001
0000
0010
0100
,
1000
0000
0200
0310
0001
0000
0020
0031
0100
0000
0020
1030
0001
0000
2000
3001
,
0100
0000
0020
1030
0001
0000
1000
0000
0100
0000
0010
0100
1000
0000
0100
0010
,
0001
0000
1000
0000
0001
0000
0100
0010
1000
0000
0001
0000
0010
0000
0010
0001
,
1000
0000
0010
0000
0100
0001
1000
0100
0010
0001
0100
0010
1000
0001
0010
0100
,
1000
0010
0100
0001
0000
0000
1010
0000
01M0
0001
M000
0010
010M
0000
1000
0010
,
M000
0100
00M1
0000
MM00
0000
0000
0000
0000
0000
0000
0000
0000
0000
0000
0000
;

//---------------dance-single - ----------------
#NOTEDATA:;
#CHARTNAME:;
#STEPSTYPE:dance-single;
#DESCRIPTION:;
#CHARTSTYLE:;
#DIFFICULTY:Easy;
#METER:5;
#RADARVALUES:0.380402,0.536261,0.262055,0.101440,0.008453,315.000000,284.000000,31.000000,12.000000,0.000000,0.000000,0.000000,0.000000,0.000000,0.380402,0.536261,0.262055,0.101440,0.008453,315.000000,284.000000,31.000000,12.000000,0.000000,0.000000,0.000000,0.000000,0.000000;
#CREDIT:;
#NOTES:
0000
0000
0000
0000
,
0000
0000
0000
0000
,
0000
0000
0000
0000
,
0000
0000
0000
0000
,
0000
0000
0000
0000
,
0000
0000
0000
0000
,
0000
0000
0000
0000
,
0000
0000
0000
0000
,
1001
0000
0001
0000
,
1000
0000
0001
0000
,
1001
0000
1000
0000
,
0001
0000
1000
0001
,
1001
1000
0001
1000
,
1001
0001
1000
0001
,
1001
1001
1001
1001
,
0020
0000
0000
0030
,
1000
0010
0100
0001
,
0010
0000
0100
0000
0010
0000
0001
0010
,
0001
0010
0001
0100
,
0010
0000
1000
0000
0010
0000
0100
0010
,
0100
0010
1000
0001
,
2000
3100
1000
0010
,
0200
0310
1000
0001
,
0010
0100
1100
0110
,
0011
0001
0100
0010
,
1000
0001
0100
0010
,
1010
0010
1000
0001
,
0010
0001
0100
0001
,
1001
0001
0100
0010
,
0110
0010
0100
0010
,
1001
0110
1001
0110
,
0002
0000
0000
0000
0000
0000
0000
0003
,
0000
0000
0000
0000
,
0000
0000
0000
0000
,
1000
0000
0020
0000
,
0130
0010
1000
0001
,
0010
0000
0200
0000
,
1300
0100
1000
0010
,
0100
0000
0020
0000
,
0130
0001
1000
0100
,
0020
0030
0200
0300
,
0010
0001
1000
1002
,
0103
0000
0001
0100
,
0010
1000
0100
0010
,
0100
0000
0010
0001
,
0010
0100
1000
0100
,
1000
0000
0100
1000
,
0010
0100
0001
0010
,
0100
0010
0001
0100
,
0010
0000
0000
0100
0000
0001
0000
0000
,
0000
0000
0000
1000
,
0000
0001
0000
0100
,
0001
0100
0000
0001
,
0000
0010
0000
0100
,
0010
0100
1000
0001
,
0000
1000
0000
0010
,
1000
0010
0000
0100
,
0000
0001
0000
0010
,
0100
1000
0001
1000
,
0001
0100
0001
0010
,
0000
0100
0000
0000
0010
0000
0100
0000
,
1000
0010
0100
0001
,
1000
0001
0100
0001
,
0000
0010
0000
0000
0100
0000
0000
1000
,
0000
0001
1000
0220
,
0330
0000
0000
0000
0000
0000
0001
0100
,
0010
0000
0100
0010
1000
0000
1001
0000
,
0001
1000
0010
1000
,
0001
0010
0100
1100
,
0100
1000
0010
0100
,
0001
0010
0100
1100
,
0100
1000
0010
0100
,
0001
0010
0100
0110
,
0010
0001
1000
1001
,
1001
1001
1001
0001
,
0100
0001
1000
0010
,
1000
0001
0010
0100
,
0010
0001
0100
0010
,
1000
0001
1000
0100
,
1000
0010
0100
0001
,
0010
0100
0010
0001
,
0100
0010
1000
1001
,
1001
1001
0010
0100
,
0010
1000
0010
0100
,
0001
0010
0100
0010
,
0001
1000
0010
0100
,
0001
1000
0001
0100
,
0000
0001
0000
0010
0100
1000
0000
0100
,
1000
0010
0100
0001
,
0000
1000
0000
0000
0010
0000
0000
0100
,
0000
0010
0000
0000
1000
0000
0000
0001
0000
0000
0010
0000
0000
0000
0000
0000
;

//---------------dance-single - ----------------
#NOTEDATA:;
#CHARTNAME:;
#STEPSTYPE:dance-single;
#DESCRIPTION:;
#CHARTSTYLE:;
#DIFFICULTY:Medium;
#METER:8;
#RADARVALUES:0.524109,0.651174,0.118347,0.194428,0.173294,434.000000,420.000000,14.000000,23.000000,0.000000,0.000000,2.000000,0.000000,0.000000,0.524109,0.651174,0.118347,0.194428,0.173294,434.000000,420.000000,14.000000,23.000000,0.000000,0.000000,2.000000,0.000000,0.000000;
#CREDIT:;
#NOTES:
0000
0000
0000
0000
,
0000
0000
0000
0000
,
0000
0000
0000
0000
,
0000
0000
0000
0000
,
0000
0000
0000
0000
,
0000
0000
0000
0000
,
0000
0000
0000
0000
,
0000
0000
0000
0000
,
1010
0010
0100
0000
,
0010
1000
0001
0000
,
0011
0010
0100
0000
,
0010
0001
1000
1000
,
1001
0001
0100
0010
,
1010
0010
0100
0001
,
1000
0100
0010
0001
1000
0100
0010
0001
,
0100
1000
0000
0100
0000
0010
2000
0000
,
3100
1000
0010
0100
,
0001
0000
0010
0000
0100
0000
0010
0001
,
0100
0010
1000
0001
,
0010
0000
0000
0000
0100
0000
0000
0000
0010
0000
0000
0001
0100
0000
0000
0010
,
1000
0000
0100
0000
0010
0100
1000
0010
,
0200
0000
0310
0000
0100
0010
1000
0001
,
0020
0000
0130
0000
0010
0001
1000
0010
,
0100
1000
0100
0001
0020
0000
0230
0000
,
1300
0000
0001
0000
0100
0000
0010
0000
0010
0000
0100
0000
,
0001
0000
1000
0000
0100
0000
0010
0000
0010
0000
0100
0000
,
0010
0000
0010
0000
0001
0000
0100
0000
0100
0000
0010
0000
,
1000
0000
0000
0000
0000
0000
0000
0000
1000
0000
0000
0000
0000
0000
0000
0000
0001
0000
0000
0000
0000
0000
0000
0000
0010
0000
0000
0000
0000
0000
0000
0000
0010
0000
0000
0000
0000
0000
0000
0000
0100
0000
0000
0000
0000
0010
0000
0000
,
0001
0000
0000
0001
0100
0000
0000
0010
1000
0000
0000
1000
0001
0000
0000
0001
,
1000
0000
0010
1000
0100
0000
0010
0000
,
0100
0010
0001
0100
1000
0100
0010
1000
,
0001
0000
0010
0000
0100
0000
0010
0000
0001
0000
0100
0000
,
4004
0000
0000
0000
0000
0000
0000
0000
0000
0000
3003
0000
,
0001
0000
0100
0000
0010
1000
0100
0000
0010
0000
0100
1000
,
0001
0000
0200
0000
,
0310
1000
0100
1000
0010
0100
0001
0010
,
0100
0110
0200
2300
,
3001
1000
0010
1000
0001
0010
0100
0010
,
0011
0000
0200
0000
,
1300
0010
0100
0010
1000
0001
0010
0100
,
0010
0001
0100
0000
0010
1000
0001
0000
,
1000
0001
0100
0010
1000
0100
0020
0000
,
0130
0000
0000
1000
0001
0100
0000
0010
,
1000
0001
0010
0100
0010
0001
1000
0010
,
0100
0000
0000
0010
0100
0010
0000
0100
,
0010
1000
0001
0010
0100
0010
0001
1000
,
0100
0000
1000
0001
0200
0000
0320
0000
,
1030
0010
0100
0000
0010
1000
0001
0000
,
0010
0000
0100
1000
0000
0100
0010
0000
,
0011
0000
0001
0100
0000
0100
0020
0000
,
0000
0000
0030
1000
,
0000
0001
0000
0010
,
0001
0010
0000
0001
,
0000
0100
0000
0010
,
0100
0001
1000
0100
,
0000
0010
0000
0100
,
1000
0010
0000
0100
,
0000
0001
0000
1000
,
0001
0100
0001
0010
,
0001
0100
0010
1000
,
0010
1000
0000
1000
0001
0000
0010
0000
,
0100
0010
0001
0100
,
0010
1000
0001
1000
,
0001
0100
0000
0100
0010
0000
0010
1000
,
0000
1000
0100
0000
0010
0000
2002
0000
,
3003
0000
0000
0000
0000
0000
0001
0100
,
1000
0000
1000
0100
0001
0010
0100
0000
,
0010
0001
1000
0010
,
0100
0000
0000
0001
0000
0000
1000
0001
0100
0010
0000
0000
,
1000
0001
0010
0001
,
1000
0000
0000
0100
0000
0000
0010
0100
1000
0001
0000
0000
,
1000
0010
1000
0100
,
0010
0000
0000
0001
0000
0000
0010
0001
0100
0010
0000
0000
,
0100
0010
1000
0000
0001
0000
2000
0000
,
3200
0000
0320
0000
0032
0000
1003
0001
,
0010
0001
0100
0010
,
1000
0000
0100
0000
0010
0100
1000
0000
,
0100
1000
0001
0100
,
0010
0000
1000
0000
0001
1000
0100
0000
,
0010
0100
1000
0001
,
1000
0001
0100
0000
0010
0000
1000
0010
,
0100
0000
0001
1000
0100
0000
0020
0000
,
0230
0000
2300
0000
3002
0000
1003
0010
,
1000
0010
0100
0001
0100
0001
0010
0100
,
0010
0001
1000
0010
0100
0001
1000
0100
,
1000
0100
0010
0001
0010
0001
1000
0001
,
0100
0001
0010
0100
0010
0001
1000
0010
,
0000
0100
0000
0010
1000
0001
0000
0010
,
0100
0010
0001
0100
0010
1000
0001
0000
,
1000
0001
0000
0010
0100
1000
0000
0011
,
0000
0110
0000
0000
1100
0000
0000
0110
0000
0000
1001
0000
0000
0000
0000
0000
;

//---------------dance-single - ----------------
#NOTEDATA:;
#CHARTNAME:;
#STEPSTYPE:dance-single;
#DESCRIPTION:;
#CHARTSTYLE:;
#DIFFICULTY:Beginner;
#METER:2;
#RADARVALUES:0.113517,0.226339,0.042267,0.000000,0.000000,94.000000,89.000000,5.000000,0.000000,0.000000,0.000000,0.000000,0.000000,0.000000,0.113517,0.226339,0.042267,0.000000,0.000000,94.000000,89.000000,5.000000,0.000000,0.000000,0.000000,0.000000,0.000000,0.000000;
#CREDIT:;
#NOTES:
0000
0000
0000
0000
,
0000
0000
0000
0000
,
0000
0000
0000
0000
,
0000
0000
0000
0000
,
0000
0000
0000
0000
,
0000
0000
0000
0000
,
0000
0000
0000
0000
,
0000
0000
0000
0000
,
1000
0000
0000
0000
,
0000
0000
0000
0000
,
0001
0000
0000
0000
,
0000
0000
0000
0000
,
1000
0000
0000
0000
,
0001
0000
0000
0000
,
1000
0001
1000
0001
,
0100
0000
0000
0000
,
0010
0000
0000
0000
,
1000
0000
0001
0000
,
0010
0000
0000
0000
,
0100
0000
0010
0000
,
0001
0000
0000
0000
,
1000
0000
0000
0000
,
0100
0000
0000
0000
,
1000
0000
0001
0000
,
0100
0000
0000
0000
,
0010
0000
0000
0000
,
1000
0000
0000
0000
,
0001
0000
0000
0000
,
0010
0000
0000
0000
,
0001
0000
0000
0000
,
1000
0000
0001
0000
,
0100
0000
0000
0000
,
0000
0000
0000
0000
,
0000
0000
0000
0000
,
0110
0000
0010
0000
,
1000
0000
0000
0000
,
0001
0000
1000
0000
,
0100
0000
0000
0000
,
1000
0000
0010
0000
,
0100
0000
0000
0000
,
0010
0000
1000
0000
,
0001
0000
0000
1000
,
0001
0000
0000
0000
,
1000
0000
0000
0000
,
0010
0000
0000
0000
,
0100
0000
0000
0000
,
0001
0000
0000
0000
,
0010
0000
0000
0000
,
0100
0000
0000
0000
,
0010
0000
0000
0000
,
0000
0000
0000
0001
,
0000
0000
0000
0000
,
0000
0000
0000
1000
,
0000
0000
0000
0000
,
0000
0000
0000
0010
,
0000
0000
0000
0000
,
0000
0000
0000
0100
,
0000
0000
0000
0000
,
0000
0000
0000
1001
,
0000
0000
0000
0000
,
0000
0000
0000
1000
,
0000
0000
0000
0000
,
0000
0000
0000
0001
,
0000
0000
0000
1000
,
0000
0000
0000
0110
,
0000
0000
0000
0100
,
0000
0000
0000
0010
,
0000
0000
0000
0010
,
0000
0000
0000
1000
,
0000
0000
0000
1000
,
0000
0000
0000
0001
,
0000
0000
0000
0001
,
0000
0000
0000
0100
,
0000
0000
0000
0010
,
0010
0010
0010
1000
,
0000
0000
0000
0001
,
0000
0000
0000
0010
,
0000
0000
0000
0001
,
0000
0000
0000
0100
,
0000
0000
0000
0010
,
0000
0000
0000
1000
,
0000
0000
0000
0001
,
0001
0001
0000
1000
,
0000
0000
0000
0010
,
0000
0000
0000
0100
,
0000
0000
0000
0001
,
0000
0000
0000
0010
,
0000
0000
0000
0001
,
0000
0000
0000
1001
,
0000
0110
0000
0000
;

//---------------dance-double - ----------------
#NOTEDATA:;
#CHARTNAME:;
#STEPSTYPE:dance-double;
#DESCRIPTION:;
#CHARTSTYLE:;
#DIFFICULTY:Challenge;
#METER:9;
#RADARVALUES:0.634003,1.034217,0.202881,0.312775,0.257828,525.000000,501.000000,24.000000,37.000000,20.000000,0.000000,0.000000,0.000000,0.000000,0.634003,1.034217,0.202881,0.312775,0.257828,525.000000,501.000000,24.000000,37.000000,20.000000,0.000000,0.000000,0.000000,0.000000;
#CREDIT:;
#NOTES:
// measure 0
00000000
00000000
00000000
00000000
,  // measure 1
00000000
00000000
00000000
00000000
,  // measure 2
00000000
00000000
00000000
00000000
,  // measure 3
00000000
00000000
00000000
00000000
,  // measure 4
00000000
00000000
00000000
00000000
,  // measure 5
00000000
00000000
00000000
00000000
,  // measure 6
00000000
00000000
00000000
00000000
,  // measure 7
00000000
00000000
00000000
00100000
,  // measure 8
10020000
00130000
00001000
00000000
,  // measure 9
00010000
00000100
00001000
00000000
,  // measure 10
00001020
00000130
00000001
00000000
,  // measure 11
00000010
00000100
00001000
00001000
,  // measure 12
00001200
00010300
00001000
00100000
,  // measure 13
00210000
00301000
00010000
00000100
,  // measure 14
00010000
00001000
00100000
00010000
00100000
00001000
00010000
00000100
,  // measure 15
00001000
00000010
00000000
00000100
00000010
00001000
00000002
00000000
,  // measure 16
00000013
00000100
00000010
00000001
00001000
00000010
00001000
00000100
,  // measure 17
00001000
00000010
00000100
00000001
00000010
00000100
00001000
00000001
,  // measure 18
00001000
00000010
00001000
00000001
00000010
00000100
00000010
00000001
,  // measure 19
00001000
00000010
00001000
00000100
00001000
00000010
00000100
00000001
,  // measure 20
00001000
00000010
00001000
00000010
00001000
00000010
00001000
00000010
,  // measure 21
00020000
00000000
00030100
00010000
00000100
00010000
00000100
00001000
,  // measure 22
00000020
00000000
00000130
00000010
00001000
00000100
00001000
00000100
,  // measure 23
00010000
00001000
01000000
00100000
10000000
01000000
00010000
01000000
,  // measure 24
10000000
00000000
00010000
00000000
00100000
00000000
00001000
00010000
00000100
00000000
00001000
00000000
,  // measure 25
00000010
00000000
00000100
00000000
00000010
00000000
00001000
00000010
00001000
00000000
00000100
00000000
,  // measure 26
00010000
00000100
00010000
00000000
00001000
00000000
00100000
00010000
00100000
00000000
01000000
00000000
,  // measure 27
10000000
00000000
00000000
00000000
00010000
00000000
00000000
00000000
01000000
00000000
00000000
00000000
00000000
00000000
00000000
00000000
00100000
00000000
00000000
00000000
00000000
00000000
00000000
00000000
10000000
00000000
00000000
00000000
00010000
00000000
00000000
00000000
00100000
00000000
00000000
00000000
00000000
00000000
00000000
00000000
00001000
00000000
00000000
00000000
00000000
00010000
00000000
00000000
,  // measure 28
00001000
00000000
00000000
00001000
01000000
00000000
00000000
01000000
00100000
00000000
00000000
00100000
10000000
00000000
00000000
10000000
,  // measure 29
01000000
00000000
00100000
01000000
10000000
00100000
01000000
00010000
,  // measure 30
00200000
00301000
00020000
00030100
00002000
00003010
00000200
00000301
,  // measure 31
00000010
00000000
00000110
00000000
00001100
00000000
00010100
00000000
00011000
00000000
01010000
00000000
,  // measure 32
01200000
00000000
00000000
00000000
,  // measure 33
20300000
00000000
30020000
00000000
00130000
00001000
00020000
00000000
00030200
00000000
00001300
00000010
,  // measure 34
00000100
00000000
00000002
00000000
,  // measure 35
00001003
00001000
00000100
00001000
00000010
00000100
00000100
00000001
,  // measure 36
00001000
00001100
00000200
00020300
,  // measure 37
00031000
01000000
00100000
10000000
00010000
00100000
01000000
00100000
,  // measure 38
00010000
00000000
02000000
00000000
,  // measure 39
03100000
10000000
00010000
00100000
00001000
00010000
00000100
00001000
,  // measure 40
00000010
00000100
00000110
00000000
00000010
00001000
00001001
00000000
,  // measure 41
00000001
00000100
00000010
00001000
00000100
00010000
00000020
00000000
,  // measure 42
00000130
00000000
00000000
00000010
00000100
00000100
00000010
00001000
,  // measure 43
00000100
00010000
00001000
00100000
01000000
00100000
00010000
10000000
,  // measure 44
00100000
00000000
00000000
01000000
00100000
10000000
00010000
00100000
,  // measure 45
00001000
00010000
00000100
00001000
00000010
00000100
00000001
00000010
,  // measure 46
00000100
00000010
00000001
00001000
00000020
00000000
00002030
00000000
,  // measure 47
00003100
00000010
00000001
00000100
00000001
00001000
00000100
00000010
,  // measure 48
00000100
00001000
00001100
00000000
00000100
00010000
00011000
00000000
,  // measure 49
00101000
00000000
00001000
00100000
00000000
00100000
02000000
00000000
,  // measure 50
00000000
00000000
03000000
10000000
,  // measure 51
00000000
01000000
00000000
10000000
,  // measure 52
00100000
01000000
00000000
00100000
,  // measure 53
00000000
01000000
00000000
00010000
,  // measure 54
00100000
00001000
00010000
00000100
,  // measure 55
00000000
00001000
00000000
00000010
,  // measure 56
00000100
00000001
00000001
00001000
,  // measure 57
00000000
00000001
00000000
00000010
,  // measure 58
00000001
00001000
00000010
00002000
,  // measure 59
00003100
00010000
00001000
02000000
,  // measure 60
03100000
20000000
00000000
31000000
00200000
00000000
01300000
00000000
,  // measure 61
10000000
00000000
01000000
00000000
00100000
00000000
01000000
00100000
,  // measure 62
00010000
00100000
00001000
00010000
00000100
00001000
00000010
00000000
,  // measure 63
00000100
00000001
00000000
00000010
00000100
00000000
00000010
00000001
,  // measure 64
00000000
00001000
00000100
00000000
00010000
00000000
MMM22MMM
00000000
,  // measure 65
MMM33MMM
00000000
00000000
00000000
00000000
00000000
00001000
00100000
,  // measure 66
00020000
00000000
01030000
10000000
01000000
00010000
00100000
00000000
,  // measure 67
00001000
00010000
00000100
00001000
,  // measure 68
00000010
00000000
00000000
00000100
00000000
00000000
00000001
00000100
00000010
00001000
00000000
00000000
,  // measure 69
00000010
00001000
00000100
00010000
,  // measure 70
00001000
00000000
00000000
00100000
00000000
00000000
01000000
00100000
00010000
10000000
00000000
00000000
,  // measure 71
00100000
01000000
00010000
00100000
,  // measure 72
00001000
00000000
00000000
00010000
00000000
00000000
00000100
00010000
00000100
00001000
00000000
00000000
,  // measure 73
00000100
00000010
00000100
000M1200
,  // measure 74
0001M000
00000000
000M1000
00000000
0001M300
00000000
00000100
00000100
,  // measure 75
00001000
00000010
00000100
00000001
00001000
00000100
00010000
00001000
,  // measure 76
00100000
00000000
00010000
00000000
01000000
00000000
00100000
00000000
01000000
00100000
10000000
00000000
01000000
00000000
10000000
00000000
,  // measure 77
00010000
00100000
00001000
00010000
00000010
00000100
00000001
00000010
,  // measure 78
00000100
00000000
00000010
00000000
00000001
00000000
00001000
00000000
00000010
00000100
00000001
00000000
00001000
00000000
00000010
00000000
,  // measure 79
00010000
00001000
00100000
00010000
01000000
00100000
10000000
00010000
,  // measure 80
00100000
00000000
01000000
00000000
00100000
00000000
00010000
00000000
10000000
00010000
10000000
00000000
10000000
00000000
00010000
00000000
,  // measure 81
00100000
01000000
10000000
01000000
00100000
00010000
0021M000
00000000
,  // measure 82
000M1000
00000000
0001M000
00000000
003M1000
00000000
00100000
00001000
,  // measure 83
00010000
00000100
00001000
00000010
00001000
00000100
00010000
00001000
,  // measure 84
00100000
00010000
01000000
00001000
00100000
00001000
00010000
00000010
,  // measure 85
00000100
00000010
00010000
00001000
01000000
00200000
10300000
00020000
,  // measure 86
00130000
00000000
00002000
00000000
00013000
00000000
00000020
00000000
00000130
00000000
00000010
00000000
00001000
00000010
00000100
00000000
,  // measure 87
00000001
00000000
00001000
00000010
00000100
00000000
00000010
00010000
00001000
00000000
00000100
00000000
00000000
00000000
00000100
00010000
,  // measure 88
00001000
00000000
00010000
00001000
01000000
00000000
00100000
00000000
10000000
00100000
10000000
00000000
00100000
01000000
00010000
00100000
,  // measure 89
01000000
00100000
00010000
10000000
00100000
10000000
01000000
00100000
01000000
10000000
00010000
00000000
00000000
00000000
10010000
00000000
,  // measure 90
00000000
00110000
00000000
00000000
00101000
00000000
00000000
00010100
00000000
00000000
00001010
00000000
00000000
00000000
00000000
00000000
;
