#VERSION:0.83;
#TITLE:Crazy Jackpot;
#SUBTITLE:;
#ARTIST:Hommarju;
#TITLETRANSLIT:;
#SUBTITLETRANSLIT:;
#ARTISTTRANSLIT:;
#GENRE:;
#ORIGIN:;
#CREDIT:;
#BANNER:banner.png;
#BACKGROUND:background.png;
#PREVIEWVID:;
#JACKET:jacket.png;
#CDIMAGE:;
#DISCIMAGE:;
#LYRICSPATH:;
#CDTITLE:;
#MUSIC:Crazy Jackpot.ogg;
#OFFSET:-1.000000;
#SAMPLESTART:34.882355;
#SAMPLELENGTH:11.294117;
#SELECTABLE:YES;
#BPMS:0.000=170.000;
#STOPS:;
#DELAYS:;
#WARPS:;
#TIMESIGNATURES:0.000=4=4;
#TICKCOUNTS:0.000=4;
#COMBOS:0.000=1;
#SPEEDS:0.000=1.000=0.000=0;
#SCROLLS:0.000=1.000;
#FAKES:;
#LABELS:0.000=Song Start;
#BGCHANGES:;
#KEYSOUNDS:;
#ATTACKS:
;

//---------------dance-single - ----------------
#NOTEDATA:;
#CHARTNAME:;
#STEPSTYPE:dance-single;
#DESCRIPTION:;
#CHARTSTYLE:;
#DIFFICULTY:Hard;
#METER:9;
#RADARVALUES:0.588242,0.608777,0.304388,0.152194,0.215608,487.000000,451.000000,36.000000,18.000000,0.000000,0.000000,0.000000,0.000000,0.000000,0.588242,0.608777,0.304388,0.152194,0.215608,487.000000,451.000000,36.000000,18.000000,0.000000,0.000000,0.000000,0.000000,0.000000;
#CREDIT:;
#NOTES:
0000
0000
0000
0000
,
0000
0000
0000
0000
,
0000
0000
0000
0000
,
0000
0000
0000
0000
,
1000
0000
0000
0001
0010
0000
0001
0000
0100
0000
0000
0010
1000
0000
0100
0000
,
0010
0000
0000
0100
1000
0000
0001
0000
0100
0000
0000
0010
1000
0000
0001
0000
,
1000
0100
0010
0001
1000
0000
1001
0000
,
0001
0100
1000
0010
0001
0000
1001
0000
,
0101
0000
0010
0000
1000
0001
1000
0001
,
0000
0010
0100
0000
0010
0001
1000
0010
,
0100
0000
0001
0000
0010
0100
0010
0100
,
0000
0010
0001
0000
0100
1000
0010
0100
,
0010
0000
1000
0000
0001
0010
0001
0010
,
0000
0100
0010
0000
0100
1000
0010
1000
,
0100
0000
0010
0000
0100
1000
0100
1000
,
0000
0100
0010
0000
0100
0010
0001
1000
,
0010
1000
0002
0000
2003
0000
3200
0000
,
0310
0100
2000
0000
3200
0000
0320
0000
,
0130
1000
0002
0000
0203
0000
0320
0000
,
0130
0001
2000
0000
3002
0000
0023
0000
,
0130
0100
0100
0100
,
0100
0100
0100
0100
,
0100
0010
0001
1000
,
0100
0010
0001
0000
,
1000
0001
0100
0001
1000
0100
0010
0100
,
0000
0010
0100
1000
0010
0001
0010
0100
,
0001
1000
0001
0100
0001
1000
0100
0010
,
0000
0100
1000
0001
0100
1000
0100
0001
,
0100
0010
1000
0010
0100
0001
0010
0100
,
0000
0010
0001
1000
0010
0001
0010
0100
,
0010
0001
1000
0001
0010
1000
0010
0001
,
0000
0001
0010
0100
1000
0100
0010
0100
,
1000
0000
0001
0000
0100
0000
0001
0100
0000
0010
0000
1000
0100
0000
0000
0000
,
1000
0000
0001
0000
0010
0000
0100
0010
0000
0001
0000
1000
0010
0000
0000
0000
,
1000
0000
0100
0000
0010
0000
0100
1000
0000
0010
0000
0100
0001
0000
0000
0000
,
0010
0000
0001
0000
1000
0000
0010
1000
0000
0100
0000
1000
0001
0000
0000
0000
,
1000
0000
0000
0000
0001
0000
0000
0000
0010
0000
0000
0100
0000
0000
0010
0000
,
0000
0000
0100
0000
0010
0000
0000
0000
0100
0000
0000
1000
0000
0000
0001
0000
,
0100
0000
0000
0000
0001
0000
0000
0000
0100
0000
0000
0010
0000
0000
0100
0000
,
0001
0000
0000
0001
0010
0000
0000
0010
0100
0000
0000
0100
1000
0000
0000
1000
,
0001
0000
0001
0000
,
0001
0000
0000
0000
0001
0000
0001
1000
,
0010
0000
0010
0000
,
0010
0000
0000
0000
0010
0000
0010
0100
,
0001
0000
0001
0000
,
0001
0000
0000
0000
0001
0000
0001
1000
,
0100
0000
0100
0000
,
0100
0010
0001
1000
0001
0001
1000
1000
,
1001
0110
1001
0110
,
1001
0110
1001
0110
,
1010
0101
1010
0101
,
1100
0000
0000
0100
0010
0000
0000
0010
0001
0000
0000
0001
1000
0000
0000
1000
,
0001
1100
0011
1100
,
0011
1100
0011
1100
,
1001
0110
1001
0110
,
2002
0000
0000
3003
,
0001
0100
0001
0100
0001
0000
0101
0000
,
1000
0010
1000
0010
1000
0000
1010
0000
,
1000
0100
0010
0001
0010
0010
0010
0000
,
0001
0010
0100
1000
0100
0100
0100
0000
,
1000
0100
0010
0001
0010
0100
1000
0000
,
0001
0010
0100
1000
0100
0010
0001
0000
,
1000
0001
0100
1000
0100
0000
0001
0000
,
1000
0100
0001
0010
1000
0000
1001
0000
,
0001
0000
1000
0010
0000
0100
0010
0000
1000
0000
0001
0000
0020
0000
0000
0000
,
0130
0000
0010
0001
0000
0010
0100
0000
0010
0000
0001
0000
1000
0000
0001
0000
,
1000
0000
0010
1000
0000
0100
0010
0000
0100
0000
1000
0000
0020
0000
0000
0000
,
0130
0000
0001
0010
0000
0100
0010
0000
0001
0000
0100
0000
0001
0000
1000
0000
,
0100
0000
1000
0010
0000
0100
0010
0000
0100
0000
0001
0000
2000
0000
0000
0000
,
3100
0000
0010
0100
0000
0010
0001
0000
0010
0000
0001
0000
1000
0000
0010
0000
,
0100
0000
0001
1000
0000
0100
1000
0000
0100
0000
1000
0000
0002
0000
0000
0000
,
1003
0100
0001
0010
1000
0000
1001
0000
,
1000
0000
0100
0000
0000
0100
0000
0000
0100
0000
0000
0100
0000
0000
0100
0000
,
0000
0100
0000
0000
0100
0000
0000
0100
0000
0000
0100
0000
0010
0000
0001
0000
,
0000
0000
1000
0000
0000
1000
0000
0000
1000
0000
0000
1000
0000
0000
1000
0000
,
0001
0100
0001
0100
0101
0000
1010
0000
,
0000
0000
0001
0000
0000
1000
0000
0000
0010
0000
0000
1000
0000
0000
0001
0000
,
0000
0010
0000
0000
0100
0000
0000
0010
0000
0000
0001
0000
0010
0000
0100
0000
,
0010
0001
0100
1000
0100
0000
0010
0000
,
1000
0100
0001
0010
1000
0000
1001
0000
,
0110
0000
0000
0000
;

//---------------dance-single - ----------------
#NOTEDATA:;
#CHARTNAME:;
#STEPSTYPE:dance-single;
#DESCRIPTION:;
#CHARTSTYLE:;
#DIFFICULTY:Challenge;
#METER:11;
#RADARVALUES:0.768218,0.913165,0.456582,0.160649,0.532679,636.000000,582.000000,54.000000,19.000000,0.000000,0.000000,0.000000,0.000000,0.000000,0.768218,0.913165,0.456582,0.160649,0.532679,636.000000,582.000000,54.000000,19.000000,0.000000,0.000000,0.000000,0.000000,0.000000;
#CREDIT:;
#NOTES:
0000
0000
0000
0000
,
0000
0000
0000
0000
,
0000
0000
0000
0000
,
0000
0000
0000
0000
,
1000
0000
0001
0100
0001
0100
0001
0000
1000
0000
0010
0100
0010
0100
0010
0000
,
1000
0000
0100
0010
0100
0010
0100
0000
1000
0000
0001
1000
0001
1000
0001
0000
,
1000
0010
0001
0010
0200
0000
0302
0000
,
1003
0100
0001
0010
1000
0000
1001
0000
,
0001
0100
0010
1000
0001
0001
1000
1000
,
0000
1000
0001
0001
0010
0010
0100
0010
,
0001
1000
0010
0100
0001
0001
0010
0010
,
0000
0100
0010
0010
0100
1000
0010
0100
,
0001
1000
0010
1000
0100
0100
1000
1000
,
0000
0100
1000
1000
0001
0100
0001
0010
,
0100
0010
0001
0001
0010
0001
1000
1000
,
0000
0001
0001
0010
0100
0100
0010
0001
,
2001
0010
0001
3010
,
1002
0010
1000
0013
,
2001
0100
0001
3100
,
1002
0100
1000
0100
,
1003
1000
1000
1000
,
1000
1000
1000
1000
,
1000
0100
0010
0001
,
1000
0000
0200
0000
0020
0000
0300
0030
,
1001
0000
0001
0100
0001
0100
0001
0100
0001
1000
0010
0000
0100
0001
1000
0000
,
0000
0000
0100
0010
0001
1000
0001
1000
0001
0010
0001
0000
1000
0100
1000
0000
,
0001
0000
1000
0010
0100
0001
0100
0001
0100
0001
0010
0000
0100
1000
0001
0000
,
0000
0000
1000
0010
0100
0001
0100
0001
0010
0001
0010
0000
0100
1000
0100
0000
,
0010
0000
0001
1000
0100
1000
0001
1000
0010
1000
0010
0000
0100
0001
0100
0000
,
0000
0000
0001
0010
0100
1000
0100
1000
0100
0010
0001
0000
0010
0100
1000
0000
,
0001
0000
1000
0010
1000
0010
1000
0010
0100
0001
0010
0000
0100
0010
0001
0000
,
0000
0000
1000
0100
0010
0100
0010
0100
0010
0001
0100
0000
0010
1000
0001
0010
,
0100
0000
0010
0000
0001
0000
0100
0010
0000
0010
0000
0010
1000
0000
0001
0000
,
0010
0000
0100
0000
0010
0000
0001
1000
0000
1000
0000
1000
0010
0000
0000
0000
,
0100
0000
0001
0000
0010
0000
0100
1000
0000
1000
0000
1000
0010
0000
0100
0000
,
0001
0000
1000
0000
0010
0000
1000
0100
0000
0100
0000
0100
0010
0000
0000
0000
,
0100
0000
0000
0000
1000
0000
0000
0000
0010
0000
0000
0100
0000
0000
0010
0000
,
0000
0000
1000
0000
0001
0000
0000
0000
1000
0000
0000
0100
0000
0000
1000
0000
,
0010
0000
0000
0000
0100
0000
0000
0000
0001
0000
0000
1000
0000
0000
0001
0000
,
1000
0000
1000
0100
1000
0000
0100
0010
0100
0000
0010
0001
0010
0000
0001
1000
,
0001
0000
0001
0000
,
0001
0000
0000
0000
0000
0000
0000
0000
0001
0000
0000
0000
1000
0001
1000
0001
,
1000
0000
1000
0000
,
1000
0000
0000
0000
0000
0000
0000
0000
1000
0000
0000
0000
0001
1000
0001
1000
,
0001
0000
0001
0000
,
0001
0000
0000
0000
0000
0000
0000
0000
0001
0000
0000
0000
1000
0001
1000
0001
,
1000
0000
1000
0000
,
0001
0000
1000
0000
0010
0000
1000
0000
0001
0000
1000
0000
0010
1000
0010
0000
,
1001
0001
1001
1000
1001
0001
1001
1000
,
1001
0001
1001
1000
1001
0001
1001
1000
,
1001
0001
1001
1000
1001
0001
1001
1000
,
1001
0000
0001
0100
0010
0000
1000
0100
0010
0000
0100
0010
0001
0000
0001
1000
,
0010
0100
0110
0010
0110
0100
0110
0010
,
0110
0100
0110
0010
0110
0100
0110
0010
,
0110
0100
0110
0010
0110
0100
0110
0010
,
2002
0000
0000
3003
,
1000
0010
0100
0001
0011
0000
1100
0000
,
0100
0010
0001
1000
1010
0000
1100
0000
,
1000
0100
0010
0100
1100
1100
1100
0000
,
1000
0010
0100
0001
0101
0101
0101
0000
,
0001
0100
1000
0100
0110
1010
1100
0000
,
1000
0010
0001
0010
0110
0101
0011
0000
,
0001
0010
1000
0010
0002
0000
2003
0000
,
3001
0100
1000
0010
0001
0000
1001
0000
,
1000
0000
0001
0100
0000
0001
0010
0000
0100
0010
0100
0000
2000
0000
0000
0000
,
3100
0000
1000
0100
0000
0010
0001
0000
0010
0001
0010
0001
0100
0000
0010
0000
,
1000
0000
0001
0010
0000
0001
0100
0000
0010
1000
0010
0000
0200
0000
0000
0000
,
0310
1000
0001
0010
0000
0100
0010
0000
0100
1000
0100
1000
0001
0100
0001
0100
,
0001
0000
1000
0010
0000
0100
0010
0000
1000
0001
1000
0000
0200
0000
0000
0000
,
0310
0000
0100
1000
0000
0100
0010
0000
0100
1000
0100
1000
0200
0000
0000
0000
,
1300
0000
0001
0100
0000
0010
1000
0000
0001
1000
0001
0000
0020
0000
0000
0000
,
0031
0100
1000
0010
0001
0000
1001
0000
,
0110
0000
0001
0000
0100
0010
0000
1000
0100
0000
0010
0001
0000
0010
0100
0000
,
1000
0100
0000
1000
0010
0000
0100
0001
0000
1000
0001
0000
0100
0000
0100
0000
,
0000
0000
0010
0000
1000
0010
0000
0100
0001
0000
0010
0100
0000
0010
0001
0000
,
1000
1000
0001
0001
1001
0000
0110
0000
,
1000
0000
0001
0000
0010
0100
0000
0010
0001
0000
0100
0010
0000
1000
0001
0000
,
0010
0100
0000
0010
0001
0000
0100
0010
0000
1000
0001
0000
1000
0000
1000
0000
,
0001
0100
1000
0100
0020
0000
2030
0000
,
3001
1000
0100
0001
0010
0000
1001
0000
,
0110
0000
0000
0000
;

//---------------dance-single - ----------------
#NOTEDATA:;
#CHARTNAME:;
#STEPSTYPE:dance-single;
#DESCRIPTION:;
#CHARTSTYLE:;
#DIFFICULTY:Medium;
#METER:6;
#RADARVALUES:0.452959,0.608777,0.279023,0.262112,0.000000,375.000000,342.000000,33.000000,31.000000,0.000000,0.000000,0.000000,0.000000,0.000000,0.452959,0.608777,0.279023,0.262112,0.000000,375.000000,342.000000,33.000000,31.000000,0.000000,0.000000,0.000000,0.000000,0.000000;
#CREDIT:;
#NOTES:
0000
0000
0000
0000
,
0000
0000
0000
0000
,
0000
0000
0000
0000
,
0000
0000
0000
0000
,
1001
0000
0001
0010
0001
0000
1000
0100
,
1000
0000
0010
1000
0010
0000
0100
0001
,
1000
0100
0020
0032
,
0013
0001
0100
0010
2000
0000
3002
0000
,
0013
0001
0100
0100
,
0000
0001
1000
1000
,
0100
1000
0010
0100
,
0000
0100
0010
1000
,
0001
0010
0100
0100
,
0000
0010
0001
1000
,
0100
1000
0001
0001
,
0000
1000
0001
0100
,
0020
2030
3200
0310
,
0200
2300
3020
0130
,
0020
0230
0302
0013
,
0200
0320
0032
0203
,
0310
0010
0010
0010
,
0010
0010
0010
0010
,
0010
1000
0100
0010
,
0001
1000
0100
0000
,
1001
0000
0001
0000
0100
0001
0100
0001
,
0000
0100
0010
0000
1000
0000
0100
0000
,
0010
0000
0100
0000
1000
0001
1000
0001
,
0000
1000
0001
0000
0100
0000
0001
0000
,
0010
0000
0100
0000
1000
0100
1000
0100
,
0000
1000
0100
0000
1000
0000
0010
0000
,
0100
0000
0001
0000
0100
0010
0100
0010
,
0000
0100
0010
0000
0100
0000
0010
0000
,
1000
0010
0100
0000
0001
0000
1000
0000
,
0001
0010
0100
0000
0010
0000
0001
0000
,
1000
1000
0001
0000
0100
0000
0010
0000
,
1000
1000
0100
0000
0010
0000
0100
0000
,
1100
0100
1000
1000
,
0001
0100
0010
0100
,
0001
0001
1000
0001
,
1000
0100
0010
0001
,
1001
0000
1000
0000
,
1000
0000
0000
0000
1000
0000
0001
1000
,
0001
0000
0001
0000
,
0001
0000
0000
0000
0001
0000
1000
0001
,
1000
0000
1000
0000
,
1000
0000
0000
0000
1000
0000
0001
1000
,
0001
0000
0001
0000
,
1000
0100
0010
0001
,
1001
1001
1001
1001
,
1001
1001
1001
1001
,
0110
0110
0110
0110
,
1010
0101
1010
0101
,
1100
1100
1100
1100
,
0011
0011
0011
0011
,
1001
1001
1001
1001
,
0220
0000
0000
0330
,
0010
1000
0010
1000
0010
0000
1000
0000
,
0001
0100
0001
0100
0001
0000
1000
0000
,
0001
0010
0001
0010
0001
0010
0001
0000
,
1000
0100
1000
0100
1000
0100
1000
0000
,
1000
0001
1000
0001
1000
0001
1000
0000
,
0001
1000
0001
1000
0001
1000
0001
0000
,
0001
1000
0020
2030
,
3100
1000
0010
0100
0002
0000
2003
0000
,
3100
0000
1000
0000
0010
1000
0010
0000
,
0100
0000
0001
0000
0010
0010
0100
0000
,
0010
0000
0001
0000
1000
0001
0100
0000
,
0010
0100
0001
1000
0100
0010
0100
0000
,
0010
0000
0001
0000
0010
0100
0100
0000
,
0010
0000
0001
0000
1000
0001
0001
0000
,
0100
0000
0010
0000
1000
1000
0010
0000
,
0100
0010
1000
0001
0020
0000
0230
0000
,
0310
0001
0010
0001
,
0100
0000
0010
0000
1000
0000
0001
1000
,
0100
1000
0010
0100
,
0001
0100
0001
0100
0002
0000
2003
0000
,
3001
0010
0001
0010
,
0100
0000
1000
0000
0100
0000
1000
0010
,
0100
0010
2000
3002
,
1003
0100
0001
0100
2000
0000
3020
0000
,
0130
0000
0000
0000
;

//---------------dance-single - ----------------
#NOTEDATA:;
#CHARTNAME:;
#STEPSTYPE:dance-single;
#DESCRIPTION:;
#CHARTSTYLE:;
#DIFFICULTY:Easy;
#METER:4;
#RADARVALUES:0.295933,0.439672,0.194470,0.000000,0.000000,245.000000,222.000000,23.000000,0.000000,0.000000,0.000000,0.000000,0.000000,0.000000,0.295933,0.439672,0.194470,0.000000,0.000000,245.000000,222.000000,23.000000,0.000000,0.000000,0.000000,0.000000,0.000000,0.000000;
#CREDIT:;
#NOTES:
0000
0000
0000
0000
,
0000
0000
0000
0000
,
0000
0000
0000
0000
,
0000
0000
0000
0000
,
1000
0000
0001
0000
,
0100
0000
0010
0000
,
1000
0010
0100
0001
,
1000
0100
0110
1001
,
0110
0000
0000
0000
,
0000
0000
0000
0000
,
0100
0000
0000
0000
,
0000
0000
0000
0000
,
0010
0000
0000
0000
,
0000
0000
0000
0000
,
1000
0000
0000
0000
,
0000
0000
0000
0000
,
0001
0000
1000
0000
,
0010
0000
1000
0000
,
0100
0000
1000
0000
,
0001
0000
0100
0000
,
0010
0100
0010
0100
,
0010
0100
0010
0100
,
0010
1000
0001
0100
,
0010
1000
0001
0000
,
1001
0001
0010
0010
,
0000
0001
1000
0100
,
1000
0010
0100
0100
,
0000
0010
1000
0001
,
0010
0001
1000
1000
,
0000
0001
1000
0010
,
1000
0100
0010
0100
,
0000
0010
0001
1000
,
0001
0100
0001
1000
,
0100
1000
0001
1001
,
1000
0001
0010
0001
,
1000
0010
1000
1001
,
0001
0000
1000
0000
,
0010
0000
0100
0000
,
0001
0000
0010
0000
,
0100
0010
0001
1000
,
1001
0000
0001
0000
,
0001
0000
0001
0000
,
1000
0000
1000
0000
,
1000
0000
1000
0000
,
0010
0000
0010
0000
,
0010
0000
0010
0000
,
0100
0000
0100
0000
,
0100
0010
1000
0001
,
1000
0100
0010
0001
,
1000
0100
0010
0001
,
1000
0100
0010
0001
,
1000
1000
0001
0001
,
0100
0010
1000
0001
,
0100
0010
1000
0001
,
0100
0010
1000
0001
,
1001
0000
0000
0000
,
0001
1000
0001
0001
,
1000
0001
1000
1000
,
0010
0100
0010
0010
,
0100
0010
0100
0100
,
0010
0100
1001
1001
,
0100
0010
1001
1001
,
0001
0100
0010
1000
,
0001
1000
1001
0110
,
1001
0000
0001
1000
,
0100
0000
1000
0010
,
1000
0000
0010
0100
,
0001
0010
0100
0010
,
0100
0000
1000
0001
,
0100
0000
0001
0010
,
0100
0000
0010
0001
,
1000
0001
0101
1010
,
0001
0000
1000
0000
,
0100
0000
1000
0010
,
0100
0000
0010
0000
,
1000
1000
1001
0110
,
1001
0000
0001
0000
,
0010
0000
0001
0000
,
0100
0010
1000
0001
,
0010
0100
1100
0011
,
1001
0000
0000
0000
;

//---------------dance-single - ----------------
#NOTEDATA:;
#CHARTNAME:;
#STEPSTYPE:dance-single;
#DESCRIPTION:;
#CHARTSTYLE:;
#DIFFICULTY:Beginner;
#METER:2;
#RADARVALUES:0.121997,0.202926,0.126828,0.000000,0.000000,101.000000,86.000000,15.000000,0.000000,0.000000,0.000000,0.000000,0.000000,0.000000,0.121997,0.202926,0.126828,0.000000,0.000000,101.000000,86.000000,15.000000,0.000000,0.000000,0.000000,0.000000,0.000000,0.000000;
#CREDIT:;
#NOTES:
0000
0000
0000
0000
,
0000
0000
0000
0000
,
0000
0000
0000
0000
,
0000
0000
0000
0000
,
1000
0000
0000
0000
,
0001
0000
0000
0000
,
0100
0000
0010
0000
,
1001
0000
0000
0000
,
0110
0000
0000
0000
,
0000
0000
0000
0000
,
0010
0000
0000
0000
,
0000
0000
0000
0000
,
0100
0000
0000
0000
,
0000
0000
0000
0000
,
0001
0000
0000
0000
,
0000
0000
0000
0000
,
1001
0000
0000
0000
,
1000
0000
0000
0000
,
0010
0000
0000
0000
,
0100
0000
0000
0000
,
0001
0000
0001
0000
,
1000
0000
1000
0000
,
0010
0000
0100
0000
,
0001
0000
1000
0000
,
1001
0000
0000
0000
,
1000
0000
1000
0000
,
0001
0000
0000
0000
,
0100
0000
0100
0000
,
0010
0000
0000
0000
,
1000
0000
1000
0000
,
0100
0000
0000
0000
,
1001
0000
0000
0000
,
0010
0000
0000
0000
,
0010
0000
0000
0000
,
0100
0000
0000
0000
,
0100
0000
0000
0000
,
1001
0000
0000
0000
,
0001
0000
0000
0000
,
1000
0000
0000
0000
,
0010
0000
0100
0000
,
1001
0000
0000
0000
,
0000
0000
0000
0000
,
0000
0000
0000
0000
,
0000
0000
0000
0000
,
0010
0000
0000
0000
,
0000
0000
0000
0000
,
0010
0000
0000
0000
,
0100
0000
0010
0000
,
1001
0000
0000
0000
,
1000
0000
0000
0000
,
0001
0000
0000
0000
,
0010
0000
0001
0000
,
0100
0000
0000
0000
,
0010
0000
0000
0000
,
1000
0000
0000
0000
,
1001
0000
0000
0000
,
0110
0000
0000
0000
,
0010
0000
0000
0000
,
1000
0000
0000
0000
,
0001
0000
0000
0000
,
0100
0000
0000
0000
,
0010
0000
0000
0000
,
1000
0000
0001
0000
,
0110
0000
0000
0000
,
1001
0000
0000
0000
,
1000
0000
0000
0000
,
0010
0000
0000
0000
,
0100
0000
0010
0000
,
0100
0000
0000
0000
,
0001
0000
0000
0000
,
1000
0000
0000
0000
,
0001
0000
1000
0000
,
0110
0000
0000
0000
,
0000
0000
0000
0010
,
0000
0000
0000
0000
,
0010
0010
0010
0000
,
1001
0000
0000
0000
,
0000
0000
0000
0100
,
0100
0000
0010
0000
,
1000
0000
0001
0000
,
1001
0000
0000
0000
;

//---------------dance-double - ----------------
#NOTEDATA:;
#CHARTNAME:;
#STEPSTYPE:dance-double;
#DESCRIPTION:;
#CHARTSTYLE:;
#DIFFICULTY:Challenge;
#METER:9;
#RADARVALUES:0.602737,0.676418,0.431217,0.109918,0.224064,499.000000,448.000000,51.000000,13.000000,0.000000,0.000000,0.000000,0.000000,0.000000,0.602737,0.676418,0.431217,0.109918,0.224064,499.000000,448.000000,51.000000,13.000000,0.000000,0.000000,0.000000,0.000000,0.000000;
#CREDIT:;
#NOTES:
// measure 0
00000000
00000000
00000000
00000000
,  // measure 1
00000000
00000000
00000000
00000000
,  // measure 2
00000000
00000000
00000000
00000000
,  // measure 3
00000000
00000000
00000000
00000000
,  // measure 4
10000000
00000000
00000000
00010000
00100000
00000000
00001000
00000000
00010000
00000000
00000000
00001000
00010000
00000000
00000100
00000000
,  // measure 5
00001000
00000000
00000000
00000010
00000100
00000000
00000001
00000000
00000010
00000000
00000000
00000100
00000010
00000000
00000001
00000000
,  // measure 6
00001000
00000010
00001000
00000100
00010000
00000000
00011000
00000000
,  // measure 7
00001000
01000000
10000000
01000000
00020000
00000000
00230000
00000000
,  // measure 8
01300000
00000000
00100000
00000000
00010000
00100000
00001000
00010000
,  // measure 9
00000000
00001000
00010000
00000000
00000100
00000000
00001000
00000000
,  // measure 10
00000010
00000000
00000100
00000000
00000001
00000010
00000001
00000100
,  // measure 11
00000000
00000010
00001000
00000000
00000100
00010000
00001000
01000000
,  // measure 12
00100000
00000000
10000000
00000000
01000000
00010000
01000000
00100000
,  // measure 13
00000000
01000000
00100000
00000000
00001000
00000000
00010000
00000000
,  // measure 14
00000100
00000000
00001000
00000000
00000010
00000001
00000010
00000100
,  // measure 15
00000000
00000010
00001000
00000000
00000100
00000000
00001000
00000000
,  // measure 16
00001200
00010000
00001000
00010300
,  // measure 17
00201000
00010000
00001000
00310000
,  // measure 18
00010020
00001000
00010000
00001030
,  // measure 19
02010000
00001000
00010000
03001000
,  // measure 20
00010000
00010000
00010000
00010000
,  // measure 21
00010000
00010000
00010000
00010000
,  // measure 22
00010000
00001000
00000100
00000010
,  // measure 23
00000001
00000100
00001000
00000000
,  // measure 24
00001010
00001000
00000010
00010000
00001000
00001000
00010000
00010000
,  // measure 25
00000000
00001000
00001000
00010000
00001000
00100000
00010000
10000000
,  // measure 26
01000000
10000000
00100000
01000000
00010000
00010000
00100000
00100000
,  // measure 27
00000000
01000000
01000000
00100000
00010000
00100000
00001000
00010000
,  // measure 28
00000100
00001000
00000010
00000100
00000001
00000001
00001000
00001000
,  // measure 29
00000000
00000001
00000001
00000010
00000100
00001000
00000100
00010000
,  // measure 30
00001000
00100000
00001000
01000000
00010000
00010000
00100000
00100000
,  // measure 31
00000000
01000000
01000000
00100000
00010000
00100000
00001000
00010000
,  // measure 32
00000100
00000000
00010000
00000000
00001000
00000000
00100000
00001000
00000000
00010000
00000000
00000100
00001000
00000000
00000100
00000000
,  // measure 33
00001000
00000000
00000010
00000000
00000100
00000000
00000001
00000010
00000000
00000100
00000000
00000010
00000001
00000000
00000000
00000000
,  // measure 34
00001000
00000000
00000010
00000000
00010000
00000000
00001000
00100000
00000000
00010000
00000000
00100000
00001000
00000000
01000000
00000000
,  // measure 35
00100000
00000000
10000000
00000000
01000000
00000000
00100000
00010000
00000000
00100000
00000000
00001000
00010000
00000000
00000000
00000000
,  // measure 36
00011000
00000000
00000000
00000000
00000100
00000000
00000000
00000000
00010000
00000000
00000000
00001000
00000000
00000000
01000000
00000000
,  // measure 37
00000000
00000000
00100000
00000000
10000000
00000000
00000000
00000000
01000000
00000000
00000000
00100000
00000000
00000000
00010000
00000000
,  // measure 38
00001000
00000000
00000000
00000000
00010000
00000000
00000000
00000000
00000100
00000000
00000000
00001000
00000000
00000000
00000010
00000000
,  // measure 39
00000100
00000000
00000000
00000001
00000010
00000000
00000000
00000010
00000100
00000000
00000000
00000100
00001000
00000000
00000000
00001000
,  // measure 40
00010000
00000000
00010000
00000000
,  // measure 41
00010000
00000000
00000000
00000000
00010000
00000000
00010000
00001000
,  // measure 42
00010000
00000000
00010000
00000000
,  // measure 43
00010000
00000000
00000000
00000000
00010000
00000000
00010000
00001000
,  // measure 44
00010000
00000000
00010000
00000000
,  // measure 45
00010000
00000000
00000000
00000000
00010000
00000000
00010000
00001000
,  // measure 46
00010000
00000000
00010000
00000000
,  // measure 47
00010000
00001000
00001000
00100000
00010000
00010000
01000000
01000000
,  // measure 48
01100000
10100000
01010000
00110000
,  // measure 49
00101000
00011000
00010100
00001100
,  // measure 50
00001010
00000110
00000101
00000011
,  // measure 51
00000110
00000000
00000000
00000100
00001000
00000000
00000000
00001000
00000100
00000000
00000000
00000100
00010000
00000000
00000000
00010000
,  // measure 52
00001000
00101000
00110000
01010000
,  // measure 53
10010000
10100000
10010000
00110000
,  // measure 54
00101000
00011000
00001100
00001010
,  // measure 55
00000102
00000100
00000100
00000103
,  // measure 56
00000001
00000100
00000010
00001000
00000100
00000000
00011000
00000000
,  // measure 57
00001000
00100000
00010000
01000000
00010000
00000000
00011000
00000000
,  // measure 58
00001000
00100000
10000000
00100000
00001000
00010000
00001000
00000000
,  // measure 59
00010000
00000100
00000001
00000100
00010000
00001000
00010000
00000000
,  // measure 60
00001000
00100000
00010000
01000000
01100000
01000000
01100000
00000000
,  // measure 61
01000000
00010000
00100000
00001000
00011000
00010000
00011000
00000000
,  // measure 62
00010000
00000100
00001000
00000010
00000110
00000000
00000101
00000000
,  // measure 63
00000001
00000100
00001000
00000010
00002000
00000000
00003200
00000000
,  // measure 64
00010300
00000000
00001000
00100000
00000000
00100000
00001000
00000000
00010000
00000000
00000100
00000000
00002000
00000000
00000000
00000000
,  // measure 65
00003001
00000000
00000010
00000001
00000000
00000010
00000100
00000000
00000010
00000000
00000001
00000000
00000100
00000000
00000010
00000000
,  // measure 66
00001000
00000000
00000100
00010000
00000000
00010000
00000100
00000000
00001000
00000000
00000100
00000000
00020000
00000000
00000000
00000000
,  // measure 67
00031000
00000000
01000000
00100000
00000000
10000000
01000000
00000000
00100000
01000000
00100000
01000000
00100000
00000000
00010000
00000000
,  // measure 68
10000000
00000000
00010000
01000000
00000000
00100000
10000000
00000000
01000000
00000000
00100000
00000000
00020000
00000000
00000000
00000000
,  // measure 69
00130000
00000000
00001000
00010000
00000000
00010000
00000100
00000000
00001000
00000000
00000010
00000000
00001000
00000000
00000010
00000000
,  // measure 70
00000100
00000000
00000001
00001000
00000000
00001000
00000100
00000000
00000010
00000000
00000100
00000000
00002000
00000000
00000000
00000000
,  // measure 71
00003100
00010000
00001000
01000000
01100000
00000000
10100000
00000000
,  // measure 72
00000000
00000000
10000000
00000000
00000000
01000000
00000000
00000000
00100000
00000000
00000000
00010000
00000000
00000000
00001000
00000000
,  // measure 73
00000000
00000100
00000000
00000000
00000010
00000000
00000000
00000001
00000000
00000000
00001000
00000000
00000010
00000000
00001001
00000000
,  // measure 74
00000000
00000000
00000001
00000000
00000000
00000010
00000000
00000000
00000100
00000000
00000000
00001000
00000000
00000000
00010000
00000000
,  // measure 75
00001000
00010000
00001000
00010000
00011000
00000000
00101000
00000000
,  // measure 76
00110000
00000000
00100000
00000000
00000000
01000000
00000000
00000000
10000000
00000000
00000000
00100000
00000000
00000000
01000000
00000000
,  // measure 77
00000000
00010000
00000000
00000000
00100000
00000000
00000000
00001000
00000000
00000000
00010000
00000000
00001000
00000000
00010000
00000000
,  // measure 78
00000100
00001000
00000010
00000001
00001010
00000000
00001100
00000000
,  // measure 79
00000100
00010000
00001000
00100000
00110000
00000000
00001010
00000000
,  // measure 80
00011000
00000000
00000000
00000000
;
