#VERSION:0.83;
#TITLE:Crank It;
#SUBTITLE:;
#ARTIST:Crayvxn;
#TITLETRANSLIT:;
#SUBTITLETRANSLIT:;
#ARTISTTRANSLIT:;
#GENRE:;
#ORIGIN:;
#CREDIT:;
#BANNER:Crank It-banner.png;
#BACKGROUND:Crank It-background.png;
#PREVIEWVID:;
#JACKET:jacket.png;
#CDIMAGE:;
#DISCIMAGE:;
#LYRICSPATH:;
#CDTITLE:;
#MUSIC:Crank It.ogg;
#OFFSET:-1.000000;
#SAMPLESTART:79.000000;
#SAMPLELENGTH:12.000000;
#SELECTABLE:YES;
#BPMS:0.000=160.000;
#STOPS:;
#DELAYS:;
#WARPS:;
#TIMESIGNATURES:0.000=4=4;
#TICKCOUNTS:0.000=4;
#COMBOS:0.000=1;
#SPEEDS:0.000=1.000=0.000=0;
#SCROLLS:0.000=1.000;
#FAKES:;
#LABELS:0.000=Song Start;
#BGCHANGES:;
#KEYSOUNDS:;
#ATTACKS:
;

//---------------dance-single - ----------------
#NOTEDATA:;
#CHARTNAME:;
#STEPSTYPE:dance-single;
#DESCRIPTION:;
#CHARTSTYLE:;
#DIFFICULTY:Hard;
#METER:7;
#RADARVALUES:0.395686,0.508774,0.175728,0.016736,0.000000,331.000000,310.000000,21.000000,2.000000,0.000000,0.000000,4.000000,0.000000,0.000000,0.395686,0.508774,0.175728,0.016736,0.000000,331.000000,310.000000,21.000000,2.000000,0.000000,0.000000,4.000000,0.000000,0.000000;
#CREDIT:;
#NOTES:
0000
0000
0000
0000
,
0000
0000
0000
0000
,
0000
0000
0000
0000
,
0000
0000
0000
0000
,
1000
0001
0100
0001
,
0010
0100
1000
0001
1000
0000
0000
0000
,
0001
1000
0010
1000
,
0100
0010
0001
0010
0100
0000
0010
0001
,
1000
0001
0100
0001
,
0010
0100
0010
0001
1000
0000
0000
0000
,
0100
0000
0010
0000
0100
0000
1000
0010
,
0100
0000
0000
0000
,
0100
0000
0010
1000
0100
0000
0011
0000
,
0010
0000
0001
0100
0010
0000
1010
0000
,
1000
0000
0001
0010
0100
0000
1100
0000
,
0100
0010
0110
1001
,
0110
0010
1000
0000
0100
0001
0010
0000
,
0100
0010
0001
0000
1000
0010
0100
0000
,
0001
0100
0010
1000
0001
0100
0010
1000
,
0001
0010
0001
0010
0100
0000
0000
0000
,
1000
0001
0100
0001
,
0010
0000
0100
0000
0010
0000
0001
0100
,
1000
0100
0001
0010
,
1000
0000
0010
0000
0100
0000
0010
0001
,
1000
0010
0100
0001
,
0010
0000
1000
0000
0010
0000
0100
0010
,
0001
0100
1000
0100
,
4004
0000
0000
3003
,
0001
0000
0001
0000
1000
0000
0001
1000
,
0010
0100
0010
0100
,
0010
0000
0010
0000
1000
0000
0100
0010
,
0001
0001
0001
0001
,
0100
0000
0100
0000
0010
0000
0100
0001
,
0010
0010
0010
0010
,
0100
0000
0100
0000
0010
0000
0100
0010
,
0001
0001
0200
0000
,
0310
1000
0000
1000
,
0000
0001
0000
0001
,
0000
0100
0000
0100
,
0000
0010
0000
0010
,
1001
1000
0000
1000
,
0000
0001
0000
0001
,
0000
0100
0000
0100
,
0000
0010
0000
0010
,
1001
0000
0001
0100
0010
0000
0100
0000
,
1010
0000
0010
1000
0100
0000
0010
0000
,
0011
0000
0010
0100
1000
0000
0001
0000
,
1001
0000
0001
0100
0101
0000
1100
0000
,
0101
0000
0001
1000
0010
0000
0100
0010
,
1000
0000
0001
0010
0100
0000
0010
0001
,
0100
0000
0010
1000
0001
0000
0010
0100
,
1000
0001
1000
0001
0010
0000
0000
0000
,
0100
0001
0100
0010
,
1000
0000
0100
0000
1000
0000
0001
0010
,
1000
0010
0001
0010
,
1000
0000
0010
0000
0010
0000
0001
1000
,
0001
0010
1000
0010
,
0100
0000
0100
0000
0010
0000
0001
0010
,
0100
0010
0001
1000
,
0440
0000
0000
0330
,
1000
0000
0001
0000
1000
0000
0001
0100
,
0001
0000
0010
0000
0100
0000
0010
0001
,
0100
0000
0010
0000
1000
0100
0010
0100
,
1000
0001
0100
1001
,
0010
0000
1000
0000
0100
0000
0010
0001
,
0100
0000
0001
0000
1000
0001
0010
0001
,
1000
0000
0100
0000
1000
0010
0100
0010
,
1000
1000
0002
0000
,
0013
0001
0100
0001
,
1000
0000
0100
0000
0010
0000
0100
1000
,
0010
0100
0010
1000
,
0001
0000
0010
0000
0100
0000
0010
0001
,
0100
0010
1000
0001
,
0010
0000
0100
0000
0010
0000
0001
0100
,
1001
0000
0110
0000
,
1001
0000
0000
0000
,
0110
0000
0000
0000
;

//---------------dance-single - X----------------
#NOTEDATA:;
#CHARTNAME:;
#STEPSTYPE:dance-single;
#DESCRIPTION:X;
#CHARTSTYLE:;
#DIFFICULTY:Edit;
#METER:9;
#RADARVALUES:0.540333,0.666406,0.426768,0.317984,0.154808,452.000000,401.000000,51.000000,38.000000,6.000000,0.000000,4.000000,0.000000,2.000000,0.540333,0.666406,0.426768,0.317984,0.154808,452.000000,401.000000,51.000000,38.000000,6.000000,0.000000,4.000000,0.000000,2.000000;
#CREDIT:;
#OFFSET:-1.000000;
#BPMS:0.000000=160.000000
,43.000000=40.000000
,44.000000=160.000000
,102.000000=80.000000
,104.000000=160.000000
,135.000000=80.000000
,151.000000=160.000000
,209.000000=80.000000
,211.000000=160.000000
;
#STOPS:14.000000=0.375000
,72.000000=0.093750
,72.250000=0.093750
,72.500000=0.093750
,72.750000=0.093750
,73.000000=0.375000
,134.000000=0.375000
,179.000000=0.093750
,179.250000=0.093750
,179.500000=0.093750
,179.750000=0.093750
,180.000000=0.375000
,249.000000=0.375000
,274.000000=0.375000
,275.000000=0.375000
,276.000000=1.125000
;
#DELAYS:;
#WARPS:226.000000=8.000000
;
#TIMESIGNATURES:0.000000=4=4
;
#TICKCOUNTS:0.000000=4
;
#COMBOS:0.000000=1
;
#SPEEDS:0.000000=1.000000=0.000000=0
;
#SCROLLS:0.000000=1.000000
;
#FAKES:;
#LABELS:0.000000=Song Start
;
#NOTES:
0000
0000
0000
0000
,
0000
0000
0000
0000
,
0000
0000
0000
0000
,
0001
0000
0000
0000
0000
0000
0000
0000
0000
0000
0000
0000
0000
0000
0000
0000
0100
0000
0000
0000
0000
0000
0000
0000
0001
0000
0000
0000
0000
0000
0000
0000
0000
0000
0000
0000
0000
0000
0000
0000
0000
0000
0000
0000
0000
0000
0000
0000
0100
0000
0000
0000
0000
0000
0000
0000
0000
0000
0000
0000
0000
0000
0000
0000
0000
0000
0000
0000
0000
0000
0000
0000
0010
0000
0000
0000
0000
0000
0000
0000
0000
0000
0000
0000
1000
0000
0000
0000
0000
0000
0000
0000
0000
0000
0000
0000
0200
0000
0000
0000
0000
0000
0300
0000
0000
0000
0000
0000
0000
0000
0000
0000
0000
0000
0000
0000
0000
0000
0000
0000
0000
0000
0000
0000
0000
0000
0000
0000
0000
0000
0000
0000
0000
0000
0000
0000
0000
0000
0000
0000
0000
0000
0000
0000
0010
0000
0000
0000
0000
0000
0000
0000
0000
0000
0000
0000
0000
0000
0000
0000
0000
0000
0000
0000
0000
0000
0000
0000
0100
0000
0000
0000
0000
0000
0000
0000
0000
0000
0000
0000
0000
0000
0000
0000
0000
0000
0000
0000
0000
0000
0000
0000
,
1000
0010
0100
0000
0010
1000
0001
0010
,
0001
1000
0100
0000
0000
0000
0010
0100
,
1000
0010
0100
0000
0010
1000
0001
0010
,
0100
0010
0001
0100
1000
0100
0001
0100
,
0010
1000
0100
0000
0010
0100
1000
0001
,
0100
0001
0010
0000
0000
0000
0100
1000
,
0001
0010
0100
0000
0010
0001
0200
0000
,
0310
1000
0010
0000
0100
0001
0010
0100
,
1000
0001
1000
0000
0001
0010
0001
1000
,
0110
0100
0010
0000
0100
0010
1000
0001
,
0010
0100
0010
0000
0110
0000
1001
0000
,
0110
0100
0001
0000
0010
0100
1000
0000
,
0100
1000
0010
0000
0100
0001
0010
0000
,
0100
1000
0100
0001
0100
0010
0001
1000
,
0001
0001
0001
0001
1000
0000
0000
0000
0001
0000
0000
0000
1000
0000
0000
0000
,
0100
0000
0000
0000
0000
0010
0001
0000
0000
0000
0000
0000
0100
0000
0000
0000
0000
0000
0010
0000
0000
0000
0000
0000
,
1000
0000
0000
0000
0000
0001
0010
0000
0000
0001
0000
0000
0100
0000
0000
0000
0000
0000
0010
0000
0000
0000
0000
0000
,
1000
0000
0000
0000
0000
0100
0010
0000
0000
0000
0000
0000
0100
0000
0000
0000
0000
0000
1000
0000
0000
0000
0000
0000
,
0010
0000
0000
0000
0000
0100
0010
0000
0000
1000
0000
0000
0100
0000
0000
0000
0000
0000
1000
0000
0000
0000
0000
0000
,
0001
0000
0000
0000
0000
0100
0010
0000
0000
0000
0000
0000
0100
0000
0000
0000
0000
0000
0001
0000
0000
0000
0000
0000
,
0010
0000
0000
0000
0000
0100
0010
0000
0000
0100
0000
0000
1000
0000
0000
0000
0000
0000
0001
0000
0000
0000
0000
0000
,
0100
0000
0000
0000
0000
0010
1000
0000
0000
0001
0000
0000
0440
0000
0000
0000
0000
0000
0000
0000
0000
0330
0000
0000
,
2001
0000
0000
3000
1002
0000
0000
0003
0012
0000
0000
0003
0010
0000
0100
0000
,
1200
0000
0000
0300
0201
0000
0000
0300
1200
0000
0000
0300
0201
0000
0000
0300
,
1002
0000
0000
0003
2001
0000
0000
3000
1020
0000
0000
0030
0010
0000
0100
0000
,
0210
0000
0000
0300
0201
0000
0000
0300
0210
0000
0000
0300
0201
0000
0000
0300
,
1002
0000
0000
0003
2001
0000
0000
3000
0120
0000
0000
0030
1000
0000
0010
0000
,
1020
0000
0000
0030
0021
0000
0000
0030
1020
0000
0000
0030
0021
0000
0000
0030
,
1002
0000
0000
0003
2001
0000
0000
3000
0210
0000
0000
0300
0100
0000
0001
0000
,
0021
0000
0000
0030
0210
0000
0000
0300
2200
0000
3300
0000
1001
0000
1000
0000
,
0010
1000
0010
0000
0100
0000
0001
0000
0100
0001
0100
0000
0001
0000
0010
0000
,
0100
1000
0100
0000
0010
0000
0001
0000
1000
0001
1000
0000
0110
0000
0100
0000
,
0010
1000
0010
0000
0100
0000
0001
0000
0010
0001
0010
0000
0100
0000
1000
0000
,
0001
1000
0001
0000
0100
0000
0010
0000
1000
0010
1000
0000
0001
0000
0000
0000
,
1000
0110
0000
0000
0001
0110
0000
0000
,
1000
0110
0000
0000
0001
0110
0000
0000
,
0010
1001
0000
0000
0100
1001
0000
0000
,
0010
1001
1001
0000
0110
0000
1001
0001
,
0100
0000
1000
0100
0001
0010
0001
0010
,
1000
0000
0010
0001
0010
0100
1000
0001
,
0100
0000
0010
0000
1000
0000
0001
0000
0010
0000
0100
0000
1000
1000
1000
1000
,
0010
0000
0000
0000
0000
0000
1000
0000
0000
0000
0000
0000
0100
0000
0000
0000
0000
0000
1000
0000
0000
0000
0000
0010
,
0100
0000
0000
0000
0000
0000
0001
0000
0000
0000
0000
0000
0010
0000
0000
0000
0000
0000
0100
0000
0000
0000
0000
0010
,
0001
0000
0000
1000
0000
0000
0100
0000
0000
0000
0000
0000
1000
0000
0000
0000
0000
0000
0001
0000
0000
0000
0000
0100
,
0001
0000
0000
0000
0000
0000
0100
0000
0000
0000
0000
0000
0001
0000
0000
0000
0000
0000
0100
0000
0000
0000
0000
0010
,
1000
0000
0000
0100
0000
0000
0010
0000
0000
0000
0000
0000
0100
0000
0000
0000
0000
0000
1000
0000
0000
0000
0000
0001
,
0100
0000
0000
0000
0000
0000
0001
0000
0000
0000
0000
0000
0010
0000
0000
0000
0000
0000
0100
0000
0000
0000
0000
0010
,
0001
0000
0000
0100
0000
0000
0010
0000
0000
0000
0000
0000
0100
0000
0000
0000
0000
0000
0001
0000
0000
0000
0000
1000
,
0100
0010
4004
0000
0000
3003
1000
0000
,
0100
0000
0000
0000
0000
0000
0010
0000
0000
0000
0000
0100
0010
0000
0000
0001
0000
0000
1000
0000
0000
0000
0000
0000
,
0001
0000
0000
0000
0000
0100
0001
0000
0000
0010
0000
0000
0100
0000
0000
1000
0000
0000
0001
0000
0000
0000
0000
0000
,
1000
0000
0000
0000
0000
0010
1000
0000
0000
0100
0000
0000
0010
0000
0000
0001
0000
0000
1000
0000
0000
0000
0000
0000
,
0001
0100
0000
0MM0
,
0000
0000
0000
0000
,
0000
0000
0000
0110
,
0100
0000
0000
0000
0000
0000
0001
0000
0000
0000
0000
0010
0100
0000
0000
0010
0000
0000
0001
0000
0000
0000
0000
0000
,
1000
0000
0000
0000
0000
0010
1000
0000
0000
0000
0000
0000
0100
0000
0000
0001
0000
0000
0010
0000
0000
0000
0000
0000
,
0100
0000
0000
0000
0000
0010
0100
0000
0000
0010
0000
0000
0001
0000
0000
1000
0000
0000
0010
0000
0000
0000
0000
0000
,
0010
0000
0000
0000
0000
0000
2002
0000
3003
0000
0000
0000
0001
0000
0000
0100
0000
0000
0010
0000
0000
1000
0000
0000
,
0010
0100
0001
0010
0100
0010
0001
1000
,
0010
1000
0100
0010
0100
1000
0010
0100
,
0001
0010
0100
0010
0001
1000
0010
0100
,
0001
0010
0100
0010
0001
1000
0010
0100
,
0001
0010
0100
0010
0001
0100
0010
1000
,
0001
0000
1000
0000
0100
0000
0010
0000
0220
0000
0330
0MM0
2002
0000
3003
M00M
,
0220
0000
0330
0MM0
1001
0000
0000
0000
0000
0000
0000
0000
0000
0000
0000
0000
;

//---------------dance-single - ----------------
#NOTEDATA:;
#CHARTNAME:;
#STEPSTYPE:dance-single;
#DESCRIPTION:;
#CHARTSTYLE:;
#DIFFICULTY:Medium;
#METER:5;
#RADARVALUES:0.321570,0.381580,0.217568,0.050208,0.000000,269.000000,243.000000,26.000000,6.000000,0.000000,0.000000,0.000000,0.000000,0.000000,0.321570,0.381580,0.217568,0.050208,0.000000,269.000000,243.000000,26.000000,6.000000,0.000000,0.000000,0.000000,0.000000,0.000000;
#CREDIT:;
#NOTES:
0000
0000
0000
0000
,
0000
0000
0000
0000
,
0000
0000
0000
0000
,
0000
0000
0000
0000
,
1000
0100
0010
0100
,
1000
0001
0100
0000
,
0001
1000
0010
1000
,
0100
0001
0100
1000
,
0010
1000
0001
0010
,
0100
0010
0001
0000
,
1000
0001
0100
0010
,
2002
0000
0000
3003
,
1000
0000
0000
0011
0000
0000
0000
1100
,
0000
0000
0000
0011
0000
0000
0000
1100
,
0000
0000
0000
0101
0000
0000
0000
1010
,
0000
0000
0000
0101
0000
0000
0000
1010
,
1000
0001
0100
0010
,
1000
0001
0100
0010
,
1000
0100
0010
0001
,
1000
0001
1000
0001
1000
0000
0000
0000
,
0001
0010
0001
1000
,
0100
0000
0100
0000
1000
0000
0010
1000
,
0010
0100
0001
0010
,
0100
0000
0010
0000
0001
0000
1000
0001
,
0100
0001
0010
0010
,
0100
0000
0010
0000
0001
0000
1000
0100
,
0010
0100
1000
0010
,
0200
0000
0000
0300
,
0001
0000
0100
0000
0010
0000
1000
0010
,
0100
0001
0010
1000
,
0010
0000
0100
0000
0010
0000
0001
0100
,
1000
0100
0010
1000
,
0001
0000
0010
0000
0100
0000
0010
0001
,
0100
0100
0010
0010
,
1000
0000
0001
0000
0100
0000
0010
1000
,
0100
0010
0200
0000
,
1300
0000
0000
0000
,
0000
0000
0000
0000
,
0000
0000
0000
0000
,
0000
0000
0000
0000
,
0110
0000
0000
0000
,
0000
0000
0000
0000
,
0000
0000
0000
0000
,
0000
0000
0000
0000
,
1000
0000
0000
0101
0000
0000
0000
0011
,
0000
0000
0000
0101
0000
0000
0000
0011
,
0000
0000
0000
1100
0000
0000
0000
1010
,
0000
0000
0000
1100
0000
0000
0000
1010
,
0000
0000
0000
1001
0000
0000
0000
0110
,
0000
0000
0000
1001
0000
0000
0000
0000
,
0010
0100
1000
0100
,
0001
0100
0001
0100
0001
0000
0000
0000
,
0100
0001
0010
0100
,
0010
0000
0001
0000
1000
0000
0001
0100
,
1000
0100
0010
1000
,
0001
0000
0010
0000
0100
0000
0010
0001
,
1000
0001
0100
0001
,
0010
0000
0100
0000
1000
0000
0100
1000
,
0010
0100
0001
0010
,
0200
0000
0000
0300
,
1000
0000
0100
0000
0010
0000
0001
0010
,
0100
0000
1000
0000
0001
0000
1000
0010
,
0100
0000
0001
0000
1000
0010
1000
0100
,
1000
0100
0010
0000
,
1001
0000
1000
0000
0001
0000
0100
0001
,
0010
0000
0100
0000
0010
0000
0001
0100
,
0010
0000
1000
0000
0001
0100
0001
0010
,
0100
1000
0002
0000
,
0103
0001
0010
0001
,
1000
0000
0100
0000
0010
0000
0100
1000
,
0010
0100
0001
0010
,
0001
0000
1000
0000
0100
0000
0010
0100
,
1000
0100
1000
0010
,
0100
0001
0010
0100
,
1001
0000
0110
0000
,
1001
0000
0000
0000
,
0110
0000
0000
0000
;

//---------------dance-single - ----------------
#NOTEDATA:;
#CHARTNAME:;
#STEPSTYPE:dance-single;
#DESCRIPTION:;
#CHARTSTYLE:;
#DIFFICULTY:Easy;
#METER:3;
#RADARVALUES:0.235499,0.286185,0.083680,0.033472,0.000000,197.000000,187.000000,10.000000,4.000000,0.000000,0.000000,0.000000,0.000000,0.000000,0.235499,0.286185,0.083680,0.033472,0.000000,197.000000,187.000000,10.000000,4.000000,0.000000,0.000000,0.000000,0.000000,0.000000;
#CREDIT:;
#NOTES:
0000
0000
0000
0000
,
0000
0000
0000
0000
,
0000
0000
0000
0000
,
0000
0000
0000
0000
,
1000
0000
1000
0000
,
0001
1000
0001
0000
,
0001
0000
0001
0000
,
0100
0010
0100
0000
,
0010
0000
1000
0000
,
0001
0100
0001
0000
,
0010
0000
0100
0000
,
1001
0000
0000
0000
,
0010
0000
0000
0000
,
1000
0000
0000
0000
,
0110
0000
0000
0000
,
0100
0000
1001
1001
,
1001
0000
0001
0000
,
1000
0000
0010
0000
,
0100
0000
0010
0000
,
1001
0000
0000
0000
,
0001
1000
0010
1000
,
0100
1000
0010
0100
,
0001
0010
0100
0010
,
0001
1000
0010
0100
,
0001
1000
0100
0010
,
0100
1000
0010
0100
,
0001
0010
0100
1000
,
0002
0000
0000
0003
,
1000
0001
0100
0001
,
1000
1000
1000
1000
,
0100
1000
0010
0100
,
0001
0001
0001
0001
,
0010
0001
0010
0100
,
0010
0010
0010
0010
,
0100
0010
0001
1000
,
0100
0100
2000
0000
,
3010
0000
0000
0000
,
0000
0000
0000
0000
,
0000
0000
0000
0000
,
0000
0000
0000
0000
,
1000
0000
0000
0000
,
0000
0000
0000
0000
,
0000
0000
0000
0000
,
0000
0000
0000
0000
,
0001
0000
1000
0000
,
0010
0000
0100
0000
,
0001
0000
0010
0000
,
0100
0000
0010
0010
,
0100
0000
0010
0000
,
0001
0000
1000
0000
,
0010
0000
0100
0000
,
2000
0000
3000
0000
,
0001
1000
0010
1000
,
0100
0010
0100
1000
,
0001
0100
0001
0010
,
0100
0010
0001
1000
,
0001
1000
0010
1000
,
0100
1000
0010
0100
,
0001
0010
0100
1000
,
0100
0000
0000
0000
,
1000
0001
0010
0100
,
0010
0001
1000
0010
,
1000
0001
0100
0100
,
0100
0001
1000
0000
,
0010
0100
0010
1000
,
0001
0010
0100
0010
,
0001
1000
0010
0100
,
0001
0010
0200
0000
,
0310
0000
0001
0000
,
1000
0000
0100
1000
,
0001
0000
0100
0000
,
0010
0000
1000
0010
,
0100
0000
0010
0000
,
1000
0000
0001
1000
,
1001
0000
0110
0000
,
1001
0000
0000
0000
,
0110
0000
0000
0000
;

//---------------dance-single - ----------------
#NOTEDATA:;
#CHARTNAME:;
#STEPSTYPE:dance-single;
#DESCRIPTION:;
#CHARTSTYLE:;
#DIFFICULTY:Beginner;
#METER:2;
#RADARVALUES:0.098025,0.190790,0.041840,0.000000,0.000000,82.000000,77.000000,5.000000,0.000000,0.000000,0.000000,0.000000,0.000000,0.000000,0.098025,0.190790,0.041840,0.000000,0.000000,82.000000,77.000000,5.000000,0.000000,0.000000,0.000000,0.000000,0.000000,0.000000;
#CREDIT:;
#NOTES:
0000
0000
0000
0000
,
0000
0000
0000
0000
,
0000
0000
0000
0000
,
0000
0000
0000
0000
,
1000
0000
0000
0000
,
0001
0000
0000
0000
,
1000
0000
0000
0000
,
0001
0000
0000
0000
,
0100
0000
0000
0000
,
0010
0000
0000
0000
,
1000
0000
0000
0000
,
0000
0000
0000
0000
,
0001
0000
0000
0000
,
0010
0000
0000
0000
,
0100
0000
0000
0000
,
1000
0000
0001
0001
,
0001
0000
0000
0000
,
1000
0000
0000
0000
,
0010
0000
0100
0000
,
0001
0000
0000
0000
,
1000
0000
0000
0000
,
0001
0000
0000
0000
,
0100
0000
0000
0000
,
0010
0000
0000
0000
,
1000
0000
0000
0000
,
0100
0000
0000
0000
,
1000
0000
0000
0000
,
0110
0000
0000
0000
,
0001
0000
0000
0000
,
1000
0000
0000
0000
,
0100
0000
0000
0000
,
1000
0000
0000
0000
,
0010
0000
0000
0000
,
1000
0000
0000
0000
,
0001
0000
0000
0000
,
1000
0000
0010
0000
,
0100
0000
0000
0000
,
0000
0000
0000
0000
,
0000
0000
0000
0000
,
0000
0000
0000
0000
,
0010
0000
0000
0000
,
0000
0000
0000
0000
,
0000
0000
0000
0000
,
0000
0000
0000
0000
,
1000
0000
0000
0000
,
0100
0000
0000
0000
,
0010
0000
0000
0000
,
0001
0000
1000
1000
,
0001
0000
0000
0000
,
1000
0000
0000
0000
,
0010
0000
0100
0000
,
0001
0000
0000
0000
,
1000
0000
0000
0000
,
0100
0000
0000
0000
,
1000
0000
0000
0000
,
0010
0000
0010
0000
,
0100
0000
0000
0000
,
0001
0000
0000
0000
,
0010
0000
0000
0000
,
1001
0000
0000
0000
,
1000
0000
0000
0000
,
0010
0000
0000
0000
,
1000
0000
0000
0000
,
0001
0000
0000
1000
,
1000
0000
0000
0000
,
0010
0000
0000
0000
,
0100
0000
0000
0000
,
0001
0000
1001
0000
,
0010
0000
0000
0000
,
0100
0000
0000
0000
,
0001
0000
0000
0000
,
1000
0000
0000
0000
,
0010
0000
0000
0000
,
0100
0000
0000
0000
,
0001
0000
1000
0000
,
1001
0000
0000
0000
,
0110
0000
0000
0000
;

//---------------dance-double - ----------------
#NOTEDATA:;
#CHARTNAME:;
#STEPSTYPE:dance-double;
#DESCRIPTION:;
#CHARTSTYLE:;
#DIFFICULTY:Challenge;
#METER:7;
#RADARVALUES:0.394491,0.508774,0.167360,0.041840,0.000000,330.000000,310.000000,20.000000,5.000000,0.000000,0.000000,4.000000,0.000000,0.000000,0.394491,0.508774,0.167360,0.041840,0.000000,330.000000,310.000000,20.000000,5.000000,0.000000,0.000000,4.000000,0.000000,0.000000;
#CREDIT:;
#NOTES:
// measure 0
00000000
00000000
00000000
00000000
,  // measure 1
00000000
00000000
00000000
00000000
,  // measure 2
00000000
00000000
00000000
00000000
,  // measure 3
00000000
00000000
00000000
00000000
,  // measure 4
10000000
01000000
00100000
01000000
,  // measure 5
00100000
00001000
00010000
00000100
00001000
00000000
00000000
00000000
,  // measure 6
00000100
00001000
00000010
00000100
,  // measure 7
00000001
00000100
00000010
00001000
00000100
00001000
00001000
00000100
,  // measure 8
00010000
00001000
00100000
01000000
,  // measure 9
00100000
00010000
01000000
00001000
00010000
00000000
00000000
00000000
,  // measure 10
00001000
00000000
00010000
00000000
00000100
00000000
00001000
00000010
,  // measure 11
00000200
00000000
00000000
00000000
,  // measure 12
00000310
00000000
00001000
00000100
00000000
00000000
00000010
00000001
,  // measure 13
00000000
00000000
00000001
00000100
00000000
00000000
00000010
00001000
,  // measure 14
00001100
00000000
00000100
00010000
00000000
00000000
00010000
00001000
,  // measure 15
00000000
00000000
00010000
00001000
01001000
00000000
01100000
00000000
,  // measure 16
10100000
10000000
00100000
00000000
10000000
00010000
00100000
00000000
,  // measure 17
00100000
00001000
00010000
00000000
00000100
00001000
00000010
00000000
,  // measure 18
00000100
00000001
00000100
00000001
00000100
00000001
00000100
00000001
,  // measure 19
00000010
00000010
00000010
00000010
00000100
00000000
00000000
00000000
,  // measure 20
00000100
00010000
00001000
00100000
,  // measure 21
01000000
00000000
00100000
00000000
00010000
00000000
01000000
00001000
,  // measure 22
00010000
00000100
00001000
00000010
,  // measure 23
00000100
00000000
00000001
00000000
00000010
00000000
00000001
00000100
,  // measure 24
00000010
00001000
00000100
00010000
,  // measure 25
00001000
00000000
01000000
00000000
00100000
00000000
10000000
00100000
,  // measure 26
01000000
00010000
00100000
00001000
,  // measure 27
00004400
00000000
00000000
00003300
,  // measure 28
00000010
00000000
00000001
00000000
00000100
00000000
00000010
00001000
,  // measure 29
00000100
00000100
00000100
00000100
,  // measure 30
00001000
00000000
00000100
00000000
00010000
00000000
00001000
00010000
,  // measure 31
00000010
00000010
00000010
00000010
,  // measure 32
00000100
00000000
00000001
00000000
00001000
00000000
00000100
00010000
,  // measure 33
00001000
00001000
00001000
00001000
,  // measure 34
00010000
00000000
00001000
00000000
00100000
00000000
01000000
10000000
,  // measure 35
00100000
00100000
20020000
00000000
,  // measure 36
30030000
10000000
00000000
01000000
,  // measure 37
00000000
00100000
00000000
00010000
,  // measure 38
00000000
00100000
00000000
00001000
,  // measure 39
00000000
00010000
00000000
00000100
,  // measure 40
00001100
00000010
00000000
00000100
,  // measure 41
00000000
00000001
00000000
00001000
,  // measure 42
00000000
00000100
00000000
00010000
,  // measure 43
00000000
00001000
00000000
00010000
,  // measure 44
00110000
00100000
01000000
00000000
10000000
00000000
00100000
00000000
,  // measure 45
01000000
00010000
00100000
00000000
00001000
00000000
00010000
00000000
,  // measure 46
00000100
00001000
00000010
00000000
00000100
00000000
00000001
00000000
,  // measure 47
00000010
00000100
00001000
00000000
00001100
00000000
00011000
00000000
,  // measure 48
01010000
00010000
01000000
00000000
00100000
10000000
01000000
00000000
,  // measure 49
00100000
00001000
00010000
00000000
00000100
00001000
00000010
00000000
,  // measure 50
00000100
00000010
00000100
00000010
00000100
00000010
00000100
00000010
,  // measure 51
00001000
00001000
00001000
00001000
00000100
00000000
00000000
00000000
,  // measure 52
00010000
00001000
01000000
00100000
,  // measure 53
10000000
00000000
01000000
00000000
00100000
00000000
00010000
00100000
,  // measure 54
00001000
00010000
00000100
00001000
,  // measure 55
00000010
00000000
00000010
00000000
00000100
00000000
00000001
00000010
,  // measure 56
00000100
00000010
00000001
00001000
,  // measure 57
00000010
00000000
00001000
00000000
00000100
00000000
00010000
00001000
,  // measure 58
00100000
01000000
10000000
00100000
,  // measure 59
40040000
00000000
00000000
30030000
,  // measure 60
10000000
00000000
01000000
00000000
00100000
00000000
00010000
00100000
,  // measure 61
00001000
00000000
00010000
00000000
00000100
00000000
00001000
00000010
,  // measure 62
00000100
00000000
00000001
00000000
00000010
00000100
00001000
00000100
,  // measure 63
00010000
00010000
00001000
00011000
,  // measure 64
00001000
00000000
01000000
00000000
00100000
00000000
10000000
00100000
,  // measure 65
01000000
00000000
00010000
00000000
00100000
00000000
00001000
00010000
,  // measure 66
00000100
00000000
00001000
00000000
00000010
00000100
00000001
00001000
,  // measure 67
00001001
00000110
00002002
00003003
,  // measure 68
00000001
00000100
00000010
00001000
,  // measure 69
00000100
00000000
00010000
00000000
00001000
00000000
00100000
00001000
,  // measure 70
00010000
00001000
01000000
00100000
,  // measure 71
10000000
00000000
01000000
00000000
00100000
00000000
00010000
00100000
,  // measure 72
01000000
00100000
00010000
00100000
,  // measure 73
00001000
00000000
00010000
00000000
00000100
00000000
00001000
00000100
,  // measure 74
00001100
00000000
01010000
00000000
,  // measure 75
00011000
00000000
00000000
00000000
,  // measure 76
00011000
00000000
00000000
00000000
;
