#VERSION:0.83;
#TITLE:CLIO;
#SUBTITLE:;
#ARTIST:co-ping;
#TITLETRANSLIT:;
#SUBTITLETRANSLIT:;
#ARTISTTRANSLIT:;
#GENRE:;
#ORIGIN:;
#CREDIT:;
#BANNER:CLIO-banner.png;
#BACKGROUND:CLIO-background.png;
#PREVIEWVID:;
#JACKET:CLIO-jacket.png;
#CDIMAGE:;
#DISCIMAGE:;
#LYRICSPATH:;
#CDTITLE:;
#MUSIC:CLIO.ogg;
#OFFSET:-0.151000;
#SAMPLESTART:75.803177;
#SAMPLELENGTH:13.913040;
#SELECTABLE:YES;
#BPMS:0.000=138.000;
#STOPS:34.000=1.304;
#DELAYS:;
#WARPS:;
#TIMESIGNATURES:0.000=4=4;
#TICKCOUNTS:0.000=4;
#COMBOS:0.000=1;
#SPEEDS:0.000=1.000=0.000=0;
#SCROLLS:0.000=1.000;
#FAKES:;
#LABELS:0.000=Song Start;
#BGCHANGES:;
#KEYSOUNDS:;
#ATTACKS:
;

//---------------dance-single - ----------------
#NOTEDATA:;
#CHARTNAME:;
#STEPSTYPE:dance-single;
#DESCRIPTION:;
#CHARTSTYLE:;
#DIFFICULTY:Hard;
#METER:6;
#RADARVALUES:0.344846,0.417524,0.271332,0.177769,0.051460,258.000000,229.000000,29.000000,19.000000,0.000000,0.000000,0.000000,0.000000,0.000000,0.344846,0.417524,0.271332,0.177769,0.051460,258.000000,229.000000,29.000000,19.000000,0.000000,0.000000,0.000000,0.000000,0.000000;
#CREDIT:;
#NOTES:
0000
0000
0000
0000
,
0000
0000
0000
0000
,
0000
0000
0000
0000
,
0000
0000
0000
0000
,
0000
0000
0000
0000
2000
0000
0000
3020
,
0000
0230
0302
0000
,
0000
0000
0023
0000
0032
0000
0000
2003
,
0000
3020
0230
0000
,
0002
0000
0303
1010
,
0000
0000
0000
0000
0100
0000
0000
0010
0000
0000
1000
0000
0001
0000
0000
0000
,
0000
0000
0010
0100
0010
0000
0001
0000
,
0000
1000
0100
0010
0000
0100
2000
0000
,
0000
3001
1000
0000
0000
0000
0110
0000
,
0000
0000
0000
0000
0100
0000
0000
0010
0000
0000
1000
0000
0001
0000
0000
0000
,
0000
0000
0000
1000
0001
0100
0010
0000
,
0000
0000
0000
0100
0010
1000
0002
0000
,
0000
1000
0000
0000
1003
0000
0001
0001
,
1000
0010
0000
1000
1000
0100
0000
0000
,
0000
0000
0010
0001
0000
0001
0000
0000
0000
0000
0000
0000
0010
0000
0010
0000
,
0001
0100
0000
0010
0000
1000
0000
0000
,
0000
0000
0000
0001
0010
1000
0010
0000
,
0000
0100
0000
1000
0010
0100
0000
0000
,
0000
0000
0001
1000
0000
1000
0000
0000
0000
0000
0000
0000
0100
0000
0000
0000
,
0101
0000
0001
0100
0010
0000
1000
0000
,
1100
0000
0100
0010
0001
0000
1000
0000
,
1001
0000
0001
1000
0010
0000
1010
0000
,
0000
1001
0000
0000
0000
0001
0010
0000
,
0001
0100
1010
1100
,
1000
0000
0001
0000
1000
0010
0100
0000
,
0010
0000
0100
0000
0001
1000
0001
0000
,
1000
0010
0000
0010
0100
0001
1000
0000
,
0100
0000
0010
0100
1000
0100
0010
0000
,
0100
0000
1000
0001
0100
0010
0100
0000
,
0001
0000
0100
0000
0010
1000
0001
0000
,
0100
0000
0010
0000
0000
0000
1000
0000
0000
0000
0001
1000
0002
0000
0000
0000
,
0000
0003
1001
0110
,
0001
0000
0100
0000
0010
1000
0100
0000
,
0010
0000
0100
0000
1000
1000
1100
0000
,
0000
0011
0000
1000
0010
0001
0011
0000
,
0010
0000
0100
0001
0100
0010
1000
0000
,
0001
0000
0000
0000
1000
0000
0100
0000
1000
0000
0010
0000
0100
0000
0000
0100
,
0000
0000
0000
0000
0010
0000
0000
0010
0000
0000
0000
0000
1000
0000
0000
1000
,
0000
0001
0000
0000
1000
0000
0001
0000
,
0101
0000
0001
0100
0010
0000
1000
0000
,
1010
0000
0010
0100
0001
0000
1000
0000
,
1100
0000
0100
1000
0010
0000
0100
0000
,
0110
0000
0010
0100
0001
0000
1002
0000
,
0000
0103
0000
0000
0000
0000
0000
0000
,
0000
1001
0110
1020
,
0000
0130
0000
0000
0021
0000
0130
0000
,
0000
0110
1000
0001
,
1000
0010
1000
0100
,
1000
0000
0010
0000
0100
0001
0010
0000
,
0100
0010
0001
2000
,
0000
3002
0000
0103
,
0001
0010
0001
0100
,
0010
1000
0010
0110
,
0000
0000
1001
0000
0000
0000
0000
0000
0010
0000
0100
0010
0100
0000
0000
0000
,
1001
0010
0101
0021
,
0000
0000
0030
0000
;

//---------------dance-single - ----------------
#NOTEDATA:;
#CHARTNAME:;
#STEPSTYPE:dance-single;
#DESCRIPTION:;
#CHARTSTYLE:;
#DIFFICULTY:Challenge;
#METER:8;
#RADARVALUES:0.423706,0.586990,0.168413,0.215195,0.210516,317.000000,299.000000,18.000000,23.000000,12.000000,0.000000,0.000000,0.000000,0.000000,0.423706,0.586990,0.168413,0.215195,0.210516,317.000000,299.000000,18.000000,23.000000,12.000000,0.000000,0.000000,0.000000,0.000000;
#CREDIT:;
#NOTES:
0000
0000
0000
0000
,
0000
0000
0000
0000
,
0000
0000
0000
0000
,
0000
0000
0000
0000
,
0000
0000
0000
0000
0000
0000
0000
0000
1000
0000
0001
0100
0000
0000
0000
0000
,
0000
0000
0000
0000
0000
0010
0000
0010
0100
0000
0100
0001
0000
0000
0000
0000
,
0000
0000
0000
0000
0000
0000
0000
0000
1000
0000
1000
0100
0000
0000
0000
0000
,
0000
0000
0000
0000
0000
0010
0000
0010
0100
0000
0100
1000
0000
0000
0000
0000
,
0020
0000
0130
0110
,
0000
0000
0000
0010
1000
0000
0000
0100
0000
0000
1000
0000
0001
0000
0000
0000
,
0000
1000
0100
0010
0100
1000
0010
0000
,
0000
0100
0010
1000
0000
0001
0020
0000
,
0000
0000
0130
1000
0001
0000
1000
0000
0001
0000
1000
0000
0010
0000
0000
0000
,
0000
0000
0000
0100
0001
0000
0000
0010
0000
0000
0001
0000
1000
0000
0000
0000
,
0000
0000
0000
0001
0010
1000
0010
0000
,
0000
0000
0000
0100
0010
0001
2001
0000
,
0000
0001
0000
0000
3000
0000
0100
1000
,
0100
0001
0000
0100
0010
0001
0000
0000
,
0000
0000
0001
0100
0000
0100
0000
0000
0000
0000
0000
0000
0010
0000
0100
0000
,
0001
1000
0000
0100
0000
0001
0000
0000
,
0000
0000
0000
0001
0100
0010
0001
0000
,
1000
0010
0000
0100
0001
1000
0100
0000
,
0000
0000
0010
0100
0000
0100
0010
0000
0001
0000
1000
0000
0010
0000
0000
1000
,
0010
0000
0000
0000
0100
0000
0001
0000
1000
0000
0000
0000
0001
0000
0000
0010
,
0100
0000
0000
0000
0010
0000
0001
0000
1000
0000
0000
0000
0001
0000
0000
0010
,
0001
0000
0000
0000
0100
0000
0010
0000
1000
0000
0000
0000
1010
0000
0000
MMMM
,
0000
0000
0101
0000
0000
0000
0000
0000
0000
0000
0001
1000
0010
0000
0000
0000
,
1000
0100
0110
1100
,
0001
0000
0000
0000
1000
0000
0000
0000
0001
0010
0100
0010
0001
0000
0000
0000
,
0010
0000
0100
0000
0010
0001
0100
0000
,
0001
1000
0000
1000
0100
0010
0100
0000
,
0010
0000
0001
0100
0010
1000
0001
0000
,
1000
0000
0100
1000
0010
0100
0001
0000
,
0100
0000
0010
0000
0100
0010
1000
0000
,
0010
0000
0100
0000
0000
0000
0001
0000
0000
0000
1000
0001
0200
0000
0000
0000
,
0301
0100
1010
0101
,
0001
0000
0000
0000
1000
0000
0000
0000
1000
0100
0010
0100
1000
0000
0000
0000
,
0100
0000
0010
0000
0011
0110
1100
0000
,
0000
0011
0000
0001
0100
1000
1100
0000
,
0100
0000
0010
1000
0001
0010
0100
0000
,
0010
0000
0000
0000
0001
0000
0001
0000
1000
0000
0010
0000
1000
0000
0010
0100
,
0000
0000
0000
0000
0100
0000
0001
0100
0000
0000
0000
0000
0010
0000
1000
0001
,
0000
0001
1000
0000
0000
0000
0000
0000
0010
0000
0000
0000
1000
0000
0100
0000
,
0010
0100
1000
0010
0100
0001
0010
0100
,
0010
0001
1000
0010
0100
0000
0010
1000
,
0001
0010
0100
0010
0001
1000
0010
1000
,
0001
0010
0100
0010
0001
0000
2001
0000
,
0000
0000
3010
0000
0000
0000
0000
0000
0000
0100
0000
0100
0010
0000
0000
0000
,
0000
0100
0001
0011
,
0001
0000
0010
0000
0000
0000
0010
0000
1000
0000
1000
0010
0001
0000
0010
0001
,
0000
0001
0100
0000
0010
0100
0000
0010
1000
0000
0001
0000
2000
0000
0000
0000
,
3100
2000
0000
3010
0200
0000
0302
0000
,
1000
0023
0230
0320
,
0031
0200
0000
0310
2000
0000
3002
0000
,
0010
0203
0320
2030
,
3100
0002
0000
0103
0020
0000
0032
0000
,
0010
0000
0000
0000
0203
0000
0000
0000
0310
0000
0000
0000
1001
0000
0000
MMMM
,
0000
0000
0101
0000
0000
MMMM
0000
0000
1010
0000
1000
0001
0010
0000
0100
0000
,
0010
0000
0001
0000
1000
0010
1000
0010
1000
0010
1000
0010
0200
0000
0000
0000
,
0000
0000
0000
0300
;

//---------------dance-single - ----------------
#NOTEDATA:;
#CHARTNAME:;
#STEPSTYPE:dance-single;
#DESCRIPTION:;
#CHARTSTYLE:;
#DIFFICULTY:Easy;
#METER:3;
#RADARVALUES:0.176433,0.274841,0.056138,0.028069,0.000000,132.000000,126.000000,6.000000,3.000000,0.000000,0.000000,0.000000,0.000000,0.000000,0.176433,0.274841,0.056138,0.028069,0.000000,132.000000,126.000000,6.000000,3.000000,0.000000,0.000000,0.000000,0.000000,0.000000;
#CREDIT:;
#NOTES:
0000
0000
0000
0000
,
0000
0000
0000
0000
,
0000
0000
0000
0000
,
0000
0000
0000
0000
,
0000
0000
1000
0000
,
0000
0000
0001
0000
,
0000
0000
0100
0000
,
0000
0000
0010
0000
,
0100
0000
1001
0110
,
0000
0010
1000
0100
,
0000
1000
0000
0000
,
0000
0001
0100
0010
,
0000
0100
0000
0000
,
0000
0001
0010
0100
,
0000
0000
0010
0001
,
0000
0000
1000
0010
,
0000
0000
0000
0100
,
0000
0000
0000
0010
0000
0000
0000
0000
,
0000
0000
0000
1000
,
0000
0000
0000
0001
0000
0001
0000
0000
,
0000
0000
0100
0010
,
0000
1000
0000
0000
0100
0000
0000
0000
,
0000
0000
0000
1000
,
0010
1000
0100
0010
,
0001
0100
0010
1000
,
0001
0100
0010
1001
,
0000
1001
0000
0000
0000
0000
1000
0000
,
0000
0000
0001
0010
,
0000
0000
0100
0010
,
0000
0000
0100
1000
,
0000
0001
0000
0000
0100
0000
0010
0000
,
0000
0000
0100
0010
,
0000
0000
0010
1000
,
0000
0000
0000
0001
,
0000
1000
0000
0001
0000
0000
1001
0000
,
0000
0000
0100
0010
,
0000
0000
1000
0010
,
0000
0000
0000
0000
0100
0001
0100
0000
,
0000
0001
0000
0000
1000
0000
0100
0000
,
0000
0000
0010
0100
,
0000
1000
0001
0100
,
0000
0100
0000
0100
,
0000
0100
0000
0010
,
0000
1000
0000
0000
0000
0000
0000
0000
,
0000
0100
1000
0001
,
0000
0010
0000
0000
0000
0000
0001
0000
,
0000
1000
0001
0100
,
0000
0010
0000
0000
0000
0000
0000
0000
,
0000
0100
0001
1000
,
0000
0100
0000
0000
1000
0000
0010
0000
,
0000
0100
0010
1000
,
0000
0010
0000
0000
0100
0000
0002
0000
,
0000
1000
1003
0001
,
0000
1000
0000
0000
0010
0000
0200
0000
,
0000
0010
0310
0100
,
0000
0010
0000
0000
1000
0000
0200
0000
,
0000
1000
1300
0100
,
0000
1000
0000
0000
0010
0000
0100
0000
,
0010
1000
0001
0110
;

//---------------dance-single - ----------------
#NOTEDATA:;
#CHARTNAME:;
#STEPSTYPE:dance-single;
#DESCRIPTION:;
#CHARTSTYLE:;
#DIFFICULTY:Medium;
#METER:4;
#RADARVALUES:0.247273,0.357293,0.140344,0.093563,0.009356,185.000000,170.000000,15.000000,10.000000,0.000000,0.000000,0.000000,0.000000,0.000000,0.247273,0.357293,0.140344,0.093563,0.009356,185.000000,170.000000,15.000000,10.000000,0.000000,0.000000,0.000000,0.000000,0.000000;
#CREDIT:;
#NOTES:
0000
0000
0000
0000
,
0000
0000
0000
0000
,
0000
0000
0000
0000
,
0000
0000
0000
0000
,
0000
0000
1000
0000
,
0000
0000
0001
0000
,
0000
0000
0100
0000
,
0000
0000
0010
0000
,
0100
0000
1001
0101
,
0000
0000
0000
0000
0001
0000
0000
1000
0000
0000
0100
0000
0010
0000
0000
0000
,
0000
0000
0000
0000
,
0000
0100
0010
0001
0000
1000
0000
0000
,
0000
0010
0100
0000
0000
0000
0000
0000
,
0000
0000
0000
0000
0010
0000
0000
1000
0000
0000
0010
0000
0100
0000
0000
0000
,
0000
0000
0000
0010
1000
0010
0100
0000
,
0000
0000
0000
0010
1000
0100
0010
0000
,
0000
0000
0000
0000
0000
0000
0100
0010
,
0001
1000
0000
0001
1000
0010
0000
0000
,
0000
0000
0000
0000
0000
0000
0100
0001
,
0100
0001
0000
0010
0000
0100
0000
0000
,
0000
0000
0000
0010
0001
1000
0010
0000
,
0000
0100
0000
0010
1000
0100
0000
0000
,
0000
0000
0000
0010
,
0011
0001
1000
0010
,
1010
1000
0001
0100
,
0101
0001
0100
1001
,
0000
0110
0000
0000
0000
0001
0010
0000
,
0000
0000
0100
1000
,
0000
0000
0000
0000
0100
1000
0010
0000
,
0000
0000
0000
0000
0100
0010
1000
0000
,
0000
0001
0000
0010
0001
1000
0100
0000
,
0000
0000
0000
1000
0010
0100
0001
0000
,
0000
0000
0000
0100
0010
1000
0100
0000
,
0000
0000
0000
0000
0000
0010
0001
0000
,
0100
0010
0000
1000
0000
0001
0200
0000
,
0000
0300
0010
1000
,
0000
0000
0000
0000
0100
1000
0001
0000
,
0000
0000
0000
0000
1000
0001
1001
0000
,
0000
0110
0000
0010
0100
0001
1001
0000
,
0000
0000
0000
1000
0010
1000
0001
0000
,
0000
0000
0010
0001
0010
0100
1000
0000
,
0000
0001
0000
0100
,
0000
0010
0000
1000
,
0010
0200
0301
0010
,
0100
2000
3001
1000
,
0010
2000
3100
1000
,
0010
0200
0301
1001
,
0000
0010
0000
0000
0000
0000
0000
0000
,
0000
0100
0001
0010
,
0000
0001
0000
0000
1000
0010
0100
0000
,
0000
0010
0000
1000
,
0000
0010
0000
0000
0100
0000
0002
0000
,
0000
1000
1000
2003
,
0000
3100
0000
0000
1000
0000
0020
0000
,
0000
0130
0010
2000
,
0000
3100
0000
0000
1000
0000
0020
0000
,
0000
0130
0001
1001
,
0000
0110
0000
0000
1001
0001
1000
0000
,
0000
0010
0000
1001
;

//---------------dance-single - ----------------
#NOTEDATA:;
#CHARTNAME:;
#STEPSTYPE:dance-single;
#DESCRIPTION:;
#CHARTSTYLE:;
#DIFFICULTY:Beginner;
#METER:2;
#RADARVALUES:0.102919,0.164905,0.056138,0.000000,0.000000,77.000000,71.000000,6.000000,0.000000,0.000000,0.000000,0.000000,0.000000,0.000000,0.102919,0.164905,0.056138,0.000000,0.000000,77.000000,71.000000,6.000000,0.000000,0.000000,0.000000,0.000000,0.000000,0.000000;
#CREDIT:;
#NOTES:
0000
0000
0000
0000
,
0000
0000
0000
0000
,
0000
0000
0000
0000
,
0000
0000
0000
0000
,
0000
0000
1000
0000
,
0000
0000
0000
0000
,
0000
0000
0001
0000
,
0000
0000
0000
0000
,
0000
0000
0000
0010
,
0000
1000
0000
0000
,
0000
0000
0000
0001
,
0000
0000
0000
0010
,
0000
0000
0000
0001
,
0000
0000
0000
1000
,
0000
0000
0010
0010
,
0000
0000
0100
0100
,
0000
0000
0000
1001
,
0000
0000
0000
0000
,
0000
0000
0000
0110
,
0000
0000
0000
0000
,
0000
0000
1000
1000
,
0000
0000
0001
0000
,
0000
0000
0000
0100
,
0000
0000
0000
0010
,
0000
0000
0000
1000
,
0000
0000
0000
1001
,
0000
0000
0000
0010
,
0000
0000
1000
1000
,
0000
0000
0001
0001
,
0000
0000
0100
0100
,
0000
0000
0010
0010
,
0000
0000
1000
1000
,
0000
0000
0001
0001
,
0000
0000
0000
1000
,
0000
0001
0000
0110
,
0000
0000
1000
1000
,
0000
0000
0010
0010
,
0000
0000
0100
1001
,
0000
0000
0000
0010
,
0000
0000
0100
0100
,
0000
0001
0001
0001
,
0000
0000
0000
0000
,
0000
0000
0000
1000
,
0000
0000
0000
0000
,
0000
0010
0000
0100
,
0000
0000
0000
0001
,
0000
1000
0000
0100
,
0000
0000
0000
0000
,
0000
1000
0000
0010
,
0000
0000
0100
0100
,
0000
0001
0000
1000
,
0000
0000
0000
0010
,
0000
0000
0000
1000
,
0000
0001
0000
1000
,
0000
0000
0000
0010
,
0000
0000
0000
0100
,
0000
0000
0000
0001
,
0000
1000
0000
0010
,
0000
0000
0000
1001
;

//---------------dance-double - ----------------
#NOTEDATA:;
#CHARTNAME:;
#STEPSTYPE:dance-double;
#DESCRIPTION:;
#CHARTSTYLE:;
#DIFFICULTY:Challenge;
#METER:6;
#RADARVALUES:0.334153,0.447231,0.355539,0.280689,0.037425,250.000000,212.000000,38.000000,30.000000,0.000000,0.000000,0.000000,0.000000,0.000000,0.334153,0.447231,0.355539,0.280689,0.037425,250.000000,212.000000,38.000000,30.000000,0.000000,0.000000,0.000000,0.000000,0.000000;
#CREDIT:;
#NOTES:
// measure 0
00000000
00000000
00000000
00000000
,  // measure 1
00000000
00000000
00000000
00000000
,  // measure 2
00000000
00000000
00000000
00000000
,  // measure 3
00000000
00000000
00000000
00000000
,  // measure 4
00000000
00000000
00000000
00000000
20000000
00000000
00000000
30200000
,  // measure 5
00000000
02300000
03020000
00000000
,  // measure 6
00000000
00000000
00230000
00000000
00302000
00000000
00000000
00023000
,  // measure 7
00000000
00030200
00002300
00000000
,  // measure 8
00000020
00000000
00003030
00000101
,  // measure 9
00000000
00000000
00000000
00000001
00000010
00000000
00000000
00000100
00000000
00000000
00000010
00000000
00000001
00000000
00000000
00000000
,  // measure 10
00000000
00000000
00001000
00000010
00001000
00000000
00000100
00000000
,  // measure 11
00000000
00010000
00000100
00001000
00000000
00000100
00020000
00000000
,  // measure 12
00000000
00000000
00031000
00100000
00001000
00000000
00010000
00000000
00000100
00000000
00010000
00000000
00001000
00000000
00000000
00000000
,  // measure 13
00000000
00000000
00000000
01000000
00100000
00000000
00000000
10000000
00000000
00000000
00010000
00000000
00100000
00000000
00000000
00000000
,  // measure 14
00000000
00000000
00000000
00100000
00010000
01000000
10000000
00000000
,  // measure 15
00000000
00000000
00000000
10000000
01000000
00010000
00200000
00000000
,  // measure 16
00000000
01000000
00000000
00000000
01300000
00000000
01000000
00100000
,  // measure 17
00001000
00010000
00000000
00000100
00001000
00000010
00000000
00000000
,  // measure 18
00000000
00000000
00000000
00000000
00000000
00000000
00000100
00000001
,  // measure 19
00000100
00000010
00000000
00001000
00000000
00000100
00000000
00000000
,  // measure 20
00000000
00000000
00000000
00001000
00000100
00000010
00000100
00000000
,  // measure 21
00000000
00001000
00000000
00000100
00010000
00001000
00000000
00000000
,  // measure 22
00000000
00000000
00000000
00001000
,  // measure 23
01010000
00000000
01000000
00100000
10000000
00000000
01000000
00000000
,  // measure 24
01100000
00000000
00100000
00001000
00010000
00000000
00001000
00000000
,  // measure 25
00001100
00000000
00001000
00000010
00000100
00000000
00000101
00000000
,  // measure 26
00000000
00001001
00000000
00000000
00000000
00000001
00000100
00000000
,  // measure 27
00000010
00001000
00001100
00010100
,  // measure 28
00001000
00000000
00100000
00000000
01000000
10000000
00100000
00000000
,  // measure 29
01000000
00000000
00010000
00000000
00100000
00001000
00010000
00000000
,  // measure 30
00000100
00010000
00000000
00010000
00000100
00001000
00000010
00000000
,  // measure 31
00000100
00000000
00000001
00000010
00000100
00000010
00000001
00000000
,  // measure 32
00001000
00000000
00000010
00000100
00000010
00001000
00000100
00000000
,  // measure 33
00010000
00000000
00001000
00000000
00100000
01000000
00100000
00000000
,  // measure 34
00100000
00010000
00000000
01000000
00000000
00100000
20020000
00000000
,  // measure 35
00000000
30030000
01010000
00110000
,  // measure 36
00100000
00000000
00001000
00000000
00010000
00000100
00001000
00000000
,  // measure 37
00000100
00000000
00001000
00000000
00001010
00000010
00000110
00000000
,  // measure 38
00000000
00000101
00000000
00000001
00000010
00000100
00001100
00000000
,  // measure 39
00000100
00000000
00001000
00000010
00000100
00000010
00001000
00000000
,  // measure 40
00000100
00000000
00000000
00000000
00010000
00000000
00001000
00000000
00100000
00000000
01000000
00000000
10000000
00000000
00000000
10000000
,  // measure 41
00000000
00000000
00000000
00000000
00010000
00000000
00000000
00010000
00000000
00000000
00000000
00000000
01000000
00000000
00000000
01000000
,  // measure 42
00000000
01100000
00000000
00000000
10010000
00000000
11000000
00000000
,  // measure 43
00000000
01100000
00000000
00000000
00000000
00000000
00000000
00000000
,  // measure 44
00000000
00110000
00101000
00011000
,  // measure 45
00000000
00010100
00000000
00000000
00000000
00000000
00001100
00000000
,  // measure 46
00000000
00000101
00001010
00001001
,  // measure 47
00000000
00000101
00000000
00000000
00000000
00000000
00000000
00000000
,  // measure 48
00000000
00000110
00001010
00010100
,  // measure 49
00000000
00011000
00000000
00000000
00101000
00000000
01100000
00000000
,  // measure 50
00000000
02000000
00000000
23000000
,  // measure 51
00000000
30200000
00000000
00000000
02300000
00000000
00020000
00000000
,  // measure 52
00000000
00000000
00000000
03030000
01000000
00010000
00200000
00000000
,  // measure 53
00000000
00302000
00000000
00000000
00023000
00000000
00000200
00000000
,  // measure 54
00000000
00030300
00002000
00000000
00003020
00000000
00000230
00000000
,  // measure 55
00000000
00000302
00000000
00000000
00000023
00000000
00000200
00000000
,  // measure 56
00000000
00000000
00000000
00000330
00000010
00000000
00000011
00000000
,  // measure 57
00000000
00000110
00000000
00000000
00001100
00000000
00011000
00001000
,  // measure 58
00100000
01000000
10000000
00100000
01000000
00010000
00200000
00000000
,  // measure 59
00000000
00000000
00000000
00300000
;
