#VERSION:0.83;
#TITLE:Be quiet;
#SUBTITLE:;
#ARTIST:Ryu☆;
#TITLETRANSLIT:;
#SUBTITLETRANSLIT:;
#ARTISTTRANSLIT:;
#GENRE:;
#ORIGIN:;
#CREDIT:;
#BANNER:Be Quiet-bn.png;
#BACKGROUND:Be Quiet-bg.png;
#PREVIEWVID:;
#JACKET:Be Quiet-jacket.png;
#CDIMAGE:;
#DISCIMAGE:;
#LYRICSPATH:;
#CDTITLE:;
#MUSIC:Be quiet.ogg;
#OFFSET:0.000000;
#SAMPLESTART:72.019989;
#SAMPLELENGTH:14.000008;
#SELECTABLE:YES;
#BPMS:0.000=150.000;
#STOPS:132.000=2.800,
134.750=0.400,
137.750=0.400,
140.750=0.400,
143.750=0.400,
169.000=1.200;
#DELAYS:;
#WARPS:;
#TIMESIGNATURES:0.000=4=4;
#TICKCOUNTS:0.000=4;
#COMBOS:0.000=1;
#SPEEDS:0.000=1.000=0.000=0;
#SCROLLS:0.000=1.000;
#FAKES:;
#LABELS:0.000=Song Start;
#BGCHANGES:;
#KEYSOUNDS:;
#ATTACKS:
;

//---------------dance-single - ----------------
#NOTEDATA:;
#CHARTNAME:;
#STEPSTYPE:dance-single;
#DESCRIPTION:;
#CHARTSTYLE:;
#DIFFICULTY:Hard;
#METER:9;
#RADARVALUES:0.576839,0.718732,0.086464,0.112403,0.626864,467.000000,457.000000,10.000000,13.000000,0.000000,0.000000,0.000000,0.000000,0.000000,0.576839,0.718732,0.086464,0.112403,0.626864,467.000000,457.000000,10.000000,13.000000,0.000000,0.000000,0.000000,0.000000,0.000000;
#CREDIT:;
#NOTES:
0000
0000
0000
0000
,
0000
0000
0000
0000
,
0000
0000
0000
0000
,
0000
0000
0000
0000
,
0000
0000
0000
0000
,
1000
0000
0001
0100
0000
0100
0001
0000
1000
0000
0001
0010
0000
0010
0001
0000
,
1000
0000
0010
1000
0000
1000
0010
0000
0100
0000
0001
1000
0000
1000
0001
0000
,
0010
0000
0001
0010
0000
0010
0001
0000
1000
0000
0010
1000
0000
1000
0010
0000
,
0100
0000
0000
1001
0000
0000
0010
0000
1001
0000
0000
0000
0001
0100
0001
0100
,
0001
0000
0100
0010
0000
0010
0000
0000
0000
0000
0000
0000
0000
0000
0000
0000
,
1000
0000
0001
1000
0000
1000
0000
0000
0000
0000
0000
0000
0000
0000
0000
0000
,
0010
0000
1000
0001
0000
0001
0000
0000
0000
0000
0000
0000
0000
0000
0000
0000
,
0001
0000
0010
0100
0000
0100
0000
0000
0000
0000
0000
0000
0000
0000
0000
0000
,
0100
0000
0010
0000
0001
0010
0000
0000
0001
0000
0100
0000
0010
1000
0000
0000
,
0010
0000
0100
0000
0001
1000
0000
0000
1000
0000
0100
0000
0010
0001
0000
0000
,
0010
0100
0010
0001
0010
0100
1000
0100
,
0020
0032
0203
0320
,
0130
0010
0100
0001
0000
0000
0000
0000
0000
0000
1000
0000
0000
1000
0000
0000
,
0001
1000
0000
1000
0001
0000
0100
0000
0000
0000
0010
0000
0000
0010
0000
0000
,
0100
0010
0100
0001
0000
0000
0000
0000
0000
0000
0100
0000
0000
0100
0000
0000
,
0010
0100
0000
0001
0100
0000
0010
0000
0200
0000
0000
0000
0302
0000
0000
0000
,
1003
0100
0001
0000
0100
0000
0010
0000
,
0001
1000
0000
1000
0001
0000
0100
0000
0010
0000
0000
0000
0100
0000
0000
0000
,
0001
0010
1000
0000
0010
0000
0100
0000
,
0110
0000
0000
0100
0000
0000
0010
0000
1001
0000
0000
0000
0100
0010
0100
0010
,
0100
0001
1000
0000
0100
0010
0001
0000
,
0010
0100
1000
0000
1001
1001
1001
0000
,
1000
0010
0100
0000
0010
0100
0001
0000
,
1000
0000
0000
0010
0000
0000
0001
0000
0010
0000
0000
0000
0100
0010
0100
0010
,
0100
0001
1000
0000
0100
0010
0001
0000
,
0010
0001
0100
0000
0010
0100
0001
1000
,
0010
1000
0010
1000
0010
1000
0010
1000
0010
1000
0010
1000
,
0010
0100
0010
1000
0001
0010
1000
0001
0100
1000
0100
0010
,
1000
0000
0000
0000
0001
0000
1000
0000
0001
1000
0000
0001
1000
0000
0001
0000
,
1000
0000
0001
0000
1000
0001
0000
1000
0001
0000
1000
0000
0001
0000
1000
0000
,
0001
1000
0000
0001
1000
0000
0001
0000
1000
0000
0001
0000
1000
0001
0000
1000
,
0001
0000
1000
0000
0001
0000
0000
0100
0000
0100
0000
0000
0001
0000
0000
1000
,
0000
1000
0000
0000
0010
0000
0000
0100
0000
0100
0000
0000
0001
0000
0000
0010
,
0000
0010
0000
0000
0001
0000
0000
0001
0010
0000
0000
0010
0100
0000
0000
0100
,
1000
0000
0000
1000
0100
0000
0000
0100
0010
0000
0000
0010
0001
0000
0000
0001
,
1000
0220
0000
0000
,
0000
0000
0000
0000
,
0000
0000
0000
0000
0330
0000
0000
0000
1000
0000
0001
0000
0100
0000
0001
0100
,
0000
0100
0001
0000
0100
0000
0000
0000
0010
0000
1000
0000
0001
0000
0010
0001
,
0000
0001
0010
0000
0001
0000
1000
0000
0010
0000
1000
0000
0100
0000
0010
0100
,
0000
0100
0010
0000
0001
0000
1000
0001
0100
0000
0001
0000
0100
0000
0010
1000
,
0000
1000
0001
0000
0010
0000
0100
0000
0010
0000
0001
0000
1000
0000
0010
1000
,
0000
0001
0100
0000
0010
0000
0000
0000
0100
0000
0001
0000
0010
0000
0100
0010
,
0000
0100
1000
0000
0010
0000
0100
0000
0001
0000
1000
0000
0010
0000
1000
0010
,
0000
0100
0001
0000
0010
0000
0100
0000
0010
0000
0000
1001
0000
0000
0010
0000
,
1001
0000
0000
0000
0001
0100
0001
0100
0001
0000
0000
1000
0000
0000
0100
0000
,
1000
0010
0000
0100
0000
0001
0000
1000
0001
0000
0010
0000
0001
0000
0010
0100
,
0000
0100
0010
0000
0001
0000
1000
0000
0010
0000
1000
0010
0000
0100
0001
0000
,
0010
0000
0001
1000
0000
0010
0000
0100
0010
0000
1000
0000
0001
0000
0010
0001
,
0000
0010
0100
0000
2000
0000
0000
0000
3001
0000
0100
0010
0000
1000
0100
0000
,
0010
0000
0100
0010
0000
0100
1000
0000
0100
0000
0010
0001
0000
0010
0100
0000
,
0010
0000
0001
0100
0000
0010
1000
0000
0001
0000
1000
0000
0010
0000
1000
0000
,
0001
0010
0001
1000
0001
0100
1000
0100
,
0020
0000
0000
0000
2030
0000
0000
0000
3100
0000
1000
0000
0010
0000
0100
0010
,
0000
1000
0010
0000
0100
0000
0010
0000
1000
0000
0100
0000
0010
0000
0100
0010
,
0000
0010
0001
0000
1000
0000
0001
0000
0100
0000
0100
0000
0010
0000
0000
0010
,
0000
0000
0000
0000
0000
0000
0000
0000
0000
0000
0010
0000
0010
0000
0000
0010
,
0000
0000
0000
0000
0000
0000
0000
0000
1000
0000
0001
0100
0000
0001
0100
0000
,
0010
1000
0000
0100
0000
1000
0000
0100
1000
0000
0010
0000
0100
0000
0001
1000
,
0000
0010
0100
0000
0001
0000
1000
0000
0001
0100
0001
0000
0100
0010
0100
0000
,
0010
1000
0010
0000
1000
0100
1000
0000
0100
0010
0100
0000
0010
0001
0010
0000
,
0002
2003
3010
0000
;

//---------------dance-single - ----------------
#NOTEDATA:;
#CHARTNAME:;
#STEPSTYPE:dance-single;
#DESCRIPTION:;
#CHARTSTYLE:;
#DIFFICULTY:Challenge;
#METER:10;
#RADARVALUES:0.705300,0.948727,0.216160,0.069171,0.920842,571.000000,546.000000,25.000000,8.000000,14.000000,0.000000,6.000000,0.000000,0.000000,0.705300,0.948727,0.216160,0.069171,0.920842,571.000000,546.000000,25.000000,8.000000,14.000000,0.000000,6.000000,0.000000,0.000000;
#CREDIT:;
#NOTES:
0000
0000
0000
0000
,
0000
0000
0000
0000
,
0000
0000
0000
0000
,
0000
0000
0000
0000
,
0000
0000
0000
0000
,
1000
0000
0001
0100
0000
0010
1000
0000
0001
0000
0010
0100
0000
1000
0100
0000
,
0010
0000
0001
0100
0000
0010
1000
0000
0001
0000
1000
0100
0000
0010
0001
0000
,
1000
0000
0010
0100
0000
0001
1000
0000
0100
0000
0010
0100
0000
1000
0001
0000
,
0110
0000
0000
1010
0000
0000
0101
0000
1001
0000
0000
0000
0010
0100
0010
0100
,
0010
0000
1000
0001
0000
0001
0000
0000
0000
0000
0010
0001
0000
0001
0100
0000
,
0010
0000
1000
0001
0000
0001
0000
0000
0000
0000
0100
0010
0000
0010
1000
0000
,
0100
0000
0010
0100
0000
0100
0000
0000
0000
0000
0010
0001
0000
0010
0100
0000
,
0010
0000
0001
0100
0000
0100
0000
0000
0000
0000
0010
0100
0000
0100
0001
0000
,
1000
0000
0001
0000
0010
0001
0000
0010
0100
0000
1000
0000
0010
0100
0000
0010
,
1000
0000
0001
0000
0010
0100
0000
0010
0001
0000
1000
0000
0010
1000
0000
0001
,
0010
0000
0001
0100
0010
0000
0100
0010
1000
0000
0001
0010
0100
0000
0010
0001
,
1000
0001
1000
0001
1000
0001
1000
0004
4000
0000
0000
0000
0000
0000
3003
0000
,
0010
1000
0001
0010
0000
0000
0000
0000
0000
0000
0100
0000
0000
0100
0000
0000
,
0100
0010
0000
0010
0001
0000
1000
0000
0000
0000
0001
0000
0000
0001
0000
0000
,
0100
0010
0100
0001
0000
0000
0000
0000
0000
0000
1000
0000
0000
1000
0000
0000
,
0100
1000
0000
0001
0010
0000
0001
0000
0200
0000
0000
0000
0320
0000
0000
0000
,
1030
0010
0100
0001
0010
0000
0000
0000
0001
0000
0000
0000
1000
0000
0000
0000
,
0010
1000
0000
1000
0001
0000
1000
0000
0001
0000
0000
0000
1000
0000
0000
0000
,
0001
0010
0100
0010
0001
0000
0000
0000
0010
0000
0000
0000
0001
0000
0000
0000
,
0101
0000
0000
1010
0000
0000
0100
0000
1001
0000
0000
0000
1000
0010
1000
0010
,
1000
0000
0010
0100
0000
0000
0000
0000
1000
0000
0010
0100
0000
0000
0000
0000
,
1000
0000
0010
0100
0000
0000
0000
0000
1001
0000
1001
0000
1001
0000
0000
0000
,
0001
0000
0010
0100
0000
0000
0000
0000
0001
0000
0010
0100
0000
0000
0000
0000
,
0001
0000
0010
0100
0000
0000
1000
0000
0100
0000
0000
0000
1000
0010
1000
0010
,
1000
0000
0010
0100
0000
0000
0000
0000
0100
0000
0001
1000
0000
0000
0000
0000
,
0100
0000
0000
0000
0000
0000
0010
0000
0000
0001
0000
0000
0000
0000
0000
0000
0000
0000
0000
0000
0000
0000
0000
0000
0010
0000
0000
0000
0000
0000
0001
0000
0000
0100
0000
0000
0010
0000
0000
0000
1000
0000
0000
0000
0001
0000
0000
0000
,
0010
1000
0010
0001
0100
1000
0100
0010
1000
0001
0010
0100
,
0010
0010
0010
0010
0010
0010
0010
0010
0010
0010
0010
0010
,
0110
0000
0000
0000
0001
0000
0001
0000
0001
2000
0000
0100
3001
0000
0100
0000
,
0010
0000
1000
0000
0001
0020
0000
0001
0130
0000
0010
0000
0001
0000
1000
0000
,
0010
2000
0000
0100
3010
0000
0100
0000
0010
0000
1000
0000
0001
0020
0000
0100
,
0031
0000
0010
0000
0001
0000
1000
0010
0000
1000
0000
0001
1000
0000
0010
1000
,
0000
0001
0000
1000
0010
0000
1000
0001
0000
1000
0000
0010
1000
0000
0001
1000
,
0000
0010
0000
1000
0001
0000
1000
0001
1000
0000
0001
1000
0001
0000
1000
0001
,
1000
0000
0001
1000
0001
0000
1000
0001
1000
0000
0001
1000
0001
0000
1000
0001
,
1000
0001
M44M
0000
0000
0000
M00M
0000
,
0000
M00M
0000
M00M
,
M00M
0000
0000
0000
M33M
0000
0MM0
0000
0001
0000
0100
0000
0010
0000
1000
0010
,
0000
0010
0100
0000
0010
0000
1000
0001
0010
0000
0100
0000
0010
0000
0001
1000
,
0000
1000
0001
0000
0010
0000
0100
0010
0001
0000
0010
0000
0001
0000
0100
0001
,
0000
0001
0010
0000
0100
0000
0010
0001
2000
0000
0001
0000
3001
0000
0100
0010
,
0000
1000
0010
0000
0100
0000
0001
1000
0100
0000
0010
0000
0100
0000
1000
0010
,
0000
0010
0100
0000
0010
0000
0100
0001
0010
0000
0100
0000
0010
0000
0001
1000
,
0000
1000
0001
0000
0010
0000
0001
0100
0010
0000
0100
0000
0010
0000
1000
0010
,
0000
0010
0100
0000
0010
0000
0100
0001
0010
0000
0000
1100
0000
0000
0010
0000
,
1001
0000
0000
0000
0010
0100
0010
0100
0001
0000
0001
0100
0000
0100
0010
0000
,
0100
0001
0000
0001
0000
1000
0000
1000
0001
0000
0100
0000
0010
0000
1000
0001
,
0000
0100
0010
0000
0100
0000
0001
0000
1000
0000
0010
0100
0000
0010
1000
0000
,
0001
0100
0000
0100
0000
0010
0000
0100
0001
0000
0100
0000
0010
0000
1000
0001
,
0000
1000
0100
0000
0020
0000
0000
0000
0130
0000
0010
0001
0000
0010
0100
0000
,
1000
0000
0010
0100
0000
0010
1000
0000
0001
0000
0010
0100
0000
0010
0001
0000
,
1000
0000
0010
1000
0000
0100
1000
0000
0001
0000
1000
0001
0100
0000
0100
0001
,
1000
0000
1000
0010
0100
0000
0100
0010
1000
0001
0100
0010
1000
0001
0010
0100
,
4000
0004
0000
0000
0000
0000
3003
0000
0110
0000
0100
0000
0110
0000
0010
1000
,
0000
1000
0010
0000
0100
0000
0001
0000
1001
0000
1000
0000
1001
0000
0001
0010
,
0000
0100
1000
0000
0010
0000
0100
0000
0101
0000
0101
0000
0011
0000
0000
1100
,
0000
0000
0000
0000
0000
0000
0000
0000
0000
0000
1001
0000
1001
0000
0000
0110
,
0000
0000
0000
0000
0000
0000
0000
0000
0010
1000
0010
0100
0001
0010
0100
0010
,
0001
1000
0010
0100
0001
0010
0100
0010
0001
0100
0010
1000
0010
0100
0001
0010
,
0100
0010
0001
0100
0010
1000
0001
0010
0100
0010
0100
0000
0001
1000
0001
0000
,
0100
0010
0100
0000
0001
1000
0001
0000
1000
0010
1000
0000
0001
0100
0001
0000
,
1000
0001
0100
0010
1000
0001
0100
0010
1000
0000
0000
0000
0000
0000
0000
0000
;

//---------------dance-double - ----------------
#NOTEDATA:;
#CHARTNAME:;
#STEPSTYPE:dance-double;
#DESCRIPTION:;
#CHARTSTYLE:;
#DIFFICULTY:Challenge;
#METER:9;
#RADARVALUES:0.591661,0.833730,0.164282,0.000000,0.639834,479.000000,460.000000,19.000000,0.000000,21.000000,0.000000,8.000000,0.000000,0.000000,0.591661,0.833730,0.164282,0.000000,0.639834,479.000000,460.000000,19.000000,0.000000,21.000000,0.000000,8.000000,0.000000,0.000000;
#CREDIT:;
#NOTES:
00000000
00000000
00000000
00000000
,
00000000
00000000
00000000
00000000
,
00000000
00000000
00000000
00000000
,
00000000
00000000
00000000
00000000
,
00000000
00000000
00000000
00000000
,
10000000
00100000
10000000
00000000
00010000
01000000
00010000
00000000
,
00100000
00010000
00100000
00000000
01000000
10000000
01000000
00000000
,
10000000
00010000
00100000
00000000
01000000
10000000
00100000
00000000
,
01000000
00000000
00000000
00001000
00000000
00000000
00010000
00000000
00010100
00000000
00000000
00000000
00001000
00010000
00001000
00010000
,
00001000
00000000
00010000
00000100
00000000
00000100
00000000
00000000
00000000
00000000
00000000
00000000
00000000
00000000
00000000
00000000
,
00001000
00000000
00000010
00000100
00000000
00000100
00000000
00000000
00000000
00000000
00000000
00000000
00000000
00000000
00000000
00000000
,
00000001
00000000
00000010
00000100
00000000
00000100
00000000
00000000
00000000
00000000
00000000
00000000
00000000
00000000
00000000
00000000
,
00001000
00000000
00000100
00010000
00000000
00010000
00000000
00000000
00000000
00000000
00000000
00000000
00000000
00000000
00000000
00000000
,
00001000
00010000
00000100
00000000
00010000
00001000
00100000
00000000
,
00001000
00010000
00000100
00000000
00010000
00001000
00100000
00000000
,
00001000
00010000
00001000
00010000
00001000
00010000
00001000
00010000
,
00004000
00040000
00000000
00000000
00000000
00000000
00000000
00000000
00000000
00000000
00000000
00000000
00033000
00000000
00000000
00000000
,
00001000
00100000
01000000
10000000
00000000
00000000
00000000
00000000
00000000
00000000
00000000
00000000
00000000
00000000
00000000
00000000
,
01000000
10000000
00000000
10000000
00100000
00000000
01000000
00000000
00000000
00000000
00000000
00000000
00000000
00000000
00000000
00000000
,
00010000
00100000
00001000
00010000
00000000
00000000
00000000
00000000
00000000
00000000
00000000
00000000
00000000
00000000
00000000
00000000
,
00001000
00010000
00000000
00010000
00000100
00000000
00001000
00000000
00001010
00000000
00000000
00000000
00000101
00000000
00000000
00000000
,
00000001
00000010
00000100
00001000
00000001
00000000
00000000
00000000
00000100
00000000
00000000
00000000
00000010
00000000
00000000
00000000
,
00001000
00000010
00000000
00000010
00000100
00000000
00000001
00000000
00001000
00000000
00000000
00000000
00000100
00000000
00000000
00000000
,
00010000
00000100
00010000
00001000
00100000
00000000
00000000
00000000
00010000
00000000
00000000
00000000
01000000
00000000
00000000
00000000
,
10100000
00000000
00000000
01010000
00000000
00000000
00110000
00000000
01100000
00000000
00000000
00000000
01000000
10000000
01000000
10000000
,
00010000
00000000
00100000
01000000
00000000
00000000
00000000
00000000
10000000
00000000
01000000
00100000
00000000
00000000
00000000
00000000
,
00010000
00000000
00100000
01000000
00000000
00000000
00000000
00000000
00110000
00000000
00011000
00000000
00110000
00000000
00000000
00000000
,
00100000
00000000
00001000
00010000
00000000
00000000
00000000
00000000
00010000
00000000
00000100
00001000
00000000
00000000
00000000
00000000
,
00000100
00000000
00000000
00001000
00000000
00000000
00000010
00000000
00000100
00000000
00000000
00000000
00000001
00000100
00000001
00000100
,
00000001
00001000
00000100
00000000
00000100
00000010
00000100
00000000
,
00000010
00000001
00000100
00000000
00000010
00001000
00000100
00010000
,
00001000
00010000
00001000
00100000
00010000
00100000
01000000
10000000
01000000
10000000
00010000
00100000
,
00001000
00010000
00001000
00010000
00001000
00010000
00001000
00010000
00001000
00010000
00001000
00010000
,
00011000
00000000
00000000
00000000
00001000
00000000
00010000
00000000
00001000
00010000
00000000
00001000
00010000
00000000
00010000
00000000
,
00001000
00000000
00010000
00000000
00001000
00010000
00000000
00001000
00010000
00000000
00010000
00000000
00001000
00000000
00010000
00000000
,
00001000
00010000
00000000
00001000
00010000
00000000
00010000
00000000
00001000
00000000
00010000
00000000
00001000
00010000
00000000
00001000
,
00010000
00000000
00010000
00000000
00001000
00000000
00001000
00100000
00000000
00010000
00000000
00100000
00001000
00000000
00010000
00000100
,
00000000
00000100
00000000
00010000
00001000
00000000
00001000
00100000
00000000
00100000
00000000
00001000
00010000
00000000
00010000
00000100
,
00000000
00000100
00000000
00000100
00010000
00000000
00001000
00100000
00010000
00000000
00100000
00001000
00010000
00000000
00010000
00000100
,
00001000
00000000
00000100
00010000
00001000
00000000
00001000
00100000
00010000
00000000
00100000
00001000
00010000
00000000
00010000
00000100
,
00001000
00044MMM
00000000
MMM00000
,
00000000
00000MMM
00000000
MMM00000
,
00000MMM
00000000
00000000
00000000
MMM33MMM
00000000
00000000
00000000
01000000
00000000
00100000
00000000
10000000
00000000
00010000
00100000
,
00000000
00100000
00010000
00000000
10000000
00000000
00000000
00000000
00010000
00000000
00100000
00000000
00001000
00000000
00010000
00001000
,
00000000
00001000
00010000
00000000
00000100
00000000
00001000
00000000
00000010
00000000
00000100
00000000
00000001
00000000
00000010
00000001
,
00000000
00000001
00000010
00000000
00000100
00000000
00000000
00000000
00000110
00000000
00000010
00000000
00000001
00000000
00000100
00000001
,
00000000
00000001
00001000
00000000
00000100
00000000
00001000
00000000
00000010
00000000
00010000
00000000
00001000
00000000
00100000
00001000
,
00000000
00001000
01000000
00000000
00100000
00000000
00000000
00000000
10000000
00000000
00100000
00000000
01000000
00000000
00010000
10000000
,
00000000
10000000
00010000
00000000
00100000
00000000
00000000
00000000
01000000
00000000
00100000
00000000
00010000
00000000
00100000
00001000
,
00000000
00001000
00010000
00000000
00000100
00000000
00000000
00000000
00001100
00000000
00000000
00000110
00000000
00000000
00000001
00000000
,
00001001
00000000
00000000
00000000
00000010
00000100
00000010
00000100
00000010
00000000
00000100
00000001
00000000
00000100
00000001
00000000
,
00001000
00000010
00000000
00001000
00000000
00000100
00000000
00001000
00000010
00000000
00000100
00000000
00000001
00000000
00001000
00000100
,
00000000
00010000
00001000
00000000
00100000
00000000
01000000
10000000
01000000
00000000
10000000
00100000
00000000
01000000
00000000
00100000
,
10000000
01000000
00000000
00100000
00000000
01000000
00000000
10000000
00100000
00000000
01000000
00000000
00010000
00000000
00100000
00001000
,
00000000
00001000
00010000
00000000
00004400
00000000
00000000
00003300
00000001
00000000
00000100
00000000
00000010
00000000
00001000
00000000
,
00000100
00010000
00001000
00100000
01000000
10000000
01000000
10000000
,
00100000
00000000
01000000
00000000
00010000
00000000
00100000
00000000
01000000
00000000
00100000
00001000
00010000
00000000
00001000
00010000
,
00000100
00000000
00010000
00001000
00100000
00000000
00001000
00010000
00000100
00001000
00000100
00001000
00000100
00001000
00000100
00001000
,
00000100
00000010
00000001
00000100
00000010
00001000
00000001
00000100
00000010
00000000
00000010
00000000
00000100
00000000
00000001
00000100
,
00000000
00000100
00000001
00000000
00001000
00000000
00000100
00000000
00000010
00000000
00000010
00000000
00000100
00000000
00001000
00000100
,
00000000
00001000
00000010
00000000
00000100
00000000
00000001
00000000
00001000
00000000
00001000
00000000
00000100
00000000
00000000
00011000
,
00000000
00000000
00000000
00000000
00000000
00000000
00000000
00000000
00000000
00000000
00001000
00000000
00001000
00000000
00000000
01010000
,
00000000
00000000
00000000
00000000
00000000
00000000
00000000
00000000
00010000
00000000
01000000
00100000
00000000
10000000
00010000
00000000
,
00100000
01000000
00000000
10000000
00000000
00010000
00000000
00100000
00010000
00000000
01000000
00000000
00100000
00000000
10000000
00010000
,
00000000
00010000
10000000
00000000
00010000
00000000
01000000
00000000
00010000
10000000
00010000
00000000
00100000
00010000
00100000
00000000
,
00001000
00100000
00001000
00000000
00010000
00000100
00010000
00000000
00001000
00000100
00001000
00000000
00000001
00000100
00000001
00000000
,
00000040
00000400
00000000
00000000
00000000
00000000
00000000
00000000
00000330
00000000
00000000
00000000
00000000
00000000
00000000
00000000
;

//---------------dance-single - ----------------
#NOTEDATA:;
#CHARTNAME:;
#STEPSTYPE:dance-single;
#DESCRIPTION:;
#CHARTSTYLE:;
#DIFFICULTY:Medium;
#METER:7;
#RADARVALUES:0.433555,0.603735,0.233453,0.103757,0.198867,351.000000,324.000000,27.000000,12.000000,0.000000,0.000000,2.000000,0.000000,0.000000,0.433555,0.603735,0.233453,0.103757,0.198867,351.000000,324.000000,27.000000,12.000000,0.000000,0.000000,2.000000,0.000000,0.000000;
#CREDIT:;
#NOTES:
0000
0000
0000
0000
,
0000
0000
0000
0000
,
0000
0000
0000
0000
,
0000
0000
0000
0000
,
0000
0000
0000
0000
,
1000
1000
0001
0000
0010
0000
0001
0000
,
0100
0010
1000
0001
,
0010
0010
0001
0000
1000
0000
0010
0000
,
0100
0000
0000
0001
0000
0000
0010
0000
1001
0000
0000
0000
0001
0000
0001
0000
,
1000
0000
0000
0100
0000
0100
0000
0000
0000
0000
0000
0000
0000
0000
0000
0000
,
0010
0000
0000
0001
0000
0001
0000
0000
0000
0000
0000
0000
0000
0000
0000
0000
,
0100
0000
0000
0010
0000
0010
0000
0000
0000
0000
0000
0000
0000
0000
0000
0000
,
1000
0000
0000
0001
0000
0001
0000
0000
0000
0000
0000
0000
0000
0000
0000
0000
,
0100
0001
0100
0000
0100
0010
0100
0000
,
0100
1000
0100
0000
0100
0010
0100
0000
,
0010
1000
0010
0100
,
0001
0010
0100
1000
0200
0000
2300
0000
,
3001
0000
0000
0010
0000
0000
0000
0000
0000
0000
0001
0000
0000
0001
0000
0000
,
1000
0001
0000
1000
0001
0000
1000
0000
0000
0000
0010
0000
0000
0100
0000
0000
,
0010
0000
0000
1000
0000
0000
0000
0000
0000
0000
0001
0000
0000
0001
0000
0000
,
0001
0100
0000
0001
0100
0000
0010
0000
2000
0000
0000
0000
3002
0000
0000
0000
,
0013
0100
1000
0000
0100
0000
1000
0000
,
0010
0100
0000
0010
1000
0000
0001
0000
0010
0000
0000
0000
0001
0000
0000
0000
,
1000
0001
0010
0000
0100
0000
0010
0000
,
1001
0000
0000
0010
0000
0000
0100
0000
1001
0000
0000
0000
0000
0000
0000
0000
,
1000
0001
0100
0000
0001
1000
0010
0000
,
1000
0001
0100
0000
0010
0010
0010
0000
,
1000
0001
0010
0000
0010
0001
1000
0000
,
1000
0001
0010
0100
0010
0000
0000
0000
,
0100
1000
0010
0000
0100
0000
0101
0000
,
0001
1000
0010
0000
0100
0000
1001
0000
,
1100
0101
1100
0101
,
0001
0100
0010
1000
0001
0100
0010
1000
0001
0100
0010
1000
,
0001
0000
0000
0000
1000
0000
0100
0000
0020
0000
0000
0030
0100
0000
1000
0000
,
0010
0000
0100
0000
0002
0000
0000
0003
1000
0000
0001
0000
0010
0000
0001
0000
,
0200
0000
0000
0300
0010
0000
0100
0000
0001
0000
1000
0000
0200
0000
0000
0300
,
1000
0000
1000
0000
1000
0000
0000
0001
0000
0001
0000
0000
0100
0000
0000
0010
,
0000
0010
0000
0000
1000
0000
0000
0010
0000
0010
0000
0000
0100
0000
0000
0010
,
0000
0010
0000
0000
1000
0000
0000
0000
0010
0000
0000
0000
0100
0000
0000
0000
,
0001
0100
0010
1000
,
0110
4004
0000
0000
,
0000
0000
0000
0000
,
0000
0000
3003
0000
0001
0100
0001
0000
,
1000
0000
1100
0000
0100
1000
0010
0000
,
0100
0000
0110
0000
0010
1000
0001
0000
,
0010
0000
1001
0000
0002
0100
0103
0010
,
1000
0010
0100
0001
1000
0100
0001
0000
,
0100
0000
0110
0000
0010
0001
1000
0000
,
0010
0000
0110
0000
0100
1000
0010
0000
,
0100
0000
0000
0000
0101
0000
0000
0000
0001
0000
0000
1000
0000
0000
0010
0000
,
1001
0000
0001
0001
0001
1000
0010
0000
,
1000
0001
0010
0000
0100
0010
0001
0100
,
0010
1000
0001
0000
1000
0001
0100
0000
,
0001
1000
0100
0000
1000
0100
1000
0010
,
0100
0000
0001
0000
0020
0000
0000
0000
0130
0000
0000
0010
0000
0000
0001
0000
,
1000
0000
0000
0010
0000
0000
0100
0000
0001
0000
0000
1000
0000
0000
0100
0000
,
0010
0000
0000
0100
0000
0000
1000
0000
0001
0000
0000
0000
0001
0000
0000
0000
,
1000
0000
1000
0000
0001
0100
0010
1000
,
0200
0000
2300
0000
3010
0010
0010
0100
,
0010
0010
0100
0000
0001
0001
0001
1000
,
0001
0000
0001
0000
1000
0000
0000
0000
0001
0000
0100
0000
0010
0000
0000
1000
,
0000
0000
0000
0000
0000
0000
0000
0000
0000
0000
0010
0000
0100
0000
0000
0001
,
0000
0000
0000
0000
0000
0000
0000
0000
1000
0000
0000
0001
0000
0000
0100
0000
,
0001
0000
0000
0010
0000
0000
0100
0000
0010
0000
0001
0000
0100
0000
0001
0000
,
1000
0100
0010
0001
0101
0000
1010
0000
,
0101
1010
0101
1010
,
1100
0011
1001
0000
;

//---------------dance-single - ----------------
#NOTEDATA:;
#CHARTNAME:;
#STEPSTYPE:dance-single;
#DESCRIPTION:;
#CHARTSTYLE:;
#DIFFICULTY:Easy;
#METER:5;
#RADARVALUES:0.276685,0.517487,0.233453,0.069171,0.000000,224.000000,197.000000,27.000000,8.000000,0.000000,0.000000,0.000000,0.000000,0.000000,0.276685,0.517487,0.233453,0.069171,0.000000,224.000000,197.000000,27.000000,8.000000,0.000000,0.000000,0.000000,0.000000,0.000000;
#CREDIT:;
#NOTES:
// measure 0
0000
0000
0000
0000
,  // measure 1
0000
0000
0000
0000
,  // measure 2
0000
0000
0000
0000
,  // measure 3
0000
0000
0000
0000
,  // measure 4
0000
0000
0000
0000
,  // measure 5
1000
0010
0100
0001
,  // measure 6
0100
0010
1000
0001
,  // measure 7
0010
0001
0100
0010
,  // measure 8
1001
0000
0110
0100
,  // measure 9
0010
1000
0000
0000
,  // measure 10
0010
1000
0000
0000
,  // measure 11
0010
1000
0000
0000
,  // measure 12
0010
1000
0000
0000
,  // measure 13
0001
0100
0010
1000
,  // measure 14
0001
0100
0010
1000
,  // measure 15
0001
0001
0001
0001
,  // measure 16
2000
0000
0000
0000
,  // measure 17
3010
0000
0000
0000
,  // measure 18
0100
0000
0000
0000
,  // measure 19
0010
0000
0000
0000
,  // measure 20
0100
0000
0020
2030
,  // measure 21
3100
1000
0100
0000
1000
0000
0010
0000
,  // measure 22
0100
0100
0010
1000
,  // measure 23
0001
0100
0001
0000
0100
0000
0001
0000
,  // measure 24
1001
0000
0110
0000
,  // measure 25
0100
0000
0010
0000
,  // measure 26
1000
0000
0000
0000
0001
0001
0001
0000
,  // measure 27
1000
0000
0010
0000
,  // measure 28
0100
0000
0010
0000
1000
0000
0001
1000
,  // measure 29
0001
0000
0010
0000
,  // measure 30
0001
0000
1000
0000
,  // measure 31
0001
0001
0001
0001
,  // measure 32
1001
0110
1001
0110
,  // measure 33
1001
0100
0000
0000
,  // measure 34
0100
0000
0000
0010
,  // measure 35
0000
0000
0010
0000
,  // measure 36
0000
1000
0000
0001
,  // measure 37
0000
0100
0000
0010
,  // measure 38
0000
1000
0001
0100
,  // measure 39
0010
1000
0001
0100
,  // measure 40
0010
2002
0000
0000
,  // measure 41
0000
0000
0000
0000
,  // measure 42
0000
3003
0001
0100
,  // measure 43
0010
1010
1000
0010
,  // measure 44
0100
0101
0001
1000
,  // measure 45
0100
1100
1000
0010
,  // measure 46
0100
0010
1000
0001
,  // measure 47
0010
0110
0010
0001
,  // measure 48
1000
1100
1000
0010
,  // measure 49
0100
0101
1001
0000
,  // measure 50
0110
0000
0100
0010
0100
0000
0010
0000
,  // measure 51
1000
0001
0010
0010
,  // measure 52
0001
0001
1000
0001
,  // measure 53
0100
0001
1000
1000
,  // measure 54
0100
2000
3010
0100
,  // measure 55
0001
0100
0010
1000
,  // measure 56
0100
1000
0010
0100
,  // measure 57
0001
1000
0001
0100
,  // measure 58
0020
0000
0230
0000
0301
1000
0001
0000
,  // measure 59
1000
0000
0100
0000
0010
0100
0010
0000
,  // measure 60
0100
0000
1000
0000
0001
0001
0001
0000
,  // measure 61
0000
0000
0000
0000
0000
1000
1000
0000
,  // measure 62
0000
0000
0001
0100
,  // measure 63
0010
1000
0010
0100
,  // measure 64
0001
1000
1001
0110
,  // measure 65
1001
0110
1001
0110
,  // measure 66
1001
0110
1001
0000
;

//---------------dance-single - ----------------
#NOTEDATA:;
#CHARTNAME:;
#STEPSTYPE:dance-single;
#DESCRIPTION:;
#CHARTSTYLE:;
#DIFFICULTY:Beginner;
#METER:2;
#RADARVALUES:0.133402,0.229994,0.138342,0.000000,0.000000,108.000000,92.000000,16.000000,0.000000,0.000000,0.000000,0.000000,0.000000,0.000000,0.133402,0.229994,0.138342,0.000000,0.000000,108.000000,92.000000,16.000000,0.000000,0.000000,0.000000,0.000000,0.000000,0.000000;
#CREDIT:;
#NOTES:
0000
0000
0000
0000
,
0000
0000
0000
0000
,
0000
0000
0000
0000
,
0000
0000
0000
0000
,
0000
0000
0000
0000
,
0010
0000
0000
0000
,
0100
0000
0000
0000
,
0001
0000
0000
0000
,
1001
0000
0110
0000
,
1000
0000
0000
0000
,
1000
0000
0000
0000
,
0001
0000
0000
0000
,
0001
0000
0000
0000
,
0100
0000
0100
0000
,
0010
0000
0010
0000
,
1000
0000
0001
0000
,
0110
0000
0000
0000
,
1000
0000
0000
0000
,
0001
0000
0000
0000
,
1000
0000
0000
0000
,
0010
0000
0100
0100
,
0110
0000
0000
0000
,
0001
0000
0000
0000
,
1000
0000
0000
0000
,
1001
0000
0110
0000
,
1000
0000
1000
0000
,
1000
0000
0000
0000
,
0001
0000
0001
0000
,
0001
0000
0000
0100
,
0100
0000
0010
0000
,
0100
0000
0010
0000
,
0100
0000
0100
0000
,
1001
0000
0110
0000
,
1001
0010
0000
0000
,
0010
0000
0000
0010
,
0000
0000
0010
0000
,
0000
0010
0000
0010
,
0000
0010
0000
0010
,
0000
0100
0000
0100
,
0000
0100
0000
0100
,
0000
1001
0000
0000
,
0000
0000
0000
0000
,
0000
0000
1000
0000
,
0000
0000
0010
0000
,
0000
0000
0100
0000
,
0000
0000
1001
0000
,
0000
0000
0110
0000
,
0000
0000
0010
0000
,
0000
0000
0100
0000
,
0000
0000
0001
0000
,
1001
0000
1000
0000
,
1000
0000
0001
0000
,
0000
0000
0100
0000
,
0010
0000
1000
0000
,
0000
0000
0001
0000
,
1000
0000
0010
0000
,
0000
0000
0100
0000
,
0100
0000
0100
0000
,
0000
0010
0010
0000
,
0000
0000
1000
0000
,
0000
0000
1001
0000
,
0000
0000
0010
0000
,
0000
0000
0100
0000
,
0010
0000
1000
0000
,
0001
0000
1001
0000
,
1000
0000
0001
0000
,
0100
0100
1001
0000
;
