#VERSION:0.83;
#TITLE:バスルーム ロマンス;
#SUBTITLE:;
#ARTIST:Saori Watanabe;
#TITLETRANSLIT:Bathroom romance;
#SUBTITLETRANSLIT:;
#ARTISTTRANSLIT:;
#GENRE:;
#ORIGIN:;
#CREDIT:;
#BANNER:banner.png;
#BACKGROUND:background.png;
#PREVIEWVID:;
#JACKET:jacket.png;
#CDIMAGE:;
#DISCIMAGE:;
#LYRICSPATH:;
#CDTITLE:;
#MUSIC:Bathroom romance.mp3;
#OFFSET:-1.354999;
#SAMPLESTART:39.657581;
#SAMPLELENGTH:12.774193;
#SELECTABLE:YES;
#BPMS:0.000=155.000;
#STOPS:;
#DELAYS:;
#WARPS:;
#TIMESIGNATURES:0.000=4=4;
#TICKCOUNTS:0.000=4;
#COMBOS:0.000=1;
#SPEEDS:0.000=1.000=0.000=0;
#SCROLLS:0.000=1.000;
#FAKES:;
#LABELS:0.000=Song Start;
#BGCHANGES:;
#KEYSOUNDS:;
#ATTACKS:
;

//---------------dance-single - ----------------
#NOTEDATA:;
#CHARTNAME:;
#STEPSTYPE:dance-single;
#DESCRIPTION:;
#CHARTSTYLE:;
#DIFFICULTY:Hard;
#METER:9;
#RADARVALUES:0.507044,0.618325,0.120180,0.104156,0.176264,443.000000,428.000000,15.000000,13.000000,0.000000,0.000000,0.000000,0.000000,0.000000,0.507044,0.618325,0.120180,0.104156,0.176264,443.000000,428.000000,15.000000,13.000000,0.000000,0.000000,0.000000,0.000000,0.000000;
#CREDIT:;
#NOTES:
0000
0000
0000
0000
,
0000
0000
0000
0000
,
0000
0000
0000
0000
,
0000
0000
0000
0000
,
1000
0000
0100
0000
0010
0000
0100
1000
0000
0010
0000
0100
0001
0000
1000
0000
,
0010
0000
0100
0000
0001
0000
0010
0100
0000
0010
0000
0001
1000
0000
0010
0000
,
1000
0000
0100
0000
0010
0000
0001
0100
0000
0010
0000
1000
0001
0000
0010
0000
,
0100
0000
0010
0000
0001
0000
0100
0010
0000
1000
0000
0100
1000
0000
0010
0000
,
0100
0000
0001
0000
0010
0000
0100
0010
0000
0001
0000
1000
0010
0000
0100
0000
,
0001
0000
1000
0000
0010
0000
1000
0001
0000
0010
0000
0100
0010
0000
0001
0000
,
1000
0001
0100
0100
0001
1000
0010
0010
,
1000
0001
0100
0100
0001
1000
0010
0010
,
2002
0000
0000
0000
,
0000
0000
0000
0000
0000
3003
0001
0010
,
0001
0000
0001
1000
0001
0000
0001
0100
,
0001
0000
1000
0000
0000
0000
0100
1000
,
0100
0000
0100
0010
0100
0000
1000
0000
,
1000
0001
0100
0001
1000
0000
0010
1000
,
0010
0000
0010
0100
0010
0000
0010
1000
,
0010
0000
1000
0000
0000
0000
0001
1000
,
0001
0000
0001
0100
0001
0000
1000
0000
,
0100
0010
0000
0010
0000
0010
0000
0010
,
0000
0100
0000
0100
0000
0100
0000
0100
,
0010
0001
0100
1000
,
0100
0010
1000
0001
0010
0100
0010
0001
,
1000
0001
0010
0010
0100
0010
0001
0001
,
1000
0000
0010
0000
0100
0010
1000
0001
,
0010
0100
0010
0001
1000
0000
0001
0000
,
0101
0000
1100
0000
1001
0000
1000
0001
,
0010
0100
0010
0010
0100
1000
0001
0001
,
1000
0000
0010
0000
0100
0001
0010
0100
,
0010
0001
1000
0010
0100
0000
0001
0000
,
0011
0000
1010
0000
1001
0000
1000
0001
,
0010
0000
0001
1000
0010
0000
1000
0001
,
0010
1000
0010
0001
0100
1000
0100
0001
,
1000
0000
0001
1000
0100
0000
0010
0100
,
1100
0110
0011
0000
,
0001
0100
0010
0010
0100
0010
1000
1000
,
0100
0000
1000
0000
0100
0010
0001
1000
,
0010
0100
0001
0010
0001
0000
1000
0000
,
0020
0000
0000
1030
0100
0010
0001
1000
,
0001
0010
0001
1000
0100
0000
1000
0010
,
0200
0000
0301
0100
0001
0010
0100
0010
,
0001
1000
0001
0100
0001
0000
1000
0000
,
0100
0000
0000
0000
1000
0000
0000
0100
0010
0000
0000
0000
0001
0000
0000
0100
,
0010
0000
0000
0000
1000
0000
0000
0100
0010
0000
0000
0000
0001
0000
0000
0100
,
0020
0000
0000
0030
,
1000
0001
1000
0001
1000
1000
1000
0000
,
0001
0100
0001
0100
0001
0001
0001
0000
,
0100
0010
0100
0010
0100
0100
0100
0000
,
0010
0100
0010
0100
0110
1001
0110
0000
,
0002
0000
2003
0000
3100
1000
0001
0100
,
1000
0001
0100
1000
0010
1000
0001
0100
,
0020
0000
0230
0000
0310
0001
1000
0010
,
0001
1000
0010
1000
1001
0000
0000
0000
,
0000
0000
0000
0000
0001
0010
0001
0010
0001
0000
0000
0000
0000
0000
0000
0000
,
0000
0000
0000
0000
1000
0100
1000
0100
1000
0000
0000
0000
0010
1000
0010
1000
,
0010
0000
0000
0000
0100
0001
0100
0001
0100
0000
0000
0000
0001
1000
0001
1000
,
0001
0000
0000
0000
0100
0010
0100
0010
0100
0000
0000
0000
0000
0000
0000
0000
,
0000
0000
0000
0000
0010
0000
1000
0010
1000
0000
0000
0000
0000
0000
0000
0000
,
0000
0000
0000
0001
0100
0001
0100
0001
0100
0000
0000
0000
0000
0000
0000
0000
,
0000
0000
0000
0000
0010
0100
0010
0100
0010
0000
0000
0000
0000
0000
0000
0000
,
0000
0000
0000
0000
1000
0001
1000
0001
1000
0000
1000
0000
0100
0000
0100
0000
,
0010
0010
0001
0001
0000
0000
0000
0000
,
0000
0000
0001
0010
0100
0010
0001
0001
,
0100
0010
1000
1000
0100
0000
1000
0000
,
0010
1000
0001
0100
0001
0010
0100
0010
,
0001
0000
1000
0000
0200
0000
0000
0310
,
0100
1000
0001
0100
0001
1000
0100
0010
,
0100
0000
1000
0100
0010
0000
0100
1000
,
0010
0100
0001
0010
0100
0010
0001
1000
,
0010
0000
0000
0000
0100
0000
0000
0000
1002
0000
0000
0000
0013
0000
0000
0001
,
2000
0000
0000
0000
3100
0000
0000
0001
0020
0000
0000
0000
0000
0000
0000
0000
,
0000
0000
0030
0000
;

//---------------dance-single - ----------------
#NOTEDATA:;
#CHARTNAME:;
#STEPSTYPE:dance-single;
#DESCRIPTION:;
#CHARTSTYLE:;
#DIFFICULTY:Medium;
#METER:6;
#RADARVALUES:0.410900,0.529993,0.152228,0.184276,0.000000,359.000000,340.000000,19.000000,23.000000,0.000000,0.000000,0.000000,0.000000,0.000000,0.410900,0.529993,0.152228,0.184276,0.000000,359.000000,340.000000,19.000000,23.000000,0.000000,0.000000,0.000000,0.000000,0.000000;
#CREDIT:;
#NOTES:
0000
0000
0000
0000
,
0000
0000
0000
0000
,
0000
0000
0000
0000
,
0000
0000
0000
0000
,
1000
0010
0100
0000
0001
0000
0010
0000
,
0100
0010
0001
0000
1000
0000
0001
1000
,
0100
1000
0010
0000
0100
0000
0001
0000
,
0010
0100
1000
0000
0100
0000
0010
0001
,
1000
0010
0100
0000
0001
0000
1000
0000
,
0001
0010
0100
0000
0010
0000
0001
0000
,
1000
0001
0100
0000
0010
1000
0100
0000
,
0010
0100
1000
0000
0100
0010
0001
0000
,
2002
0000
0000
0000
,
0000
0000
0000
0000
3003
0000
1000
0100
,
0010
0000
0010
0100
1000
0000
1000
0001
,
0100
0000
0010
0000
0000
0000
0100
0010
,
1000
0000
0010
0100
0001
0000
0010
0000
,
0100
0010
0001
1000
0100
0000
0100
1000
,
0010
0000
0010
1000
0100
0000
0100
1000
,
0010
0000
0100
0000
0000
0000
0010
0100
,
0001
0000
0001
0010
0100
0000
0010
0000
,
0001
1000
0000
1000
0000
1000
0000
1000
,
0000
0001
0000
0001
0000
0001
0000
0001
,
1000
0010
0100
0001
,
1000
0100
0010
0001
0020
0000
0230
0000
,
1300
0100
1000
0000
0100
0010
0100
0000
,
0010
0000
0001
0000
1000
0001
0100
0000
,
0001
0100
0010
1000
0001
0000
0010
0000
,
0110
0011
0110
0000
,
0100
1000
0010
0000
0100
0010
1000
0000
,
0002
0000
1003
0000
0100
1000
0010
0000
,
0100
0001
0010
0100
0010
0000
0001
0000
,
1010
0000
0011
0000
1010
0000
0001
1000
,
0010
0000
0010
1000
0001
0000
0001
1000
,
0010
0000
1000
0000
0100
0000
1000
0001
,
0100
0000
0100
0001
1000
0000
1000
0100
,
0010
0100
2000
0000
,
3100
1000
0010
0000
0100
0001
1000
0000
,
0001
0000
1000
0000
0100
0010
0001
0000
,
0010
0000
0001
0100
0010
0000
1000
0000
,
0200
0000
0000
1300
0100
0000
1000
0010
,
0100
0000
0010
1000
0001
0000
0010
0000
,
0100
0000
0010
0001
0100
0000
0010
0000
,
1000
0001
0100
0010
1000
0000
0001
0000
,
1002
0013
2001
3100
,
1002
0103
2001
3100
,
0120
0000
0000
0030
,
1000
0010
1000
0010
1000
1000
1000
0000
,
0001
0100
0001
0100
0001
0001
0001
0000
,
1000
0001
1000
0001
1000
1000
1000
0000
,
0001
0010
0001
0010
0011
0011
0011
0000
,
0002
0000
0203
0000
0310
0100
0001
0000
,
1000
0010
0100
0000
0010
1000
0100
0000
,
2000
0000
3200
0000
0310
0100
1000
0000
,
0010
0100
0001
0000
1001
0000
0000
0000
,
0000
0000
0001
0100
1000
0000
0000
0000
,
0000
0000
1000
0100
0001
0000
0001
0100
,
1000
0000
1000
0100
0001
0000
0001
0100
,
1000
0000
1000
0100
0001
0000
0000
0000
,
0000
0000
0001
0010
1000
0000
0000
0000
,
0000
0000
1000
0010
0001
0000
0000
0000
,
0000
0000
0001
0010
1000
0000
0000
0000
,
0000
0000
1000
0010
0001
0001
1000
1000
,
0001
0001
1000
1000
0000
0000
0000
0000
,
0000
0000
0000
0000
0001
0100
0010
0000
,
0100
0010
1000
0000
0002
0000
2003
0000
,
3100
1000
0010
0000
0100
0010
1000
0001
,
0010
0000
0100
0000
0020
0000
0000
0130
,
0010
0000
0001
0010
0100
0000
0010
0001
,
0100
0000
0010
0100
0001
0000
1000
0001
,
0100
0000
0001
0000
1000
0001
0010
0100
,
0010
0001
0102
0013
,
2100
3010
2002
0000
,
0000
0000
3003
0000
;

//---------------dance-single - ----------------
#NOTEDATA:;
#CHARTNAME:;
#STEPSTYPE:dance-single;
#DESCRIPTION:;
#CHARTSTYLE:;
#DIFFICULTY:Easy;
#METER:4;
#RADARVALUES:0.263251,0.382773,0.168252,0.056084,0.000000,230.000000,209.000000,21.000000,7.000000,0.000000,0.000000,0.000000,0.000000,0.000000,0.263251,0.382773,0.168252,0.056084,0.000000,230.000000,209.000000,21.000000,7.000000,0.000000,0.000000,0.000000,0.000000,0.000000;
#CREDIT:;
#NOTES:
0000
0000
0000
0000
,
0000
0000
0000
0000
,
0000
0000
0000
0000
,
0000
0000
0000
0000
,
1000
0000
0001
0000
,
0100
0000
0010
1000
,
0100
0000
0010
0000
,
0100
0000
1000
0001
,
0010
0000
0001
0000
,
0100
0000
0010
0000
,
1000
0100
1000
0001
,
1000
0100
1000
0001
,
0220
0000
0000
0000
,
0000
0000
0330
0000
,
0100
0000
0010
0000
,
1000
0001
0000
0000
,
0010
0000
0001
0000
,
1000
0100
1000
0000
,
0100
0000
1000
0000
,
0010
0100
0000
0100
,
0010
0000
1000
0000
,
0001
0000
0000
1000
,
0100
0000
0000
1000
,
0010
0100
0001
1000
,
0200
0000
0000
0000
,
1300
0000
0010
0000
,
0100
0001
0010
0000
,
0100
0000
0010
0000
,
1001
0110
1001
0000
,
0001
0000
1000
0000
,
0010
1000
0100
0000
,
1000
0000
0010
0000
,
0101
1010
0101
0001
,
0010
0001
1000
0001
,
0100
0001
1001
1000
,
0010
1000
0001
1000
,
0100
0100
0100
0000
,
1000
0010
1000
0100
,
0010
0001
0010
0100
,
0010
0001
0100
0010
,
2000
0000
3100
1000
,
1010
0010
0100
0000
,
0010
1000
0001
0000
,
0010
0001
0100
0010
,
1010
0000
0101
0000
,
0011
0000
1100
0000
,
1001
0000
0000
0000
,
0001
1000
0001
1001
,
1000
0001
1000
1001
,
0001
1000
0001
1001
,
1000
0000
0001
0000
0100
0010
0100
0000
,
0010
1000
0010
0100
,
0001
0010
0100
1000
,
0100
1000
0010
0100
,
0001
1000
1001
0000
,
0000
0000
0010
0100
0010
0000
0000
0000
,
0000
0000
0100
0010
0100
0000
0010
0100
,
0010
0000
0100
0010
0100
0000
0010
0100
,
0010
0000
0100
0010
0100
0000
0000
0000
,
0000
0000
0010
0100
0010
0000
0000
0000
,
0000
0000
0100
0010
0100
0000
0000
0000
,
0000
0000
0010
0100
0010
0000
0000
0000
,
0000
0000
0100
0010
0100
0000
0010
0000
,
1000
0001
0000
0000
,
0000
0000
0001
1000
,
0010
1000
0100
1000
,
0010
0100
0001
0010
,
0100
1000
0200
0000
,
1300
0100
1000
0010
,
0100
0001
0010
0100
,
0010
0001
1000
0010
,
0100
0001
1010
0000
,
0011
0000
2002
0000
,
0000
0000
3003
0000
;

//---------------dance-single - ----------------
#NOTEDATA:;
#CHARTNAME:;
#STEPSTYPE:dance-single;
#DESCRIPTION:;
#CHARTSTYLE:;
#DIFFICULTY:Challenge;
#METER:10;
#RADARVALUES:0.663850,0.853877,0.320479,0.248372,0.612917,580.000000,540.000000,40.000000,31.000000,27.000000,0.000000,0.000000,0.000000,0.000000,0.663850,0.853877,0.320479,0.248372,0.612917,580.000000,540.000000,40.000000,31.000000,27.000000,0.000000,0.000000,0.000000,0.000000;
#CREDIT:;
#NOTES:
// measure 0
0000
0000
0000
0000
,  // measure 1
0000
0000
0000
0000
,  // measure 2
0000
0000
0000
0000
,  // measure 3
0000
0000
0000
0000
,  // measure 4
0001
0100
0001
0000
0100
0000
0010
1000
0000
0100
0000
0010
0100
0000
1000
0000
,  // measure 5
0001
0010
0001
0000
0100
0000
0001
1000
0000
0100
0000
0010
0100
1000
0100
1000
,  // measure 6
0001
0100
0001
0000
0100
0000
0010
1000
0000
0100
0000
0010
0100
0000
1000
0000
,  // measure 7
0010
0100
0010
0000
0100
0000
0001
0010
0000
0100
0000
0010
0001
1000
0100
0010
,  // measure 8
0100
1000
0100
0000
1000
0000
0001
0100
0000
0001
0000
0010
0100
0000
0010
0000
,  // measure 9
0001
1000
0001
0000
0100
0000
0001
0010
0000
0100
0000
0010
0001
0000
1000
0000
,  // measure 10
0001
0100
0010
0010
0100
0010
1000
1000
,  // measure 11
0100
0010
0100
0100
0010
0001
1000
1000
,  // measure 12
0220
0000
0000
0000
,  // measure 13
0000
0000
0000
0000
0000
0330
1000
0001
,  // measure 14
1000
0000
0001
1000
0100
0000
1000
0001
,  // measure 15
0100
0000
0010
0000
0000
0000
0100
0010
,  // measure 16
1000
0000
0001
0010
0100
0000
0010
0000
,  // measure 17
0001
1000
0100
1000
0001
0000
1000
0001
,  // measure 18
1000
0000
0001
1000
0100
0000
1000
0001
,  // measure 19
0100
0000
0010
0000
0000
0000
0100
0010
,  // measure 20
1000
0000
0100
1000
0001
0000
0100
0000
,  // measure 21
0010
0000
0000
1000
,  // measure 22
0100
0000
0000
1000
,  // measure 23
0001
1000
0001
1000
0001
1000
0001
1000
,  // measure 24
0001
0000
0000
0010
0000
0000
0100
0000
0000
0010
0000
0000
0001
0000
0000
0010
0000
0000
0100
0000
0000
1000
0000
0000
0001
0000
0100
0000
0001
0000
0100
0000
0001
0000
0100
0000
0001
0000
0000
0000
0000
0000
1000
0000
0000
0000
0000
0000
,  // measure 25
0100
0010
0100
0010
0100
0000
1000
0000
0100
0010
0100
0010
0100
0000
0001
0000
,  // measure 26
0020
0000
0000
0000
0032
0000
0000
0000
0103
0000
0010
1000
0010
1000
0010
1000
,  // measure 27
0010
1000
0100
0000
0010
0000
0100
0000
1000
0000
0000
0000
0001
0000
0000
0000
,  // measure 28
1020
0000
M100
0000
0M31
0000
0010
0100
,  // measure 29
0001
1000
0001
1000
0001
0000
0010
0000
0100
1000
0100
1000
0100
0000
1000
0000
,  // measure 30
0020
0000
0000
0000
0230
0000
0000
0000
0301
0000
1000
0001
1000
0100
1000
0100
,  // measure 31
1000
0010
0100
0000
0010
0000
1000
0000
0001
0000
0000
0000
0010
0000
0000
0000
,  // measure 32
2100
0000
0M10
0000
30M1
0000
0001
0100
,  // measure 33
1010
0000
1000
0100
0011
0000
0001
1000
,  // measure 34
0011
0000
0000
0000
0101
0000
0000
0000
0001
0100
0010
1000
0001
0000
0010
0000
,  // measure 35
1100
0000
1000
0100
0011
0000
0001
1000
,  // measure 36
1100
0101
1001
0000
,  // measure 37
0001
0100
0001
0000
0100
0000
0010
0000
1000
0010
1000
0000
0010
0000
1000
0000
,  // measure 38
0200
0000
0000
0000
2300
0000
0000
0000
3002
0000
1003
0010
1000
0010
1000
0010
,  // measure 39
0100
0001
0010
0000
0100
0000
0010
0000
0001
0000
0000
0000
1000
0000
0000
0000
,  // measure 40
0020
0000
0000
0000
0030
0010
0100
0010
1000
0010
0100
0001
0010
0000
0100
0000
,  // measure 41
1000
0010
1000
0010
1000
0000
0001
0000
0010
0000
0000
0000
0100
0010
0001
1000
,  // measure 42
0002
0000
0000
0000
1003
0100
0010
0100
1000
0010
0100
0001
0010
0000
0100
0000
,  // measure 43
1000
0010
0100
0010
1000
0000
0001
0000
0010
0000
0000
0000
0100
0000
0000
0000
,  // measure 44
2100
0000
0000
0000
0010
0000
0000
3001
1002
0000
0000
0000
0010
0000
0000
1003
,  // measure 45
2001
0000
0000
0000
0100
0000
0000
3001
1002
0000
0000
0000
0100
0000
0000
0013
,  // measure 46
0022
0000
0000
0033
,  // measure 47
1000
0001
0100
0000
0100
0001
1000
0000
0M10
0000
1MM1
0000
01M0
0000
0000
0000
,  // measure 48
1000
0001
0010
0000
0010
0001
1000
0000
00M1
0000
M11M
0000
1M00
0000
0000
0000
,  // measure 49
0001
1000
0010
0000
0010
1000
0100
0000
M110
0000
0MM1
0000
011M
0000
0000
0000
,  // measure 50
0100
0010
0001
0000
0100
0010
1000
0000
1M1M
0000
01M0
0000
1MM1
0000
0000
0000
,  // measure 51
0201
0000
0000
0300
0210
0000
0000
0300
0100
0010
1000
0001
0010
0100
0010
0001
,  // measure 52
1000
0001
1000
0001
1000
0000
0001
0000
0100
0010
0100
0010
0100
0000
0010
0000
,  // measure 53
1020
0000
0000
0030
0120
0000
0000
0030
0010
0100
0010
1000
0001
0010
0100
0010
,  // measure 54
0001
1000
0001
1000
0001
0000
0100
0000
1001
0000
0000
0000
0000
0000
0000
0000
,  // measure 55
0000
0000
0000
0000
0001
0001
1000
1000
1001
0000
0000
0000
0000
0000
0000
0000
,  // measure 56
0000
0000
0000
0000
0010
0010
0100
0100
0110
0000
0000
0000
0001
0001
1000
1000
,  // measure 57
1001
0000
0000
0000
1000
1000
0001
0001
1001
0000
0000
0000
0100
0100
0010
0010
,  // measure 58
0110
0000
0000
0000
0010
0010
0100
0100
0110
0000
0000
0000
0000
0000
0000
0000
,  // measure 59
0000
0000
0000
0000
0001
0000
1000
0001
1001
0000
0000
0000
0000
0000
0000
0000
,  // measure 60
0000
0000
0000
0001
0100
0010
0100
0010
0110
0000
0000
0000
0000
0000
0000
0000
,  // measure 61
0000
0000
0000
0000
1000
1000
0001
0001
1001
0000
0000
0000
0000
0000
0000
0000
,  // measure 62
0000
0000
0000
0000
1000
1000
0001
0001
1000
0000
1000
0000
0001
0000
0001
0000
,  // measure 63
0100
0000
0100
0000
0010
0000
0010
0000
0100
0010
1000
0001
0010
0100
1000
0001
,  // measure 64
0010
0000
0001
0000
0010
0000
0001
0000
0010
0000
0001
0000
0010
0000
0000
0000
0000
0000
0100
0000
0000
0000
0000
0000
1000
0000
0000
0010
0000
0000
1000
0000
0000
0010
0000
0000
1000
0000
0000
0000
0000
0000
0001
0000
0000
0000
0000
0000
,  // measure 65
1000
0100
1000
0100
1000
0000
0010
0000
0200
0000
0000
0000
0302
0000
0000
0000
,  // measure 66
1003
0000
0001
0100
0001
0100
0001
0100
0010
1000
0010
1000
0010
0000
1000
0000
,  // measure 67
0001
0000
0000
0000
1000
0000
0000
0000
0020
0000
0000
0000
0000
0130
0001
0010
,  // measure 68
0100
0010
0001
1000
0001
0000
1000
0000
0100
1000
0100
1000
0100
0000
1000
0000
,  // measure 69
0001
0000
0000
0000
0100
0001
0010
0001
2000
0000
0000
0000
3001
0010
0100
0010
,  // measure 70
0001
1000
0001
1000
0001
0000
1000
0000
0100
0010
0100
0010
0100
0000
1000
0000
,  // measure 71
0010
0000
0000
0000
0100
0000
0000
0000
1002
0000
0000
0000
MM13
0000
0000
1000
,  // measure 72
2001
0000
0000
0000
3M1M
0000
0000
0001
2MM2
0000
0000
0000
0000
0000
0000
0000
,  // measure 73
0000
0000
3003
0000
;

//---------------dance-single - ----------------
#NOTEDATA:;
#CHARTNAME:;
#STEPSTYPE:dance-single;
#DESCRIPTION:;
#CHARTSTYLE:;
#DIFFICULTY:Beginner;
#METER:2;
#RADARVALUES:0.124758,0.261391,0.040060,0.000000,0.000000,109.000000,104.000000,5.000000,0.000000,0.000000,0.000000,0.000000,0.000000,0.000000,0.124758,0.261391,0.040060,0.000000,0.000000,109.000000,104.000000,5.000000,0.000000,0.000000,0.000000,0.000000,0.000000,0.000000;
#CREDIT:;
#NOTES:
0000
0000
0000
0000
,
0000
0000
0000
0000
,
0000
0000
0000
0000
,
0000
0000
0000
0000
,
1000
0000
0000
0000
,
0010
0000
0000
0000
,
0100
0000
0000
0000
,
0100
0000
0000
0000
,
1001
0000
0000
0000
,
0010
0000
0000
0000
,
0100
0000
0010
0000
,
1000
0000
0001
0000
,
0110
0000
0000
0000
,
0000
0000
0000
0000
,
1000
0000
1000
0000
,
1000
0000
0000
0000
,
0001
0000
0001
0000
,
0001
0000
0000
0000
,
0100
0000
0100
0000
,
0100
0000
0000
0000
,
0010
0000
0010
0000
,
0010
0000
0000
1000
,
1000
0000
0001
0001
,
0001
0000
1000
0000
,
0010
0000
0000
0000
,
0100
0000
0000
0000
,
0010
0000
0000
0000
,
1000
0000
0000
0000
,
0100
0100
0100
0000
,
1000
0000
0000
0000
,
0001
0000
0000
0000
,
0100
0000
0000
0000
,
0010
0010
0010
0000
,
1000
0000
1000
0000
,
1000
0000
0000
0000
,
0001
0000
0001
0000
,
0001
0000
0000
0000
,
0100
0000
0100
0000
,
0010
0000
0000
0000
,
1000
0000
0000
0000
,
0100
0000
0000
0000
,
1000
0000
0000
0000
,
0001
0000
0000
0000
,
0100
0000
0000
0000
,
0010
0000
0100
0000
,
0001
0000
1000
0000
,
1001
0000
0000
0000
,
0010
0000
0000
0000
,
0010
0000
0000
0000
,
0010
0000
0000
0000
,
0010
0000
0000
0000
,
0100
0000
0000
0000
,
0001
0000
0000
0000
,
1000
0000
0000
0000
,
0100
0000
1001
0000
,
0000
1000
1000
0000
,
0000
0001
0001
1000
,
1000
0001
0001
1000
,
1000
0001
0001
0000
,
0000
0100
0100
0000
,
0000
0010
0010
0000
,
0000
0100
0100
0000
,
0000
0010
0010
0000
,
1000
0000
0001
0000
,
0000
0000
1000
0000
,
1000
0000
1000
0000
,
0000
0000
0001
0000
,
0001
0000
0001
0000
,
0000
0000
0100
0000
,
0000
0000
0010
0000
,
0000
0000
1000
0000
,
0000
0000
0001
0000
,
1000
0000
0110
0000
;

//---------------dance-double - ----------------
#NOTEDATA:;
#CHARTNAME:;
#STEPSTYPE:dance-double;
#DESCRIPTION:;
#CHARTSTYLE:;
#DIFFICULTY:Challenge;
#METER:9;
#RADARVALUES:0.525357,0.647769,0.328491,0.264396,0.176264,459.000000,418.000000,41.000000,33.000000,0.000000,0.000000,0.000000,0.000000,0.000000,0.525357,0.647769,0.328491,0.264396,0.176264,459.000000,418.000000,41.000000,33.000000,0.000000,0.000000,0.000000,0.000000,0.000000;
#CREDIT:;
#NOTES:
00000000
00000000
00000000
00000000
,
00000000
00000000
00000000
00000000
,
00000000
00000000
00000000
00000000
,
00000000
00000000
00000000
00000000
,
10000000
00000000
00010000
00000000
00100000
00000000
00010000
00100000
00000000
00001000
00000000
00010000
00000100
00000000
00001000
00000000
,
00000010
00000000
00000100
00000000
00000001
00000000
00000010
00000001
00000000
00000100
00000000
00000010
00001000
00000000
00000100
00000000
,
00010000
00001000
00010000
00000000
00001000
00000000
01000000
00100000
00000000
10000000
00000000
01000000
00100000
00000000
01000000
00000000
,
10000000
01000000
10000000
00000000
01000000
00000000
00100000
00010000
00000000
00100000
00000000
00001000
00010000
00000000
00000100
00000000
,
00001000
00000000
00000010
00000000
00000100
00000000
00000001
00000010
00000000
00000010
00000001
00000000
00001000
00000000
00000010
00000000
,
00001000
00000000
00000100
00000000
00010000
00000000
00001000
01000000
00000000
01000000
00001000
00000000
00010000
00000000
00001000
00000000
,
01000000
00010000
00100000
10000000
00100000
00010000
01000000
10000000
,
01000000
00010000
00100000
00001000
00010000
00000100
00001000
00000010
,
00000220
00000000
00000000
00000000
,
00000000
00000000
00000000
00000000
00000330
00000000
00000010
00000100
,
00000001
00000000
00001000
00000010
00000100
00000000
00000010
00001000
,
00000200
00000000
00010300
00000000
00000000
00000000
00001000
00100000
,
01000000
00000000
00100000
00010000
01000000
00000000
00100000
00000000
,
10000000
01000000
00010000
01000000
10000000
00000000
00010000
01000000
,
01010000
00000000
01000000
00010000
00100000
00000000
00001000
00010000
,
00000020
00000000
00000130
00000000
00000000
00000000
00000010
00001000
,
00000001
00000000
00000010
00000100
00001000
00000000
00000100
00000000
,
00011000
00000000
00000000
00101000
,
00011000
00000000
00000000
00010100
,
00011000
00101000
01100000
11000000
,
02000000
00000000
00000000
00000000
00000000
00000000
03100000
01000000
,
10000000
00010000
00100000
00100000
00001000
00010000
00000100
00000100
,
00002000
00000000
00003020
00000000
00000130
00000001
00000010
00000100
,
00000010
00000001
00000100
00001000
00000100
00000000
00000010
00000000
,
00001010
00000000
00001100
00000000
00010100
00000000
00000100
00010000
,
00001000
00100000
01000000
01000000
00100000
00010000
10000000
10000000
,
00020000
00000000
02030000
00000000
03100000
10000000
00100000
00010000
,
00100000
01000000
00010000
00100000
00002000
00000000
00013000
00000000
,
00010100
00000000
00001100
00000000
00000110
00000000
00000001
00000100
,
00000110
00000000
00000100
00000001
00000101
00000000
00000001
00000100
,
00000110
00000000
00001010
00000000
00000010
00001000
00000100
00010000
,
00011000
00000000
00001000
00100000
00110000
00000000
00100000
01000000
,
11000000
00000000
00110000
00000000
00100000
01000000
10000000
00010000
,
10000000
01000000
00100000
00100000
01000000
10000000
00010000
00010000
,
00200000
00000000
00302000
00000000
00013000
00000100
00001000
00000010
,
00000001
00000010
00001000
00000010
00000100
00000000
00000001
00000000
,
00002001
00000000
00000000
00003001
00000010
00000100
00001000
00000100
,
00001000
00000010
00000100
00000001
00001000
00000000
00000100
00010000
,
00001000
00000000
00001000
01000000
10000000
01000000
00010000
10000000
,
01000000
10000000
00010000
01000000
00010000
00000000
00100000
00000000
,
00021000
00000000
00000000
00000000
00030100
00000000
00000000
00000100
00020000
00000000
00000000
00000000
00031000
00000000
00000000
00010000
,
00002000
00000000
00000000
00000000
01003000
00000000
00000000
01000000
00002000
00000000
00000000
00000000
00013000
00000000
00000000
00010000
,
00000200
00000000
00000000
00000300
,
00001000
00000100
00000010
00000001
00001001
00001001
00001001
00000000
,
00000001
00000100
00000010
00001000
00001001
00001001
00001001
00000000
,
00000001
00001000
00000010
00001000
00001100
00001100
00001100
00000000
,
00000100
00010000
00001000
00100000
00110000
11000000
00110000
00000000
,
02100000
00000000
23000000
00000000
30100000
01000000
00010000
00000000
,
10000000
00010000
00100000
00000000
00010000
00100000
00001000
00000000
,
00020000
00000000
00030200
00000000
00001300
00000010
00000100
00000000
,
00000001
00000010
00000100
00001000
00001100
00000000
00000000
00000000
,
00000000
00000000
00000000
00000000
00001000
00100000
00001000
00100000
00001000
00000000
00000000
00000000
00000000
00000000
00000000
00000000
,
00000000
00000000
00000000
00000000
00100000
00001000
00100000
00001000
00100000
00000000
00000000
00000000
00000010
00010000
00000010
00010000
,
00000010
00000000
00000000
00000000
00010000
00001000
00010000
00001000
00010000
00000000
00000000
00000000
00001000
01000000
00001000
01000000
,
00001000
00000000
00000000
00000000
00010000
00001000
00010000
00001000
00010000
00000000
00000000
00000000
00000000
00000000
00000000
00000000
,
00000000
00000000
00000000
00000000
00001000
00000000
01000000
00001000
01000000
00000000
00000000
00000000
00000000
00000000
00000000
00000000
,
00000000
00000000
00000000
00001000
00010000
00001000
00010000
00001000
00010000
00000000
00000000
00000000
00000000
00000000
00000000
00000000
,
00000000
00000000
00000000
00000000
00010000
00000100
00010000
00000100
00010000
00000000
00000000
00000000
00000000
00000000
00000000
00000000
,
00000000
00000000
00000000
00000000
00001000
01000000
00001000
01000000
00001000
00000000
00100000
00000000
00001000
00000000
00010000
00000000
,
00000100
00001000
00000010
00000100
00000002
00000000
00000000
00000000
,
00000000
00000000
00000013
00000100
00001000
00000100
00010000
00010000
,
00001000
01000000
00100000
00100000
02000000
00000000
03020000
00000000
,
00130000
10000000
00100000
00010000
01000000
00010000
00100000
00001000
,
00020000
00000000
00030200
00000000
00000320
00000000
00000000
00000130
,
00000010
00000001
00000100
00001000
00000100
00000010
00001000
00000100
,
00010000
00000000
00001000
00100000
02000000
00000000
03100000
00010000
,
10000000
01000000
10000000
00100000
01000000
00010000
00100000
00001000
,
00020000
00000000
00000000
00000000
00030200
00000000
00000000
00000000
00001300
00000000
00000000
00000000
00011000
00000000
00000000
00100000
,
00002000
00000000
00000000
00000000
00013000
00000000
00000000
00010000
00000020
00000000
00000000
00000000
00000000
00000000
00000000
00000000
,
00000000
00000000
00000030
00000000
;
