#VERSION:0.83;
#TITLE:BEEF;
#SUBTITLE:;
#ARTIST:牛;
#TITLETRANSLIT:;
#SUBTITLETRANSLIT:;
#ARTISTTRANSLIT:;
#GENRE:;
#ORIGIN:;
#CREDIT:;
#BANNER:;
#BACKGROUND:;
#PREVIEWVID:;
#JACKET:;
#CDIMAGE:;
#DISCIMAGE:;
#LYRICSPATH:;
#CDTITLE:;
#MUSIC:BEEF.ogg;
#OFFSET:-1.581000;
#SAMPLESTART:34.457283;
#SAMPLELENGTH:10.971428;
#SELECTABLE:YES;
#BPMS:0.000=87.500,
128.000=175.000,
192.000=87.500;
#STOPS:;
#DELAYS:;
#WARPS:;
#TIMESIGNATURES:0.000=4=4;
#TICKCOUNTS:0.000=4;
#COMBOS:0.000=1;
#SPEEDS:0.000=1.000=0.000=0;
#SCROLLS:0.000=1.000;
#FAKES:;
#LABELS:0.000=Song Start;
#BGCHANGES:;
#KEYSOUNDS:;
#ATTACKS:
;

//---------------dance-single - ----------------
#NOTEDATA:;
#CHARTNAME:;
#STEPSTYPE:dance-single;
#DESCRIPTION:;
#CHARTSTYLE:;
#DIFFICULTY:Hard;
#METER:8;
#RADARVALUES:0.410809,0.756138,0.240855,0.080285,0.193414,394.000000,361.000000,33.000000,11.000000,0.000000,0.000000,0.000000,0.000000,0.000000,0.410809,0.756138,0.240855,0.080285,0.193414,394.000000,361.000000,33.000000,11.000000,0.000000,0.000000,0.000000,0.000000,0.000000;
#CREDIT:;
#NOTES:
0000
0000
0000
0000
,
0000
0000
0000
0000
,
0000
0000
0000
0000
,
0000
0000
0000
1002
,
1003
0010
1000
0000
0001
0100
0010
0100
,
0000
0001
0010
0001
1000
0100
0001
0100
,
0000
0010
0001
1000
0010
0100
0001
1000
,
0001
0010
1000
0010
0001
0100
0011
0000
,
0200
0000
1300
0001
0000
0100
0001
0010
,
0100
0000
0010
0001
1000
0010
1000
0100
,
0010
0000
0001
0010
0000
0010
0100
0000
0010
0000
0001
0100
0000
0010
1000
0000
,
0001
0000
1000
0010
0000
0010
0100
0000
0010
0000
1000
0010
0000
0100
0001
0000
,
1000
0010
1010
0000
0001
0010
0011
0000
0001
0100
0101
0000
1000
0100
1100
0000
,
1000
0001
0100
0010
1000
0001
2200
3300
,
0001
0010
0011
0000
1000
0010
1010
0000
1000
0100
1100
0000
0001
0100
0101
0000
,
0000
0001
0010
0001
1000
0100
0010
0100
,
2000
3001
0002
1003
,
0010
0010
0010
0100
0010
0010
0010
1000
,
0001
1000
0000
0001
1000
0000
0001
1000
0000
0001
1000
0000
0001
0000
0000
0000
1000
0001
0000
1000
0001
0000
1000
0001
0000
1000
0001
0000
1000
0000
0000
0000
,
0001
0000
0100
0000
0010
0000
1000
0000
0100
0000
0010
0000
0001
0000
1000
0000
0010
0100
0010
0100
0010
0100
0010
0100
0010
0000
0000
0000
1000
0000
0000
0000
,
0100
1000
0010
0000
0100
0001
1000
0000
,
0001
0010
0100
0010
0001
0100
1100
0110
,
0010
1000
0001
0000
0010
0100
1000
0000
,
0100
1000
0010
0100
0001
0010
0100
0000
,
1001
0000
0000
0000
0001
0000
0000
1000
0000
1000
0010
0000
0100
0000
0001
0000
,
0000
0000
0000
0000
0010
0100
0000
0010
0000
0001
0100
0010
1000
0000
0001
0000
,
0110
0000
0000
0000
0000
0000
0000
0000
0000
0000
0000
0000
0010
0000
0000
0000
0000
0000
0000
0000
0000
1000
0000
0000
0000
0000
0000
0100
0000
0000
0100
0000
0000
0000
0000
0000
0000
0000
0100
0000
0010
0000
0001
0000
0000
1000
0000
0000
,
0001
0100
0001
0010
0100
0000
0010
0000
0001
0000
1000
0000
0010
0000
0000
0000
,
1000
0001
0011
1100
1000
1010
0011
0001
,
0000
1000
0001
0010
0100
0110
0011
0000
,
0201
0000
0310
1000
0001
0001
0010
0001
,
1000
0000
0010
0000
0100
0000
0001
0000
0010
0000
0100
0000
1000
0020
0000
0000
,
0130
0001
0010
0000
0100
1000
0001
0000
,
1000
0001
0010
0100
0010
0001
1000
0000
,
0001
0100
0010
0000
0100
0010
1000
0000
,
0001
0000
0000
0000
1000
0000
0000
0100
0000
0000
1000
0000
0001
0000
0000
0000
,
1000
0100
0001
0000
0001
0100
1000
0000
,
0100
0010
0001
0010
1000
0010
0001
0000
,
1000
0010
1000
0010
0100
0001
0100
0001
,
0010
0100
0010
0001
1000
0000
0001
0000
,
0100
0010
1000
0001
1000
0010
0110
0000
,
0001
0010
0011
0000
0100
1000
1100
0000
,
1000
0001
0100
0010
1000
0100
0010
0000
,
0100
0010
0001
1000
0010
0100
0020
0000
,
1030
0000
0011
0000
0001
0100
0110
0000
,
0010
0000
1010
0000
1000
0001
0011
0000
,
0100
0000
1100
0000
0100
1000
1001
0000
,
0001
0000
0101
0000
0100
0010
1010
0000
,
0001
0100
1000
0100
,
0001
0010
1000
0010
,
0001
0100
1000
0010
,
0001
0100
1000
0010
,
0001
0010
1000
0010
,
0001
0100
1000
0100
,
0020
0000
0200
0000
,
0000
0000
0000
0000
,
0330
0000
0000
0000
;

//---------------dance-single - ----------------
#NOTEDATA:;
#CHARTNAME:;
#STEPSTYPE:dance-single;
#DESCRIPTION:;
#CHARTSTYLE:;
#DIFFICULTY:Challenge;
#METER:10;
#RADARVALUES:0.595360,0.817447,0.291945,0.357633,0.780954,571.000000,531.000000,40.000000,49.000000,107.000000,0.000000,0.000000,0.000000,0.000000,0.595360,0.817447,0.291945,0.357633,0.780954,571.000000,531.000000,40.000000,49.000000,107.000000,0.000000,0.000000,0.000000,0.000000;
#CREDIT:;
#NOTES:
0000
0000
0000
0000
,
0000
0000
0000
0000
0000
0000
0000
0000
0000
0000
MMMM
M00M
MMM0
M00M
MMMM
0000
,
MMMM
M000
MMM0
M000
MMMM
0000
MMMM
M000
MMM0
M000
MMMM
0000
MMMM
M000
MMM0
M000
,
M000
0000
0000
0000
M0M0
0MMM
M0M0
M0M0
00M0
MMMM
00M0
00M0
2002
0000
3003
0000
,
0020
0000
0030
1000
0010
0000
0100
0100
0010
1000
0000
0001
0010
0000
0100
0000
,
0000
0010
0001
0100
0010
0000
0100
0010
1000
0001
0010
0000
0100
0000
0100
0000
,
0000
0010
0001
1000
0010
0000
0100
0010
0100
0000
0010
0000
1000
0000
1000
0000
,
0001
0000
0010
0100
0010
0001
1000
0010
0100
0001
0010
0100
1100
0000
0000
0000
,
0012
0000
0010
0000
0100
0000
1003
0000
0000
0001
0000
1000
0010
1000
0001
0000
,
0001
0010
0100
0010
0100
0010
0001
1000
0000
0010
0000
0100
0001
1000
0100
0000
,
1000
0001
1000
0000
0001
0000
0010
0000
0100
0000
0010
0000
0001
0000
0000
0000
0100
0000
0010
1000
0010
0000
0100
0000
0001
0000
0010
0001
0010
0000
0000
0000
,
0000
0000
0100
0000
1000
0000
0000
0000
0001
0000
0100
0010
0100
0001
0000
0000
1000
0100
1000
0000
0100
0000
1000
0000
0010
0100
0001
0000
1000
0000
0000
0000
,
00M1
M100
001M
1M00
010M
0000
0000
0000
001M
M100
100M
0M10
M100
0000
0000
0000
M010
010M
M001
0M10
M100
0000
0000
0000
0M10
M001
1M00
001M
M100
0000
0000
0000
,
0010
1000
0001
0010
0100
0010
0001
1000
0010
0100
0001
0000
2200
0000
0000
3300
,
0M01
M010
010M
M010
0M01
0000
0000
0000
1M00
001M
M100
00M1
0M10
0000
0000
0000
010M
10M0
001M
M100
001M
0000
0000
0000
M100
00M1
M010
010M
M010
0000
0000
0000
,
0000
0000
0100
0000
0010
0000
0001
0000
1000
0000
0010
0000
1000
0000
0100
0010
0100
0000
0000
0000
0010
0000
0001
0000
1000
0000
0000
0000
0010
0000
0000
0000
,
0102
0000
0013
0000
2100
0000
3010
0100
,
1001
1001
1001
0010
1001
1001
1001
0001
,
1000
0010
0000
0010
0100
0000
0100
0001
0000
0001
0010
0000
0100
0000
0000
0000
0010
0001
0000
0001
1000
0000
1000
0010
0000
0010
0100
0000
0001
0000
0000
0000
,
1000
0000
0000
0000
0000
0000
0000
0000
0000
0000
0000
0000
1000
0000
0000
0000
0000
0000
0000
0000
0000
0000
0000
0000
0001
0000
0000
0000
0000
0000
0000
0000
0000
0000
0000
0000
0001
0000
0000
0000
0000
0000
0000
0000
0000
0000
0000
0000
0100
0000
0000
0000
0000
0000
0000
0000
0010
0000
0000
0000
0000
0000
0000
0000
1000
0000
0000
0000
0000
0000
0000
0000
0001
0000
0000
0000
0000
0000
0000
0000
0010
0000
0000
0000
0000
0000
0000
0000
0100
0000
0000
0000
0000
0000
0000
0000
1000
0000
0000
0000
0000
0000
0010
0000
0000
0000
0000
0000
1000
0000
0000
0000
0000
0000
0010
0000
0000
0000
0000
0000
0100
0000
0000
0000
0000
0000
0010
0000
0000
0000
0000
0000
0100
0000
0000
0000
0000
0000
0001
0000
0000
0000
0000
0000
0100
0000
0000
0000
0000
0000
0000
0000
0000
0000
0000
0000
0000
0000
0000
0000
0000
0000
0000
0000
0000
0000
0000
0000
0010
0000
0000
0000
0000
0000
0000
0000
0000
0000
0000
0000
0000
0000
0000
0000
0000
0000
0000
0000
0000
0000
0000
0000
,
1001
0000
1000
0000
0010
0000
0100
0001
0101
0000
0100
0010
1000
0000
1001
0000
,
0001
0000
1000
0100
0010
0100
1100
0000
0100
0000
1000
0010
0110
0000
1001
0000
,
0001
0000
0000
0000
1000
0000
0001
0000
0100
0000
0000
0000
0000
0000
0010
0000
0100
0000
0010
0000
0000
0000
1000
0000
0001
0010
0001
1000
0000
0000
0000
0000
,
0001
0000
0000
0000
0100
0000
0000
0000
0010
0000
0000
0000
1000
0000
0100
0000
1000
0000
0010
0000
0100
0000
0001
0000
0010
0000
0000
0000
0200
0320
0230
0300
,
1001
0000
0001
1000
0010
1000
0100
0000
0010
0000
1000
0000
0001
0000
0010
0000
0000
0000
0100
0000
0010
0000
0001
0000
1000
0000
0001
0000
0100
0000
0000
0000
,
0010
0000
1000
0001
0100
0000
0010
0000
1000
0000
0000
0000
0001
0000
0010
0000
0001
0000
0100
0000
0010
0000
1000
0000
0100
0000
0010
0000
0011
0000
0000
0000
,
1100
0000
0100
1000
0100
0000
1000
0000
0010
0000
0000
0000
0100
0000
0001
0000
0000
0000
1000
0000
0001
0000
0010
0000
0100
0000
0000
0000
1001
0000
0000
0000
,
0001
1000
0010
1000
0100
1000
0000
0001
0100
0010
0100
0001
0010
0100
1100
0000
,
1000
0010
0100
0001
0011
0000
0110
0100
0010
0001
0011
0000
1100
0000
0100
1000
,
0000
0001
0000
0100
1000
0000
0100
0010
1000
0000
0011
0000
1200
0000
0000
0000
,
0310
0100
1000
0001
1000
0000
0001
0100
0010
0100
0010
0100
0001
0010
0001
1000
,
0100
0000
0000
0000
1000
0000
0001
0000
1000
0000
0000
0000
0001
0100
0010
0000
1000
0000
0000
0000
0011
0000
0000
0000
1000
0000
0020
0000
0000
0000
0000
0000
,
0130
0001
0010
0000
1100
0000
0000
0000
0100
1000
0001
0000
1001
0000
1000
0000
,
0001
0100
0001
0000
0100
0000
0010
0000
1000
0000
0100
0000
0110
0000
0000
0000
,
0100
0000
0010
0000
0001
0010
0001
1000
0020
0000
0000
0000
0130
0000
0001
0000
,
0000
1000
0010
0000
0200
0000
0302
0000
,
0013
0100
1000
0000
0001
0000
0000
0000
0010
0001
0100
0010
1000
0000
0000
0000
,
0001
0000
1000
0000
0100
0010
0100
1000
0001
0100
0010
1000
0100
0000
0000
0000
,
0010
0000
0100
0000
1000
0100
1000
0001
0100
0000
0000
0000
0010
0000
1000
0000
,
0001
0010
0100
0000
0110
0000
0011
0000
,
1000
0000
0100
1000
0010
0100
0001
0010
0200
0000
0310
0001
2000
0000
3000
0000
,
0001
0100
0010
1000
0200
0000
0310
0100
1000
0010
0100
0001
2000
0000
3000
0000
,
0001
0000
0000
0000
0100
0000
0010
1000
0000
0001
0010
0000
0100
0000
0000
0000
,
0010
0000
0001
0000
0100
0000
0010
0000
2000
0000
3002
0000
0200
0000
0000
0303
,
1010
0000
0101
0001
0010
0100
1100
0100
,
1000
0001
0011
0001
0100
0010
1010
0010
,
0100
0010
1000
0001
0010
0100
0010
0001
1000
0001
1000
0010
0000
0100
0000
0000
,
0010
1000
0010
0000
0100
0001
0100
0000
0010
0000
0010
0000
0100
0000
0100
0000
,
0002
2003
3200
2300
,
3020
0230
0302
0023
,
0230
0320
0032
2003
,
3200
0302
0203
2300
,
3020
0230
0302
2003
,
3020
2030
3002
0203
,
0320
0000
0200
0000
,
0000
0000
0000
0000
,
0330
0000
0000
0000
;

//---------------dance-single - ----------------
#NOTEDATA:;
#CHARTNAME:;
#STEPSTYPE:dance-single;
#DESCRIPTION:;
#CHARTSTYLE:;
#DIFFICULTY:Medium;
#METER:6;
#RADARVALUES:0.316969,0.449596,0.153271,0.051090,0.040142,304.000000,283.000000,21.000000,7.000000,0.000000,0.000000,0.000000,0.000000,0.000000,0.316969,0.449596,0.153271,0.051090,0.040142,304.000000,283.000000,21.000000,7.000000,0.000000,0.000000,0.000000,0.000000,0.000000;
#CREDIT:;
#NOTES:
0000
0000
0000
0000
,
0000
0000
0000
0000
,
0000
0000
0000
0000
,
0000
0000
0000
0000
,
1000
0000
0001
0000
0100
0010
0100
0000
,
0010
0000
1000
0000
0001
0100
0001
0000
,
0010
0000
0001
0000
1000
0100
1000
0000
,
0100
0000
1000
0000
0010
0100
0010
0000
,
2002
0000
0000
3003
0001
0000
1000
0000
,
0010
0100
0001
0010
,
0001
0100
0001
0100
0010
1000
0010
1000
,
0001
1000
0001
1000
0001
0100
0010
1000
,
0001
1000
0010
0000
0010
1000
0001
0000
0001
1000
0010
0000
1000
0001
0010
0000
,
0100
0010
0001
0100
0010
1000
1001
0000
,
0001
1000
0100
0000
0100
1000
0001
0000
0001
1000
0100
0000
0100
1000
0001
0000
,
0100
0010
1000
0001
0010
0100
0010
0001
,
2000
3001
0002
1003
,
0010
0010
0010
0000
0010
0010
0010
0000
,
0100
0100
0100
0100
0010
0010
0010
0010
,
1000
0000
0010
0000
0100
0000
0001
0000
1000
0001
1000
0001
1000
0000
0001
0000
,
0100
0001
0010
0000
0100
0010
0001
0000
,
0010
0001
1000
0000
0100
0001
0100
1000
,
0010
0100
0001
0000
1000
0001
0100
0000
,
0010
0100
0001
0000
1000
0001
0100
0000
,
1001
0000
1000
0000
0001
1000
0010
0000
,
0100
0000
0001
0000
0010
0001
0100
0010
,
1100
0000
0100
0000
1000
0001
0100
0000
,
0010
0000
1000
0000
0001
0010
0100
0010
,
0011
0000
0001
1000
0010
0100
0001
0010
,
0000
0100
1000
0010
0100
1001
0110
0000
,
0011
0000
0100
0000
0010
0001
1000
0000
,
0010
0000
0000
0000
1000
0000
0000
0000
0010
0000
0100
0000
0001
0020
0000
0000
,
0130
0011
0100
0011
,
0001
0000
1000
0000
0010
1000
0100
0000
,
0010
1100
0010
1100
,
0100
0000
1000
0000
0010
0100
0001
0000
,
1000
0001
1000
0000
0001
0100
0001
0000
,
0100
0000
0010
0000
1000
0010
0100
0000
,
0001
0010
1000
0010
,
0001
0100
1010
1100
,
1000
0000
0001
0000
0010
0100
1000
0000
,
0100
0010
0100
0000
0100
0010
0001
0000
,
0100
0000
0010
0000
0100
0010
1000
0000
,
0001
0000
1000
0000
0010
0100
0002
0000
,
0013
1100
0010
0011
,
0001
1010
1000
1100
,
0100
1100
0100
0110
,
0010
0000
0011
0000
0001
0100
0010
1000
,
0100
1000
0010
0100
,
0001
0010
0100
1000
,
0001
0001
1000
1000
,
0010
0010
0100
0100
,
0010
0100
0001
1000
,
0100
0001
0100
1000
,
0010
0000
0200
0000
,
0000
0000
0000
0000
,
0300
0000
0000
0000
;

//---------------dance-single - ----------------
#NOTEDATA:;
#CHARTNAME:;
#STEPSTYPE:dance-single;
#DESCRIPTION:;
#CHARTSTYLE:;
#DIFFICULTY:Easy;
#METER:3;
#RADARVALUES:0.172039,0.278443,0.124077,0.036493,0.000000,165.000000,148.000000,17.000000,5.000000,0.000000,0.000000,0.000000,0.000000,0.000000,0.172039,0.278443,0.124077,0.036493,0.000000,165.000000,148.000000,17.000000,5.000000,0.000000,0.000000,0.000000,0.000000,0.000000;
#CREDIT:;
#NOTES:
0000
0000
0000
0000
,
0000
0000
0000
0000
,
0000
0000
0000
0000
,
0000
0000
0000
0000
,
1000
0001
0100
0001
,
0010
0001
1000
0100
,
1000
0010
0100
0001
,
0010
0001
1000
0010
,
2002
3003
1000
0000
,
0001
0000
0100
0000
,
0010
1000
0010
0100
,
0001
0010
0100
1000
,
1001
0110
1001
0110
,
1000
0001
0100
0010
,
1001
0110
1001
0110
,
0100
0010
1000
0001
,
0020
0030
0200
0300
,
1000
0001
1000
0000
0001
1000
0001
0000
,
0100
0000
0100
0000
,
0010
0000
0100
0000
0001
1000
0001
0000
,
1000
0000
0010
0000
,
0100
0000
0001
1000
,
0100
0000
1000
0000
,
0010
0000
0100
0000
,
1001
0001
0000
0000
,
1000
0000
0010
0000
,
0110
0000
0010
0000
,
1000
0000
0001
0000
,
1001
1000
0000
0001
,
0000
0100
0000
0010
,
1001
0000
0100
0000
,
0010
0000
1000
0000
,
0001
0000
1000
0000
,
0010
0000
1000
0000
,
0100
0000
1000
0000
,
0001
0000
0100
0000
,
0010
0000
0100
0000
,
0001
0000
1000
0000
,
0001
0000
0010
0000
,
0001
0000
1000
0001
,
1000
0010
0100
1001
,
0001
1001
1000
1001
,
0001
0010
0001
0100
,
0010
1000
0100
0200
,
0310
0001
0100
0010
,
1000
0001
0010
0100
,
0010
0001
0100
0010
,
1000
0001
0010
0100
,
1000
0000
0001
0000
,
0100
0000
0010
0000
,
1000
0000
0010
0000
,
0100
0000
0001
0000
,
1000
0000
0001
0000
,
0100
0000
0010
0000
,
1001
0000
0010
0000
;

//---------------dance-double - ----------------
#NOTEDATA:;
#CHARTNAME:;
#STEPSTYPE:dance-double;
#DESCRIPTION:;
#CHARTSTYLE:;
#DIFFICULTY:Challenge;
#METER:8;
#RADARVALUES:0.424363,0.776574,0.277348,0.145973,0.175167,407.000000,369.000000,38.000000,20.000000,0.000000,0.000000,0.000000,0.000000,0.000000,0.424363,0.776574,0.277348,0.145973,0.175167,407.000000,369.000000,38.000000,20.000000,0.000000,0.000000,0.000000,0.000000,0.000000;
#CREDIT:;
#NOTES:
00000000
00000000
00000000
00000000
,
00000000
00000000
00000000
00000000
,
00000000
00000000
00000000
00000000
,
00000000
00000000
00000000
00000000
00000000
00000000
20020000
30030000
,
10000000
00100000
01000000
00010000
00100000
00001000
00010000
00010000
,
00000000
00000100
00001000
00000010
00000001
00000010
00001000
00001000
,
00000100
00010000
00100000
00010000
01000000
00100000
01000000
01000000
,
00100000
10000000
00010000
00100000
00001000
00010000
00010100
00000000
,
00012000
00000000
01003000
00010000
00000000
00100000
01000000
10000000
,
00010000
00100000
00001000
00010000
00000100
00001000
00000010
00000100
,
00000001
00000000
00000100
00000010
00000000
00001000
00000100
00000000
00010000
00000000
00001000
00100000
00000000
01000000
10000000
00000000
,
01000000
00000000
00100000
00001000
00000000
00010000
00000100
00000000
00001000
00000000
00000010
00000100
00000000
00000001
00000100
00000000
,
00000001
00000100
00001000
00000000
00000100
00000010
00010000
00000000
00001000
00100000
01000000
00000000
01000000
10000000
00010000
00000000
,
10000000
01000000
00010000
01000000
00100000
00010000
22000000
33000000
,
10000000
01000000
00010000
00000000
01000000
00010000
00001000
00000000
00010000
00000100
00001000
00000000
00000100
00000010
00000001
00000000
,
00000000
00000100
00000010
00001000
00000001
00000010
00000100
00001000
,
00001200
00000000
00010300
00000000
00012000
00000000
01003000
00100000
,
10010000
01100000
10010000
01000000
10010000
01100000
10010000
10000000
,
00010000
00100000
00000000
00100000
00001000
00000000
00010000
00000100
00000000
00000100
00001000
00000000
00000010
00000000
00000000
00000000
00000100
00000010
00000000
00001000
00000100
00000000
00010000
00001000
00000000
00100000
00010000
00000000
01000000
00000000
00000000
00000000
,
00100000
00000000
00100000
00000000
01000000
00000000
01000000
00000000
00010000
00000000
00100000
00000000
01000000
00000000
10000000
00000000
00010000
01000000
00010000
01000000
00010000
01000000
00010000
01000000
00010000
00000000
00000000
00000000
00100000
00000000
00000000
00000000
,
00102000
00000000
00013000
00000000
00000100
00000000
00001000
00000010
00000100
00000000
00000001
00000000
00000010
00000000
00001100
00000000
,
00000100
00000000
00010000
00000000
00011000
00000000
00101000
00000000
00001000
00000000
00100000
01000000
11000000
00000000
10010000
00000000
,
10000000
00000000
00010000
00000000
00100000
00000000
00001000
00000000
00010000
00000000
00000100
00000000
00001000
00000010
00000100
00000000
,
00000010
00000100
00000001
00001000
00000100
00010000
00001000
00000000
,
01010000
00000000
00000000
00000000
00100000
00000000
00000000
10000000
00000000
10000000
00010000
00000000
00100000
00000000
00001000
00000000
,
00000000
00000000
00000000
00000000
00010000
00000000
00000000
00000100
00000000
00001000
00000010
00000000
00000100
00000000
00000101
00000000
,
00001001
00000000
00000000
00000000
00000010
00000000
00000000
00000100
00000000
00000000
00000010
00000000
00001000
00000000
00000100
00000000
,
00010000
00000000
00000000
00000000
00001000
00000000
00000000
00100000
00000000
00000000
01000000
00000000
00100000
00000000
00010000
00000000
,
10000000
00010000
00110000
00001010
00000010
00001010
00110000
10000000
,
00000000
00010000
00100000
00010000
01000000
01010000
00001100
00000010
,
00000011
00000000
00000001
00000000
00000100
00000010
00001000
00000100
,
00010000
00000000
00001000
00000000
00100000
00000000
10000000
00000000
00100000
00000000
00010000
00000000
01000000
00002000
00000000
00000000
,
00103000
00001000
00010000
00000000
00001000
00100000
00010000
00000000
,
00100000
00001000
00010000
00000100
00001000
00000010
00000100
00000000
,
00000010
00000100
00000001
00000010
00000100
00000000
00001100
00000000
,
00000100
00010000
00000000
00010000
00001000
00000000
00100000
00000000
,
00010000
00100000
10000000
00000000
10000000
00100000
00010000
00000000
,
00100000
00001000
00010000
00000100
00001000
00000010
00000001
00000000
,
00000010
00000100
00000001
00001000
00000100
00000000
00000010
00000100
,
00001000
00000010
00010000
00000000
00001000
00000000
00100000
00000000
,
01000000
10000000
00100000
01000000
00010000
00100000
00101000
00000000
,
00100000
00001000
00011000
00000000
00010000
00000100
00001100
00000000
,
00000100
00001000
00000010
00000100
00000001
00000010
00001000
00000010
,
00000001
00000100
00000010
00001000
00000200
00020300
00032000
00000000
,
01003000
00100000
01100000
00000000
01000000
00010000
00110000
00000000
,
00100000
00001000
00011000
00000000
00010000
00000100
00001100
00000000
,
00001000
00000010
00000110
00000000
00000100
00000001
00000101
00000000
,
00000001
00000100
00001000
00000100
00010000
00001000
00100000
10000000
,
01000000
10000000
00200000
01300000
,
00100000
01000000
00020000
00130000
,
00100000
00001000
00010000
00000100
,
00002000
00003020
00000230
00000302
,
00000013
00001000
00000010
00000001
,
00000100
00000010
00001000
00000100
,
00020000
00000000
00002000
00000000
,
00000000
00000000
00000000
00000000
,
00033000
00000000
00000000
00000000
;

//---------------dance-single - ----------------
#NOTEDATA:;
#CHARTNAME:;
#STEPSTYPE:dance-single;
#DESCRIPTION:;
#CHARTSTYLE:;
#DIFFICULTY:Beginner;
#METER:2;
#RADARVALUES:0.099053,0.198888,0.072986,0.000000,0.000000,95.000000,85.000000,10.000000,0.000000,0.000000,0.000000,0.000000,0.000000,0.000000,0.099053,0.198888,0.072986,0.000000,0.000000,95.000000,85.000000,10.000000,0.000000,0.000000,0.000000,0.000000,0.000000,0.000000;
#CREDIT:;
#NOTES:
// measure 0
0000
0000
0000
0000
,  // measure 1
0000
0000
0000
0000
,  // measure 2
0000
0000
0000
0000
,  // measure 3
0000
0000
0000
0000
,  // measure 4
1000
0000
1000
0000
,  // measure 5
0001
0000
0001
0000
,  // measure 6
0100
0000
0100
0000
,  // measure 7
0010
0000
0010
0000
,  // measure 8
1001
0000
0000
0000
,  // measure 9
1000
0000
0000
0000
,  // measure 10
0010
0000
0100
0000
,  // measure 11
0001
0000
1000
0000
,  // measure 12
0010
0010
0010
0010
,  // measure 13
0000
0000
0000
0000
,  // measure 14
0100
0100
0100
0100
,  // measure 15
0000
0000
0000
0000
,  // measure 16
0001
0001
1000
1000
,  // measure 17
0010
0010
0100
0100
,  // measure 18
1001
0000
0110
0000
,  // measure 19
1001
0000
0010
0100
,  // measure 20
1001
0000
1000
0000
,  // measure 21
0001
0000
0010
0010
,  // measure 22
0010
0000
0001
0000
,  // measure 23
1000
0000
0010
0000
,  // measure 24
1001
0000
0000
0000
,  // measure 25
0100
0000
0000
0000
,  // measure 26
1001
0000
0000
0000
,  // measure 27
0010
0000
0000
0000
,  // measure 28
1001
0000
1000
0000
,  // measure 29
0001
0000
0000
0100
,  // measure 30
0010
0000
0000
1000
,  // measure 31
0001
0000
0100
0000
,  // measure 32
0010
0000
0000
0000
,  // measure 33
0100
0000
0000
0000
,  // measure 34
0001
0000
0000
0000
,  // measure 35
1000
0000
1000
0000
,  // measure 36
0001
0000
0000
0000
,  // measure 37
0100
0000
0000
0000
,  // measure 38
0010
0000
0000
0000
,  // measure 39
1000
0000
0001
0000
,  // measure 40
0010
0000
0000
0000
,  // measure 41
0100
0000
0000
0000
,  // measure 42
1000
0000
0000
0000
,  // measure 43
0001
0000
1000
1000
,  // measure 44
0001
0000
0000
0000
,  // measure 45
1000
0000
0000
0000
,  // measure 46
0010
0000
0000
0000
,  // measure 47
0100
0000
0010
0000
,  // measure 48
1001
0000
0000
0000
,  // measure 49
1000
0000
0000
0000
,  // measure 50
0010
0000
0000
0000
,  // measure 51
0100
0000
0000
0000
,  // measure 52
0001
0000
0000
0000
,  // measure 53
1000
0000
0000
0000
,  // measure 54
0110
0000
0100
0000
;
