#VERSION:0.83;
#TITLE:ATRAX;
#SUBTITLE:;
#ARTIST:HuΣeR;
#TITLETRANSLIT:;
#SUBTITLETRANSLIT:;
#ARTISTTRANSLIT:;
#GENRE:;
#ORIGIN:;
#CREDIT:;
#BANNER:banner.png;
#BACKGROUND:background.png;
#PREVIEWVID:;
#JACKET:;
#CDIMAGE:;
#DISCIMAGE:;
#LYRICSPATH:;
#CDTITLE:;
#MUSIC:ATRAX.ogg;
#OFFSET:-5.719999;
#SAMPLESTART:82.555000;
#SAMPLELENGTH:13.125000;
#SELECTABLE:YES;
#BPMS:0.000=128.000;
#STOPS:;
#DELAYS:;
#WARPS:;
#TIMESIGNATURES:0.000=4=4;
#TICKCOUNTS:0.000=4;
#COMBOS:0.000=1;
#SPEEDS:0.000=1.000=0.000=0;
#SCROLLS:0.000=1.000;
#FAKES:;
#LABELS:0.000=Song Start;
#BGCHANGES:;
#KEYSOUNDS:;
#ATTACKS:
;

//---------------dance-single - ----------------
#NOTEDATA:;
#CHARTNAME:;
#STEPSTYPE:dance-single;
#DESCRIPTION:;
#CHARTSTYLE:;
#DIFFICULTY:Hard;
#METER:7;
#RADARVALUES:0.428115,0.423515,0.297204,0.057790,0.309587,363.000000,327.000000,36.000000,7.000000,0.000000,0.000000,0.000000,0.000000,0.000000,0.428115,0.423515,0.297204,0.057790,0.309587,363.000000,327.000000,36.000000,7.000000,0.000000,0.000000,0.000000,0.000000,0.000000;
#CREDIT:;
#NOTES:
0000
0000
0000
0000
,
1000
0001
1000
1000
,
0001
1000
0001
1000
,
0001
1000
0001
0001
,
1000
0001
1000
0001
,
0100
0010
0100
0100
,
0010
0100
0010
0100
,
0010
0100
0010
0010
,
0100
0010
1000
1001
,
0101
0000
0000
0000
0011
0000
0000
0000
0110
0000
0000
0100
0000
0000
1000
0000
,
0000
0001
0000
0000
0100
0000
0010
0000
0100
0000
0000
0000
0010
0000
0000
0000
,
1010
0000
0000
0000
1100
0000
0000
0000
1001
0000
0000
0001
0000
0000
0010
0000
,
0000
0100
0000
0000
0010
0000
0001
0000
0100
0000
0000
0000
0010
0000
0000
0000
,
1001
0000
0000
0000
0011
0000
0000
0000
1100
0000
0000
0100
0000
0000
1000
0000
,
0000
0001
0000
0000
0100
0000
0010
0000
1000
0000
0000
0000
0001
0000
0000
0000
,
0011
0000
0000
0000
0101
0000
0000
0000
1010
0000
0000
1000
0000
0000
0010
0000
,
0000
0100
0000
0000
0010
0000
1000
0000
0100
0000
0000
0000
1001
0000
0000
0000
,
1000
0100
0000
0000
1000
0000
0010
0000
0100
0000
0001
1000
0000
1000
0001
0000
,
0010
0010
0100
1000
,
0001
0000
0000
0000
0100
0000
0010
0000
1000
0000
0100
1000
0000
1000
0001
0000
,
0100
0000
0010
0000
1000
0000
0001
0010
0000
0000
0100
0000
0000
0000
0000
0000
,
0010
0001
0000
0000
1000
0000
0010
0000
0100
0000
0001
0100
0000
0100
0010
0000
,
1000
1000
0001
0010
,
0100
0000
0000
0000
0010
0000
0001
0000
1000
0000
0010
1000
0000
1000
0001
0000
,
0010
0000
0100
0000
0010
0000
0001
1000
0000
0000
0010
0000
0110
0000
0000
0000
,
0010
0000
1010
0000
1000
0010
0110
0000
,
0100
0000
0101
0000
0001
0010
0100
0010
,
0001
0000
1001
0000
0001
0100
0110
0000
,
0010
1000
0010
0100
0001
0100
0010
1000
,
0100
0000
0110
0000
0100
1000
1010
0000
,
0010
0000
0101
0000
0001
1000
0100
0001
,
0100
0000
0011
0000
0100
1000
1010
0000
,
0010
0100
0010
0100
0001
1000
1001
0000
,
0002
0100
0000
1000
,
0203
0010
0001
0010
,
0302
0010
0000
0010
,
0103
0010
1000
0100
0010
0001
0010
0100
,
2000
3010
0200
0301
,
1000
0001
0010
0100
,
0020
0031
2000
3100
,
1000
0001
0100
1001
,
0001
1000
0000
0010
0000
1000
0000
0010
0000
0100
0000
0001
0000
0010
0000
0100
,
0000
0010
0000
0001
0000
1000
0000
0010
0000
0100
0000
0001
0000
1000
0000
0000
,
0001
1000
0000
0100
0000
1000
0000
0010
0000
0100
0000
0001
0000
0010
0000
0100
,
0000
0010
0000
0001
0000
1000
0000
0010
0000
0100
0000
0001
0000
1000
0000
0000
,
0001
0010
0000
0100
0000
0010
0000
0000
0100
1000
0000
0100
0000
1000
0000
0000
,
0000
0010
0000
0100
0000
0010
0000
1000
0000
0001
0000
0010
0000
0100
0000
0000
,
0010
0100
0000
0010
0000
0001
0000
0000
1000
0001
0000
0100
0000
0010
0000
0000
,
0000
1000
0000
0010
0000
0100
0000
0001
0000
0010
0000
0100
0010
0000
0000
0000
,
1001
0000
0001
0001
0100
0100
0010
0010
,
1010
0000
1000
1000
0100
0100
0010
0010
,
0011
0000
0001
0001
1000
1000
0010
0010
,
0110
0000
0100
0100
0001
0001
0010
0010
,
0110
0000
0100
0100
0001
0001
0100
0100
,
0110
0000
0100
0100
1000
1000
0010
0010
,
0110
0000
0100
0100
0001
0001
1000
1000
,
0001
0010
1000
0010
0001
0100
1100
0000
,
0101
0000
0000
0000
;

//---------------dance-single - ----------------
#NOTEDATA:;
#CHARTNAME:;
#STEPSTYPE:dance-single;
#DESCRIPTION:;
#CHARTSTYLE:;
#DIFFICULTY:Challenge;
#METER:10;
#RADARVALUES:0.621533,0.964674,0.140346,0.181625,1.188815,527.000000,510.000000,17.000000,22.000000,28.000000,0.000000,0.000000,0.000000,0.000000,0.621533,0.964674,0.140346,0.181625,1.188815,527.000000,510.000000,17.000000,22.000000,28.000000,0.000000,0.000000,0.000000,0.000000;
#CREDIT:;
#NOTES:
0000
0000
0000
0000
,
2010
0000
0000
0000
0010
0000
0000
0000
0001
0000
0000
0001
0000
0000
0001
0000
,
0000
0100
0000
0000
0001
0000
0001
0000
0001
0000
0000
0001
0000
0000
3000
0000
,
0102
0000
0000
0000
0100
0000
0000
0000
1000
0000
0000
1000
0000
0000
1000
0000
,
0000
0010
0000
0000
1000
0000
1000
0000
1000
0000
0000
1000
0000
0000
0103
0000
,
0101
0000
0000
0000
0101
0000
0000
0000
0011
0000
0000
0010
0000
0000
0110
0000
,
0100
1000
0010
0100
0001
0010
0100
0010
,
1001
0000
0000
0000
1001
0000
0000
0000
0101
0000
0000
0100
0000
0000
0110
0000
,
0200
0320
0030
2000
3000
0002
0023
0030
0200
0320
0030
0000
MMMM
0000
0000
0000
,
1000
0001
0000
0010
0000
0010
0000
0100
0000
0100
0000
1000
0000
0001
0000
1000
,
0000
0010
1000
0010
0000
0100
0000
0100
0000
0001
0000
0010
0000
0100
0000
1000
,
0010
1000
0000
0001
0000
0001
0000
0010
0000
0010
0000
0100
0000
1000
0000
0100
,
0000
0000
0000
1000
0000
0000
0001
0000
0000
0010
0000
0000
0000
0000
0000
0100
0000
0010
0000
0100
0000
0010
0000
0000
0000
0000
0000
0001
0000
0000
0000
0000
0000
1000
0000
0000
0000
0000
0000
0001
0000
0000
0000
0000
0000
0100
0000
0000
,
0010
1000
0000
0001
0000
0001
0000
1000
0000
1000
0000
0010
0000
0100
0000
0010
,
0000
1000
0010
1000
0000
0010
0000
0010
0000
0100
0000
0001
0000
0010
0000
0100
,
0010
0001
0000
1000
0000
1000
0000
0001
0000
0001
0000
0100
0000
0100
0000
0010
,
0200
0000
0300
MMMM
,
1000
0001
0000
0000
0010
0000
0100
0000
0010
0000
0001
1000
0000
0010
1000
0000
,
0100
0000
0100
0000
0010
0001
0100
0000
,
0010
0000
0000
0000
0100
0000
0010
0000
1000
0000
0001
0010
0000
0100
0010
0000
,
0001
0100
0010
1000
0100
0010
0100
2000
0000
0000
3001
0000
0100
0000
0000
0000
,
0010
1000
0000
0000
0001
0000
1000
0000
0100
0000
1000
0010
0000
0100
0001
0000
,
0010
0000
0010
0000
0100
1000
0001
0000
,
0100
0000
0000
0000
0100
0000
0001
0000
1000
0000
0001
0010
0000
0100
0010
0000
,
0100
0010
0001
0100
0010
1000
0001
1000
0000
0000
0100
0000
MMMM
0000
0000
0000
,
1001
0000
0000
0000
0000
0000
0001
0000
0000
0100
0000
0000
0000
0000
0000
0010
0000
0000
0000
0000
0000
1000
0000
0000
0000
0000
0000
0000
0100
0000
0010
0000
0000
0000
0000
0000
0001
0000
0000
0000
1000
0000
0001
0000
0000
0000
0000
0000
,
0000
0000
0000
0000
0000
0000
0000
0000
0000
0000
0000
0000
0000
0000
0000
0000
0000
0000
0000
0000
0000
0000
0000
0000
0000
0000
0000
0000
0000
0000
0000
0000
0000
0000
0000
0000
0001
0000
1000
0000
0001
0000
0100
0000
0000
0010
0000
0000
,
1000
0000
0000
0000
0000
0000
0000
0000
0000
0001
0000
0000
0000
0000
0000
0010
0000
0000
0000
0000
0000
0100
0000
0000
0000
0000
0000
0000
0010
0000
0001
0000
0000
0000
0000
0000
1000
0000
0000
0000
0000
0000
0000
0000
0000
0000
0000
0000
,
0001
0100
1000
0000
1000
0100
0001
0000
0001
0010
1000
0000
1000
0010
0001
0000
,
1000
0000
0000
0000
0000
0000
0000
0000
0000
0001
0000
0000
0000
0000
0000
0010
0000
0000
0000
0000
0000
0100
0000
0000
0000
0000
0000
0000
0010
0000
0100
0000
0000
0000
0000
0000
0010
0000
0000
0000
0001
0000
1000
0000
0000
0000
0000
0000
,
0000
0000
0000
0000
0000
0000
0000
0000
0000
1000
0000
1000
0000
0000
0001
0010
,
0100
0011
0001
1100
,
1000
0001
0010
0100
0010
0001
0100
0010
0000
0000
1000
0000
MMMM
0000
0000
0000
,
1000
0000
0000
0000
0001
0000
0000
0000
0010
0000
0000
0100
0000
0000
0010
0000
,
0000
0100
0000
0000
1000
0000
0100
0000
0010
0000
0000
0100
0000
0000
1000
0000
,
0001
0000
0000
0000
0001
0000
0000
0000
1000
0000
0000
0001
0000
0000
0010
0000
,
0200
0300
2000
3020
0030
0200
0302
0003
2000
3002
0003
0000
0000
0000
0000
0000
,
1000
0000
0020
0000
0000
0000
0230
0000
0301
0010
0001
0010
0100
1000
0100
1000
,
0001
0100
0001
0100
0010
1000
0010
1000
,
0002
0000
0000
0000
1003
0001
0100
0010
0100
0010
1000
0001
1000
0001
0010
0100
,
0010
0000
0010
0001
0000
0001
1000
0000
1000
0001
0000
0001
0200
0000
0000
0300
0000
0000
MMMM
0000
0000
0000
0000
0000
,
1000
0001
0000
0010
0000
0010
0000
0010
0000
0010
0000
0010
0000
0100
0000
0010
,
0000
0010
0100
0010
0000
0100
0000
0100
0000
1000
0000
0001
0000
0100
0000
0010
,
1000
0100
0000
1000
0000
1000
0000
1000
0000
1000
0000
1000
0000
0001
0000
1000
,
0000
0000
0000
0001
0000
0000
1000
0000
0000
0001
0000
0000
0000
0000
0000
0100
0000
0001
0000
0100
0000
0001
0000
0100
0000
0000
0000
0010
0000
0000
0000
0000
0000
1000
0000
0000
0000
0000
0000
0010
0000
0000
0000
0000
0000
0100
0000
0000
,
0010
1000
0000
0001
0000
0010
0000
0100
0010
0001
0000
0010
0000
0100
0010
0001
,
0000
0000
0000
0000
1000
0000
0001
0000
0000
0100
0000
0000
0000
0000
0000
0010
0000
0100
0000
0010
0000
0100
0000
0000
0010
0000
0000
1000
0000
0010
0000
1000
0000
0010
0000
0000
0100
0000
0000
0010
0000
0000
0000
0000
0000
1000
0000
0000
,
0001
0010
0000
0010
0000
0010
0000
0010
0001
0100
0000
0100
0000
0100
0010
1000
,
0000
0000
0001
1000
0000
1000
0001
0000
0001
1000
0000
1000
0001
0000
0001
1000
0000
0000
MMMM
0000
0000
0000
0000
0000
,
0000
0000
0000
0010
0000
0000
1000
0000
0000
0100
0000
0000
0000
0000
0000
0010
0000
0000
0100
0000
0000
1000
0000
0000
0001
0000
0000
1000
0000
0001
0000
1000
0000
0001
0000
0000
1000
0000
0000
0001
0000
0000
0000
0000
0000
0100
0000
0000
,
0000
0000
0000
0010
0000
0000
1000
0000
0000
0100
0000
1000
0000
0100
0000
1000
0000
0000
0100
0000
0000
1000
0000
0000
0001
0000
0100
0000
0001
0000
0100
0000
0001
0100
0000
0000
0001
0000
0000
0100
0000
0000
0000
0000
0000
0010
0000
0000
,
1000
0000
0000
0001
0000
0000
1000
0000
0000
0010
0000
0000
0100
0000
0000
0001
0000
0000
0010
0000
0100
0000
0010
0000
0100
0000
0000
1000
0000
0001
0000
1000
0000
0001
0000
0000
1000
0000
0000
0001
0000
0000
0000
0000
0000
1000
0000
0000
,
0010
1001
0100
1001
0010
1001
0010
1001
,
0001
0000
0000
0100
0000
0000
0001
0000
0000
0010
0000
0000
0000
0000
0000
0100
0000
1000
0000
0100
0000
1000
0000
0000
0001
0000
0000
1000
0000
0001
0000
1000
0000
0001
0000
0000
0100
0000
0000
0010
0000
0100
0000
0010
0000
0100
0000
0000
,
0010
0000
0000
1000
0000
0010
0000
1000
0000
0010
0000
0000
0100
0000
0000
0001
0000
0100
0000
0001
0000
0100
0000
0000
0010
0000
0000
1000
0000
0001
0000
1000
0000
0001
0000
0000
0010
0000
0000
0100
0000
1000
0000
0100
0000
1000
0000
0000
,
0100
0000
0000
0010
0000
0001
0000
0010
0000
0001
0000
0000
0100
0000
0000
0010
0000
0100
0000
0010
0000
0100
0000
0000
0010
0000
0000
1000
0000
0010
0000
1000
0000
0010
0000
0000
0100
0000
0000
0010
0000
0100
0000
0010
0000
0100
0000
0000
,
0001
1000
0100
1000
0001
0100
0010
0100
0001
0000
1000
0000
MMMM
0000
0000
0000
,
0010
0000
0000
0000
;

//---------------dance-single - ----------------
#NOTEDATA:;
#CHARTNAME:;
#STEPSTYPE:dance-single;
#DESCRIPTION:;
#CHARTSTYLE:;
#DIFFICULTY:Medium;
#METER:5;
#RADARVALUES:0.310177,0.352930,0.247670,0.066045,0.000000,263.000000,233.000000,30.000000,8.000000,0.000000,0.000000,0.000000,0.000000,0.000000,0.310177,0.352930,0.247670,0.066045,0.000000,263.000000,233.000000,30.000000,8.000000,0.000000,0.000000,0.000000,0.000000,0.000000;
#CREDIT:;
#NOTES:
0000
0000
0000
0000
,
1000
0001
0010
0010
,
0001
0100
0010
1000
,
0100
0010
0100
0100
,
0010
0001
0100
0010
,
1000
1000
0001
1000
,
0001
0010
0001
0100
,
0010
0010
0100
0010
,
0100
0010
1000
1001
,
0101
0101
0001
1000
,
0100
1000
0010
0100
,
0110
0110
0100
0001
,
0010
1000
0010
0001
,
1001
1001
0001
1000
,
0010
1000
0001
0010
,
0110
0110
0100
1000
,
0100
0001
0100
1001
,
1000
0001
0100
0010
,
1010
0000
1010
0000
1000
0010
0100
0000
,
0010
0100
0100
0010
,
0001
0000
0010
0100
1000
0000
0100
0000
,
1000
0010
0100
0001
,
0011
0000
0011
0000
0001
1000
0010
0000
,
0100
0010
1000
1000
,
0001
1000
0010
1001
,
0001
0000
1000
0000
0001
0100
0001
0000
,
0100
0000
0010
0000
1000
0000
0010
1000
,
0100
0000
0010
0000
0001
0010
0001
0000
,
0010
0100
1000
0010
,
0100
0000
0010
0000
1000
0001
1000
0000
,
0001
0000
0010
0000
0001
0000
0100
0001
,
1000
0000
0100
0000
1000
0100
0010
0000
,
0100
1000
0010
1001
,
0001
0000
1000
0000
,
0010
1000
0100
0001
,
0100
0000
0010
0000
,
0001
0010
1000
0100
,
0010
0000
0100
0000
,
1000
0001
1000
0010
,
1000
0000
0001
0000
,
1000
0001
0100
1001
,
0001
1000
0010
0100
,
0001
0000
0010
0000
0100
0000
1000
0100
,
0010
0100
1000
0010
,
0100
0001
1000
0001
,
0010
0100
1000
0000
1000
0100
0010
0000
,
0100
0010
0001
1000
,
0001
0100
0010
0000
0100
0010
1000
0000
,
0001
1000
0010
0100
,
1002
1000
1000
1003
,
2001
0001
0001
3001
,
0120
0100
0100
0130
,
1001
0110
1001
0110
,
0210
0010
0010
0310
,
1002
1003
0210
0310
,
0102
0103
2100
3100
,
1000
0100
0010
0001
1000
0000
1001
0000
,
0010
0000
0000
0000
;

//---------------dance-single - ----------------
#NOTEDATA:;
#CHARTNAME:;
#STEPSTYPE:dance-single;
#DESCRIPTION:;
#CHARTSTYLE:;
#DIFFICULTY:Easy;
#METER:3;
#RADARVALUES:0.204033,0.235286,0.066045,0.024767,0.000000,173.000000,165.000000,8.000000,3.000000,0.000000,0.000000,0.000000,0.000000,0.000000,0.204033,0.235286,0.066045,0.024767,0.000000,173.000000,165.000000,8.000000,3.000000,0.000000,0.000000,0.000000,0.000000,0.000000;
#CREDIT:;
#NOTES:
0000
0000
0000
0000
,
1000
0000
0001
0000
,
1000
0000
0001
0000
,
0100
0000
0010
0000
,
0100
0000
0010
0000
,
1000
0010
0100
0000
,
0001
0000
0001
0000
,
0010
0001
0100
0000
,
0010
0000
0010
1001
,
0001
0000
1000
0000
,
0010
1000
0100
0010
,
0001
0000
0010
0000
,
0001
1000
0010
0100
,
0001
0000
1000
0000
,
0100
1000
0010
0100
,
0010
0000
1000
0000
,
0002
0000
0003
0110
,
0100
0010
1000
1000
,
0001
0001
0000
0000
,
1000
0001
0010
0001
,
0200
0000
0000
0300
,
0010
1000
0010
0100
,
0001
0001
0000
0000
,
1000
0001
0010
0001
,
2000
0000
3000
1001
,
0001
1000
0010
0010
,
0000
0000
0000
0100
,
0010
1000
0001
0010
,
0100
0010
0100
0010
,
0100
1000
0001
0100
,
0000
0000
0000
0010
,
0100
0001
1000
0100
,
1000
0001
0100
1001
,
0010
0000
0010
0000
,
0100
0000
0100
0000
,
0001
0000
0001
0000
,
1000
0001
1000
0000
,
0010
0000
0100
0000
,
0010
0000
1000
0000
,
0001
0000
1000
0000
,
0010
0000
0100
1001
,
0110
0000
0010
0000
,
1000
0001
0010
0001
,
0100
0000
0100
0000
,
0100
0010
1000
0100
,
0010
0000
0010
0000
,
0010
0100
0010
0001
,
1000
0000
1000
0000
,
1000
0001
0100
1001
,
0001
1000
1000
1000
,
0001
0100
0100
0100
,
0010
1000
1000
1000
,
0100
0001
0100
1000
,
0100
0010
0010
0010
,
0001
0001
1000
1000
,
0100
0100
1000
1000
,
0001
1000
0010
1001
,
0100
0000
0000
0000
;

//---------------dance-single - ----------------
#NOTEDATA:;
#CHARTNAME:;
#STEPSTYPE:dance-single;
#DESCRIPTION:;
#CHARTSTYLE:;
#DIFFICULTY:Beginner;
#METER:1;
#RADARVALUES:0.090812,0.141172,0.057790,0.000000,0.000000,77.000000,70.000000,7.000000,0.000000,0.000000,0.000000,0.000000,0.000000,0.000000,0.090812,0.141172,0.057790,0.000000,0.000000,77.000000,70.000000,7.000000,0.000000,0.000000,0.000000,0.000000,0.000000,0.000000;
#CREDIT:;
#NOTES:
0000
0000
0000
0000
,
1000
0000
0000
0000
,
0001
0000
0000
0000
,
1000
0000
0000
0000
,
0001
0000
0000
0000
,
0100
0000
0000
0000
,
0010
0000
0000
0000
,
0100
0000
0000
0000
,
0001
0000
0000
1001
,
0010
0000
0000
0000
,
0100
0000
0000
0000
,
0010
0000
0000
0000
,
1000
0000
0000
0000
,
0001
0000
0000
0000
,
0010
0000
0000
0000
,
0001
0000
0000
0000
,
1000
0000
0000
0110
,
1000
0000
0000
0000
,
0001
0001
0000
0000
,
0100
0000
0000
0000
,
0010
0000
0000
0000
,
1000
0000
0000
0000
,
0100
0100
0000
0000
,
0010
0000
0000
0000
,
0100
0000
0000
1001
,
0010
0000
0000
0000
,
0000
0000
0000
0100
,
0010
0000
0000
0000
,
1000
0000
1000
0000
,
0001
0000
0000
0000
,
0000
0000
0000
0100
,
0010
0000
0000
0000
,
1000
0000
0000
1001
,
0010
0000
0000
0000
,
0100
0000
0000
0000
,
0001
0000
0000
0000
,
1000
0000
0000
0000
,
0010
0000
0000
0000
,
0100
0000
0000
0000
,
0001
0000
0000
0000
,
1000
0000
0000
1001
,
0100
0000
0000
0000
,
0010
0000
0000
0000
,
1000
0000
0000
0000
,
0001
0000
0000
0000
,
0010
0000
0010
0000
,
0001
0000
0000
0000
,
1000
0000
0001
0000
,
0100
0000
0000
1001
,
0010
0000
0000
0000
,
0100
0000
0000
0000
,
0001
0000
0000
0000
,
1000
0000
1000
0000
,
1000
0000
0000
0000
,
0010
0000
0000
0000
,
0100
0000
0000
0000
,
0001
0000
0000
1001
,
0010
0000
0000
0000
;

//---------------dance-double - ----------------
#NOTEDATA:;
#CHARTNAME:;
#STEPSTYPE:dance-double;
#DESCRIPTION:;
#CHARTSTYLE:;
#DIFFICULTY:Challenge;
#METER:8;
#RADARVALUES:0.470573,0.447044,0.305459,0.123835,0.491212,399.000000,362.000000,37.000000,15.000000,0.000000,0.000000,0.000000,0.000000,0.000000,0.470573,0.447044,0.305459,0.123835,0.491212,399.000000,362.000000,37.000000,15.000000,0.000000,0.000000,0.000000,0.000000,0.000000;
#CREDIT:;
#NOTES:
// measure 0
00000000
00000000
00000000
00000000
,  // measure 1
10100000
00000000
00000000
00000000
10100000
00000000
00000000
00000000
01000000
00000000
00000000
01000000
00000000
00000000
01000000
00000000
,  // measure 2
00000000
00010000
00000000
00000000
00100000
00000000
00001000
00000000
00010000
00000000
00000000
00010000
00000000
00000000
00000000
00000000
,  // measure 3
00001100
00000000
00000000
00000000
00001100
00000000
00000000
00000000
00000001
00000000
00000000
00000001
00000000
00000000
00000001
00000000
,  // measure 4
00000000
00000100
00000000
00000000
00000010
00000000
00001000
00000000
00000100
00000000
00000000
00010000
00000000
00000000
00001000
00000000
,  // measure 5
00011000
00000000
00000000
00000000
00011000
00000000
00000000
00000000
00100000
00000000
00000000
00100000
00000000
00000000
00100000
00000000
,  // measure 6
00000000
01000000
00000000
00000000
00100000
00000000
00010000
00000000
10000000
00000000
00000000
00010000
00000000
00000000
00000000
00000000
,  // measure 7
01010000
00000000
00000000
00000000
01010000
00000000
00000000
00000000
00010000
00000000
00000000
00010000
00000000
00000000
00100000
00000000
,  // measure 8
00001000
00000000
00000000
00010000
00000000
00000000
00000100
00000000
00001000
00000000
00000000
00000000
00000101
00000000
00000000
00000000
,  // measure 9
00001001
00000000
00000000
00000000
00001010
00000000
00000000
00000000
00001000
00000000
00000000
00000100
00000000
00000000
00010000
00000000
,  // measure 10
00000000
00001000
00000000
00000000
00100000
00000000
01000000
00000000
10000000
00000000
00000000
01000000
00000000
00000000
00100000
00000000
,  // measure 11
00110000
00000000
00000000
00000000
11000000
00000000
00000000
00000000
10010000
00000000
00000000
00010000
00000000
00000000
00100000
00000000
,  // measure 12
00000000
00001000
00000000
00000000
00001000
00000000
00010000
00000000
00000100
00000000
00000000
00001000
00000000
00000000
00000010
00000000
,  // measure 13
00000110
00000000
00000000
00000000
00001010
00000000
00000000
00000000
00001100
00000000
00000000
00000100
00000000
00000000
00010000
00000000
,  // measure 14
00000000
00001000
00000000
00000000
00100000
00000000
00010000
00000000
01000000
00000000
00000000
00100000
00000000
00000000
10000000
00000000
,  // measure 15
10010000
00000000
00000000
00000000
00110000
00000000
00000000
00000000
00101000
00000000
00000000
00001000
00000000
00000000
00010000
00000000
,  // measure 16
00000100
00000000
00000000
00001000
00000000
00000000
00000010
00000000
00000100
00000000
00000000
00000000
00001010
00000000
00000000
00000000
,  // measure 17
00010000
00000100
00000000
00000000
00010000
00000000
00001000
00000000
00100000
00000000
01000000
10000000
00000000
10000000
00100000
00000000
,  // measure 18
01000000
01000000
01100000
10010000
,  // measure 19
00100000
00000000
00000000
00000000
00001000
00000000
00010000
00000000
00000100
00000000
00001000
00000100
00000000
00000010
00000001
00000000
,  // measure 20
00000100
00000000
00000010
00000000
00001000
00000000
00000100
00020000
00000000
00000000
00031000
00000000
00000000
00000000
00000000
00000000
,  // measure 21
00010000
00100000
00000000
00000000
01000000
00000000
10000000
00000000
00100000
00000000
01000000
00010000
00000000
00100000
00001000
00000000
,  // measure 22
00010000
00010000
00001100
00000011
,  // measure 23
00001001
00000000
00000000
00000000
00000001
00000000
00000100
00000000
00000010
00000000
00001000
00000100
00000000
00000100
00010000
00000000
,  // measure 24
00001000
00000000
00100000
00000000
10000000
00000000
00100000
02000000
00000000
00000000
13000000
00000000
10010000
00000000
00000000
00000000
,  // measure 25
10000000
00000000
00000000
00010000
00000000
00010000
00000000
00100000
00000000
00000000
00001000
00000000
00010000
00000000
00000000
00000000
,  // measure 26
00000000
00000000
00000000
00000000
00000000
00000000
00000000
00000000
00000000
00000000
00000000
00000000
00010000
00000100
00010000
00000100
,  // measure 27
00001000
00000000
00000000
00000010
00000000
00000010
00000000
00000010
00000000
00000100
00000001
00000000
00001000
00000000
00000000
00000000
,  // measure 28
00000100
00010000
00001000
00100000
00001000
00010000
00000100
00001000
,  // measure 29
00000010
00000000
00000000
00000100
00000000
00000100
00000000
00000100
00000000
00000010
00001000
00000000
00000100
00000000
00000000
00000000
,  // measure 30
00000000
00000000
00000000
00000000
00000000
00000000
00000000
00000000
00000000
00010000
00000000
00001000
00000000
00000000
01000000
00100000
,  // measure 31
01000000
10010000
00100000
10010000
,  // measure 32
10000000
00000000
01000000
00000000
00010000
00000000
01000000
00200000
00000000
00000000
00310000
00000000
10010000
00000000
00000000
00000000
,  // measure 33
20000000
00000000
00000000
00000000
30100000
00000000
00000000
00000000
01000000
00000000
00000000
00010000
00000000
00000000
00100000
00000000
,  // measure 34
00000000
00001000
00000000
00000000
00020000
00000000
00000000
00000000
00030200
00000000
00000000
00000000
00002300
00000000
00000000
00000000
,  // measure 35
00003020
00000000
00000000
00000000
00001030
00000000
00000000
00000000
00000010
00000000
00000000
00000100
00000000
00000000
00000001
00000000
,  // measure 36
00000010
00000000
00000001
00000010
00000000
00000100
00001000
00000000
00000010
00000100
00000000
00000010
00001000
00000000
00000100
00000000
,  // measure 37
00010000
00002000
00000000
00103000
10000000
00100000
00010000
10000000
,  // measure 38
00020000
10000000
01000000
00130000
,  // measure 39
01000000
20000000
00000000
30100000
02000000
00000000
03010000
00100000
,  // measure 40
00001000
00010000
00000100
00010000
00000010
00001000
00000101
00000000
,  // measure 41
00000001
00001000
00000000
00000100
00000000
00001000
00000000
00000100
00000000
00010000
00000000
00001000
00000000
00100000
00000000
01000000
,  // measure 42
00000000
00100000
00000000
00010000
00000000
01000000
00000000
00100000
00000000
10000000
00000000
00010000
00000000
00100000
00000000
00000000
,  // measure 43
00001000
00010000
00000000
00000100
00000000
00001000
00000000
00000010
00000000
00000100
00000000
00000001
00000000
00000010
00000000
00001000
,  // measure 44
00000000
00000010
00000000
00000001
00000000
00001000
00000000
00000010
00000000
00010000
00000000
00001000
00000000
00100000
00000000
01000000
,  // measure 45
10000000
00100000
00000000
01000000
00000000
00100000
00000000
10000000
00010000
00100000
00000000
01000000
00000000
00100000
00000000
00010000
,  // measure 46
00000000
00100000
00000000
00001000
00000000
00010000
00000000
00000100
00000000
00001000
00000000
00000010
00000000
00000100
00000000
00000001
,  // measure 47
00001000
00000001
00000000
00000100
00000000
00000010
00000000
00001000
00000010
00001000
00000000
00000010
00000000
00000100
00000000
00000001
,  // measure 48
00000000
00000010
00000000
00000100
00000000
00001000
00000000
00000100
00000000
00010000
00000000
00001000
00100000
00000000
00000000
00000000
,  // measure 49
00012000
00000000
00103000
00100000
01000000
01000000
10000000
10000000
,  // measure 50
10200000
00000000
01300000
01000000
00010000
00010000
00100000
00100000
,  // measure 51
00102000
00000000
00013000
00010000
00000100
00000100
00001000
00001000
,  // measure 52
00001100
00010000
00000100
00001000
00000100
00010000
00000100
00001000
,  // measure 53
00001100
00000000
00000100
00000100
00001000
00001000
00000010
00000010
,  // measure 54
00000100
00000100
00000001
00000001
00001000
00001000
00000100
00000100
,  // measure 55
00010000
00010000
00001000
00001000
00100000
00100000
01000000
01000000
,  // measure 56
10000000
01000000
00010000
01000000
00100000
00010000
00110000
00000000
,  // measure 57
00001000
00000000
00000000
00000000
;
