#VERSION:0.83;
#TITLE:5.8.8.;
#SUBTITLE:;
#ARTIST:dj nagureo;
#TITLETRANSLIT:;
#SUBTITLETRANSLIT:;
#ARTISTTRANSLIT:;
#GENRE:;
#ORIGIN:;
#CREDIT:;
#BANNER:5.8.8..png;
#BACKGROUND:5.8.8.-bg.png;
#PREVIEWVID:;
#JACKET:5.8.8.-jacket.png;
#CDIMAGE:;
#DISCIMAGE:;
#LYRICSPATH:;
#CDTITLE:;
#MUSIC:5.8.8..mp3;
#OFFSET:-0.376999;
#SAMPLESTART:20.618525;
#SAMPLELENGTH:10.105263;
#SELECTABLE:YES;
#BPMS:0.000=95.000;
#STOPS:;
#DELAYS:;
#WARPS:;
#TIMESIGNATURES:0.000=4=4;
#TICKCOUNTS:0.000=4;
#COMBOS:0.000=1;
#SPEEDS:0.000=1.000=0.000=0;
#SCROLLS:0.000=1.000;
#FAKES:;
#LABELS:0.000=Song Start;
#BGCHANGES:;
#KEYSOUNDS:;
#ATTACKS:
;

//---------------dance-single - ----------------
#NOTEDATA:;
#CHARTNAME:;
#STEPSTYPE:dance-single;
#DESCRIPTION:;
#CHARTSTYLE:;
#DIFFICULTY:Hard;
#METER:6;
#RADARVALUES:0.285603,0.367632,0.059049,0.000000,0.016871,237.000000,230.000000,7.000000,0.000000,0.000000,0.000000,0.000000,0.000000,0.000000,0.285603,0.367632,0.059049,0.000000,0.016871,237.000000,230.000000,7.000000,0.000000,0.000000,0.000000,0.000000,0.000000,0.000000;
#CREDIT:;
#NOTES:
0000
0000
0000
0000
,
0000
0000
0000
0000
,
0000
0000
0000
0000
,
0000
0000
0000
0000
,
1000
1000
0000
0000
0010
0010
0000
0000
,
0100
0100
0000
0000
0001
0001
0010
0000
,
0100
0010
0100
0010
0100
0010
0100
0010
,
0100
0000
0010
0000
0100
0000
0010
0000
0100
0000
0010
0000
0001
1000
0001
1000
,
0001
0100
0001
0010
0100
0000
0010
0100
,
1000
0100
0010
0100
,
1000
0001
0100
0001
0010
0001
1000
0001
,
1000
0100
1000
0010
1000
0100
0010
0100
,
1000
0000
0100
0000
1000
0000
0010
0100
,
0001
0000
0010
0000
0100
0000
0010
0001
,
0100
0001
0100
0010
,
1010
0101
1010
1001
,
1000
0001
0100
0000
0010
1000
0100
0000
,
0010
0100
1000
0000
0100
1000
0010
0000
,
0100
0010
1000
0001
0001
0000
1000
0100
,
0010
0100
1000
0010
0100
0001
0010
0100
,
0010
0000
0001
0000
,
1000
0001
0100
0010
,
1000
0010
0100
0001
,
1000
0000
0000
0000
1000
0000
0000
0001
1000
0000
0000
0000
1000
0000
0000
0000
,
1001
0000
0000
0001
0001
0000
1000
0000
,
0001
0010
0100
0010
0001
1000
0100
0010
,
0100
0000
0000
0010
0010
0000
0100
0000
,
0010
0001
1000
0100
1000
0010
0100
0001
,
1000
0100
0010
0011
,
0001
0010
0100
1000
0100
0010
0100
1000
,
0001
0000
0000
0100
0010
0000
1000
0000
,
0001
0010
1000
0010
0001
0100
1000
0100
,
0010
0010
0000
0000
1000
1000
0000
0000
,
0001
0001
0000
0000
0010
0010
0100
0000
,
0010
0010
0001
0000
0010
0010
0100
0000
,
0010
0000
0000
0000
0010
0000
0000
0100
0010
0000
0000
0000
0010
0000
0000
0000
,
1001
0000
0000
0000
0000
0000
0000
0001
,
0100
0000
0000
0000
,
0010
0100
0001
1000
0100
1000
0001
0100
,
0001
1000
0010
1000
0001
0010
0100
0010
,
0001
0000
0000
0000
0000
0000
0000
0100
,
0100
0000
0000
0000
0010
0000
0000
0001
,
1000
0010
0100
0001
,
1000
0010
0100
0010
,
1000
0001
0010
0100
0010
0001
1000
0001
,
0100
0010
1000
0001
0010
0100
0010
0001
;

//---------------dance-single - ----------------
#NOTEDATA:;
#CHARTNAME:;
#STEPSTYPE:dance-single;
#DESCRIPTION:;
#CHARTSTYLE:;
#DIFFICULTY:Medium;
#METER:4;
#RADARVALUES:0.234990,0.309584,0.160275,0.016871,0.000000,195.000000,176.000000,19.000000,2.000000,0.000000,0.000000,0.000000,0.000000,0.000000,0.234990,0.309584,0.160275,0.016871,0.000000,195.000000,176.000000,19.000000,2.000000,0.000000,0.000000,0.000000,0.000000,0.000000;
#CREDIT:;
#NOTES:
0000
0000
0000
0000
,
0000
0000
0000
0000
,
0000
0000
0000
0000
,
0000
0000
0000
0000
,
1000
0010
0100
0001
,
0010
0100
1000
1001
,
0001
0001
0001
0001
,
0001
0000
0001
0000
0001
0000
0001
0001
,
1000
0000
0010
0000
0100
0000
0010
1000
,
0100
0010
0001
1000
,
0001
0010
0100
0010
,
0001
0000
1000
0000
0100
0000
0010
0100
,
1000
0000
0000
0000
0000
0000
0000
0100
,
0100
0000
0000
0000
1000
0000
0000
0001
,
0100
0001
0010
0001
,
1001
0110
1001
0110
,
1010
0010
0101
0001
,
1100
1000
0011
0001
,
1100
0000
0100
1000
0010
0000
0100
0010
,
1000
0100
0010
0001
1000
0100
0010
0001
,
1000
0001
0100
0001
,
0010
0100
0010
0001
,
1000
0010
0100
0001
,
1001
0110
1001
0110
,
1001
0000
0000
0010
0010
0000
0100
0000
,
0001
0010
0100
0000
0100
0010
0001
0000
,
1001
0000
0000
0100
0100
0000
0010
0000
,
1000
0010
0100
0000
0100
0010
1000
0000
,
0001
1000
0010
0100
,
0020
0000
2030
0000
,
3001
0000
0000
0010
0010
0000
0001
0000
,
1000
0100
0010
0001
0010
0100
0010
0001
,
1000
1000
0000
0000
0001
0001
0000
0000
,
0100
0100
0000
0000
0010
0010
0100
0000
,
0010
1000
0010
0000
0100
0000
0001
0000
,
0010
0010
0110
0010
,
1001
0000
0000
0000
0000
0000
0000
0001
,
0100
0000
0000
0000
,
0010
0100
0001
1000
,
0100
0000
0010
0000
0100
0000
1000
0010
,
0110
0000
0000
0000
0000
0000
0000
0100
,
0100
0000
0000
0000
0001
0000
0000
0010
,
0001
1000
0100
1000
,
0010
0100
0001
1000
,
0001
0000
1000
0000
0010
0010
0000
0000
,
1000
0000
0001
0000
0100
0100
0000
0010
;

//---------------dance-single - ----------------
#NOTEDATA:;
#CHARTNAME:;
#STEPSTYPE:dance-single;
#DESCRIPTION:;
#CHARTSTYLE:;
#DIFFICULTY:Easy;
#METER:1;
#RADARVALUES:0.109662,0.172718,0.025307,0.008436,0.000000,91.000000,88.000000,3.000000,1.000000,0.000000,0.000000,0.000000,0.000000,0.000000,0.109662,0.172718,0.025307,0.008436,0.000000,91.000000,88.000000,3.000000,1.000000,0.000000,0.000000,0.000000,0.000000,0.000000;
#CREDIT:;
#NOTES:
// measure 0
0000
0000
0000
0000
,  // measure 1
0000
0000
0000
0000
,  // measure 2
0000
0000
0000
0000
,  // measure 3
0000
0000
0000
0000
,  // measure 4
1000
0000
1000
0000
,  // measure 5
0001
0000
0001
0000
,  // measure 6
0010
0000
0010
0000
,  // measure 7
0010
0000
0010
0010
,  // measure 8
0100
0000
0000
0000
,  // measure 9
0010
0000
0000
0000
,  // measure 10
0001
0000
1000
0000
,  // measure 11
0010
0000
1000
0000
,  // measure 12
0100
0000
0000
0000
,  // measure 13
0010
0000
0001
0000
,  // measure 14
1000
0000
1000
0000
,  // measure 15
0001
0001
1000
1000
,  // measure 16
0010
0000
0100
0000
,  // measure 17
0001
0000
1000
0000
,  // measure 18
0100
0000
1000
0000
,  // measure 19
0010
0100
0001
1000
,  // measure 20
0001
0000
0010
0000
,  // measure 21
0001
0000
1000
0000
,  // measure 22
0100
0000
1000
0000
,  // measure 23
0010
0100
0001
1000
,  // measure 24
1001
0000
0001
0000
,  // measure 25
1000
0010
0100
0001
,  // measure 26
1001
0000
1000
0000
,  // measure 27
0001
0010
0100
1000
,  // measure 28
0020
0000
0000
0030
,  // measure 29
0100
0000
0010
0000
,  // measure 30
1000
0000
0001
0000
,  // measure 31
0010
0001
1000
0100
,  // measure 32
0010
0000
0001
0000
,  // measure 33
0100
0000
0010
0000
,  // measure 34
1000
0000
0001
0000
,  // measure 35
0100
0100
0010
0010
,  // measure 36
1001
0000
0000
0000
,  // measure 37
1000
0000
0000
0000
,  // measure 38
0001
0000
0000
0000
,  // measure 39
0010
0000
0000
0100
,  // measure 40
0010
0000
0000
0000
,  // measure 41
0001
0000
0000
0000
,  // measure 42
1000
0000
0000
0000
,  // measure 43
0010
0000
0000
0000
,  // measure 44
0100
0000
0100
0000
,  // measure 45
0010
0000
0010
0000
;

//---------------dance-single - ----------------
#NOTEDATA:;
#CHARTNAME:;
#STEPSTYPE:dance-single;
#DESCRIPTION:;
#CHARTSTYLE:;
#DIFFICULTY:Beginner;
#METER:1;
#RADARVALUES:0.069895,0.115145,0.016871,0.000000,0.000000,58.000000,56.000000,2.000000,0.000000,0.000000,0.000000,0.000000,0.000000,0.000000,0.069895,0.115145,0.016871,0.000000,0.000000,58.000000,56.000000,2.000000,0.000000,0.000000,0.000000,0.000000,0.000000,0.000000;
#CREDIT:;
#NOTES:
0000
0000
0000
0000
,
0000
0000
0000
0000
,
0000
0000
0000
0000
,
0000
0000
0000
0000
,
1000
0000
0000
0000
,
1000
0000
0000
0000
,
0010
0000
0000
0000
,
0000
0000
0000
0000
,
1001
0000
0000
0000
,
0001
0000
0000
0000
,
0100
0000
0000
0000
,
0010
0000
0000
1000
,
1000
0000
0000
0000
,
0001
0000
1000
0000
,
0010
0000
0000
0000
,
0100
0000
0000
0000
,
0001
0000
1000
0000
,
0001
0000
1000
0000
,
0001
0000
0000
0000
,
0100
0000
0000
0000
,
0010
0000
1000
0000
,
0010
0000
0100
0000
,
0001
0000
1000
0000
,
0001
0000
1000
0000
,
0110
0000
0000
0000
,
0010
0000
0000
0000
,
1000
0000
0000
0000
,
0001
0000
0000
0000
,
0010
0000
0000
0100
,
0100
0000
0010
0000
,
0001
0000
1000
0000
,
0001
0000
0100
0000
,
0010
0000
0000
0000
,
1000
0000
0000
0000
,
0001
0000
0000
0000
,
0010
0000
0000
0000
,
0100
0000
0000
0000
,
0010
0000
0000
0000
,
0001
0000
0000
0000
,
1000
0000
0000
0001
,
1000
0000
0000
0000
,
0010
0000
0000
0000
,
0100
0000
0000
0000
,
0001
0000
0000
0000
,
1000
0000
1000
0000
,
0001
0000
0001
0000
;

//---------------dance-double - ----------------
#NOTEDATA:;
#CHARTNAME:;
#STEPSTYPE:dance-double;
#DESCRIPTION:;
#CHARTSTYLE:;
#DIFFICULTY:Challenge;
#METER:6;
#RADARVALUES:0.314525,0.367632,0.202453,0.000000,0.012653,261.000000,237.000000,24.000000,0.000000,0.000000,0.000000,0.000000,0.000000,0.000000,0.314525,0.367632,0.202453,0.000000,0.012653,261.000000,237.000000,24.000000,0.000000,0.000000,0.000000,0.000000,0.000000,0.000000;
#CREDIT:;
#NOTES:
00000000
00000000
00000000
00000000
,
00000000
00000000
00000000
00000000
,
00000000
00000000
00000000
00000000
,
00000000
00000000
00000000
00000000
,
10000000
00100000
01000000
00010000
00100000
00100000
00010000
00100000
,
00001000
00010000
00000100
00001000
00000010
00000010
00000110
00000000
,
00000001
00000001
00001000
00001000
00000001
00000001
00001000
00001000
,
00000001
00000000
00000001
00000000
00001000
00000000
00001000
00000000
00000001
00000000
00000001
00000000
00000100
00000010
00000100
00000010
,
00000100
00000010
00001000
00000100
00010000
00000000
00001000
00100000
,
01000000
00100000
00010000
01000000
,
00100000
10000000
00100000
01000000
00100000
00010000
00100000
01000000
,
00010000
00100000
00001000
00010000
00000100
00001000
00000010
00000100
,
00000001
00000000
00000000
00000000
00000000
00000000
00000000
00001000
,
00001000
00000000
00000000
00000000
00000010
00000000
00000000
00000100
,
00000001
00000100
00000010
00001000
,
00001100
00011000
00110000
01100000
,
11000000
01000000
00100000
00000000
01000000
10000000
00100000
00000000
,
01000000
00010000
00100000
00000000
00001000
00010000
00000100
00000000
,
00001010
00000000
00000000
00000100
00000100
00000000
00000010
00000100
,
00000001
00001000
00000001
00000010
00000001
00000100
00000001
00001000
,
00000100
00001000
00001010
00000010
,
00001100
00000100
00010100
00010000
,
00011000
00001000
01001000
01000000
,
01100000
00000000
00000000
00000000
01100000
00000000
00000000
01000000
00100000
00000000
00000000
00000000
10100000
00000000
00000000
00000000
,
11000000
00000000
00000000
01000000
00100000
00000000
00110000
00000000
,
00100000
00001000
00010000
00000100
00001000
00000100
00010000
00001000
,
00100000
00000000
00000000
00010000
00010000
00000000
01010000
00000000
,
01000000
00010000
00100000
00001000
00010000
00000100
00001000
00000010
,
00000100
00000000
00000000
00000001
00000010
00000000
00001001
00000000
,
00001000
00000100
00001000
00000010
00010000
00001000
00100000
00010000
,
01000000
00000000
00000000
00100000
00100000
00000000
10010000
00000000
,
10000000
00010000
00100000
00001000
00010000
00000100
00001000
00000001
,
00000100
00000100
00000000
00000000
00000010
00000010
00000000
00000000
,
00001000
00001000
00000000
00000000
00000100
00000100
00001100
00000000
,
00000100
00010000
00001000
00100000
01000000
10000000
01000000
00010000
,
01000000
00100000
00010000
00100000
00001000
00010000
00000100
00001000
,
00001010
00000000
00000000
00000000
00000000
00000000
00000001
00000010
,
00000110
00000000
00000000
00000000
,
00000010
00000001
00001000
00000010
00001000
00000100
00010000
00001000
,
00100000
00010000
10000000
00100000
10000000
01000000
00100000
01000000
,
10010000
00000000
00000000
00000000
00000000
00000000
00000000
01000000
,
01000000
00000000
00000000
00000000
00100000
00000000
00000000
01000000
,
00010000
00100000
00001000
00010000
,
00000010
00000100
00000001
00001000
,
00000100
00001000
00000010
00000100
00000001
00000001
00000100
00000010
,
00001000
00001000
00000100
00010000
00001000
00001000
00100000
00010000
;
