#VERSION:0.83;
#TITLE:2020;
#SUBTITLE:;
#ARTIST:Ω;
#TITLETRANSLIT:;
#SUBTITLETRANSLIT:;
#ARTISTTRANSLIT:OMEGA;
#GENRE:;
#ORIGIN:;
#CREDIT:;
#BANNER:;
#BACKGROUND:;
#PREVIEWVID:;
#JACKET:;
#CDIMAGE:;
#DISCIMAGE:;
#LYRICSPATH:;
#CDTITLE:;
#MUSIC:2020.ogg;
#OFFSET:3.236002;
#SAMPLESTART:0.007241;
#SAMPLELENGTH:12.972972;
#SELECTABLE:YES;
#BPMS:0.000=74.000,
20.000=148.000,
116.000=74.000,
132.000=148.000;
#STOPS:;
#DELAYS:;
#WARPS:;
#TIMESIGNATURES:0.000=4=4;
#TICKCOUNTS:0.000=4;
#COMBOS:0.000=1;
#SPEEDS:0.000=1.000=0.000=0;
#SCROLLS:0.000=1.000;
#FAKES:;
#LABELS:0.000=Song Start;
#BGCHANGES:;
#KEYSOUNDS:;
#ATTACKS:
;

//---------------dance-single - ----------------
#NOTEDATA:;
#CHARTNAME:;
#STEPSTYPE:dance-single;
#DESCRIPTION:;
#CHARTSTYLE:;
#DIFFICULTY:Hard;
#METER:9;
#RADARVALUES:0.551400,0.580701,0.164431,0.086543,0.700995,446.000000,427.000000,19.000000,10.000000,0.000000,0.000000,0.000000,0.000000,0.000000,0.551400,0.580701,0.164431,0.086543,0.700995,446.000000,427.000000,19.000000,10.000000,0.000000,0.000000,0.000000,0.000000,0.000000;
#CREDIT:;
#NOTES:
0000
0000
0000
0000
,
0000
0000
0000
0000
,
0000
0000
0000
0000
,
0000
1000
0000
1000
0000
1000
0000
1000
0000
0010
0000
0010
0000
0100
0000
0100
,
0000
0001
0000
0001
0000
0001
0000
0001
0000
0100
0000
0100
0000
0010
0000
0010
,
1000
0001
0100
0000
0001
0000
0010
0000
,
0001
1000
0100
1000
,
0010
0010
0010
0000
1000
0000
0001
0000
,
0100
0000
0000
0000
0001
0000
0000
0000
0010
0000
0000
0000
0100
0010
0100
0000
,
0010
0010
0010
0000
0001
0000
1000
0000
,
0002
0013
2000
3100
,
1000
1000
1000
0000
0001
0000
0010
0000
,
2100
3010
0200
0301
,
1001
0000
0000
0000
0000
0000
0000
0000
0001
0000
0000
1000
0000
0000
0010
0000
,
0100
0000
0000
0000
0000
0000
0000
0000
0010
0000
0000
1000
0000
0000
0001
0100
,
0001
0000
0000
0000
0000
0000
0000
0000
0010
0000
0000
0100
0000
0000
1000
0000
,
0001
0000
0000
0000
0000
0000
0000
0000
0100
0001
0100
0000
0010
1000
0010
0000
,
1100
0000
0000
0000
0100
0000
0000
0000
0010
0000
0000
0001
0000
0000
0100
0000
,
0010
0000
0000
0000
1000
0000
0000
0000
0001
0000
0000
1000
0000
0000
0100
0010
,
0001
0000
0000
0000
1000
0000
0000
0000
0010
0000
0000
0100
0000
0000
0001
0000
,
1000
0000
0000
0000
0100
0000
0000
0000
1000
0001
1000
0000
0010
0000
0000
0000
,
0100
0001
0000
0001
0010
0000
0010
0100
0000
0100
0000
0100
1000
0001
0000
0000
,
1000
0001
0000
0001
0100
0000
0100
0010
0000
0100
0000
0010
1000
0000
0001
0000
,
0010
0100
0000
0100
1000
0000
1000
0001
0000
0100
0000
0010
1000
0001
0000
0010
,
0100
1000
0000
0100
1000
0000
1000
0001
0000
0001
0000
0100
0002
0003
0020
0030
,
0100
0010
0000
0010
0001
0000
0001
1000
0000
0010
0000
0100
0001
0100
0000
0010
,
1000
0010
0000
0100
0010
0000
1000
0001
0000
0010
0000
0100
0010
0000
0001
0000
,
1000
0010
0000
0010
0100
0000
0100
0001
0000
0001
1000
0000
1000
0100
0000
0100
,
0010
0001
0000
0001
0100
0000
0100
0010
0000
0010
0000
0010
1000
0000
0000
0000
,
0101
0001
0000
0001
0000
0001
0000
0001
0000
1000
0000
1000
0000
0010
0000
0010
,
0000
0100
0000
0100
0000
0100
0000
0100
0000
0001
0000
0001
0000
1000
0000
1000
,
0000
0001
0000
0100
0000
1000
0000
0100
0000
0001
0000
0001
0000
0100
0000
0100
,
0000
0010
0000
1000
0000
0010
0000
0001
0000
0010
0000
0010
0000
0100
0000
0100
,
0010
0000
1000
0000
0001
0000
0100
0000
0001
0000
0010
0100
0000
0010
0000
0001
,
1000
0000
0010
0000
0100
0000
0001
0000
0010
0000
0100
0000
0010
0001
0010
0000
,
0001
0000
1000
0000
0010
0000
1000
0000
0001
0000
0010
0100
0000
0100
1000
0000
,
0100
0000
1000
0000
0010
0000
0100
0000
0001
1000
0001
0000
0100
0010
0100
0000
,
0001
0000
1000
0000
0100
0000
1000
0000
0010
0000
0100
0001
0000
0010
0000
1000
,
0010
0000
0100
0000
0010
0000
0001
0000
0100
0000
1000
0000
0100
0010
0100
0000
,
0010
0000
1000
0000
0001
0000
0100
0000
0001
0000
0010
0100
0000
1000
0000
0100
,
1000
0000
0010
0000
0100
0000
0001
0000
0010
0100
1000
0000
1000
0100
0010
0000
,
1001
0000
0000
1000
0001
0000
0000
0001
0100
0000
0000
0010
0000
0000
1000
0000
,
0100
0000
0000
0010
0001
0000
0000
0001
0100
0000
0000
0010
0000
0000
1000
0001
,
0100
0000
0000
0001
0010
0000
0000
0010
0100
0000
0000
0010
0000
0000
0001
0000
,
1000
0000
0000
0010
1000
0000
0000
1000
0100
0010
0001
0000
0010
0000
0100
1000
,
0001
0000
0000
0100
0001
0000
0000
0001
0010
0000
0000
0100
0000
0000
1000
0000
,
1100
0000
0011
0000
0000
1010
0000
0000
,
0101
0000
0000
0001
1000
0000
0000
1000
0100
0000
0000
1000
0000
0000
0010
0000
,
0100
0000
0000
0010
1000
0000
0000
1000
0001
1000
0001
0000
0100
0000
0000
0000
,
0001
0000
0100
0000
0110
0000
0000
0000
0010
0000
0000
1000
0000
0000
0100
0000
,
0010
0000
0100
0000
1100
0000
0000
0000
1000
0000
0000
0010
0000
0000
0100
0001
,
0010
0000
0001
0000
0101
0000
0000
0000
0100
0000
0000
0010
0000
0000
1000
0000
,
0001
0000
1000
0000
1100
0000
0000
0000
1000
0001
0100
0000
0010
1000
0100
0000
,
0010
0000
0001
0000
0101
0000
0000
0000
0100
0000
0000
0010
0000
0000
1000
0000
,
0001
0000
1000
0000
1100
0000
0000
0000
1000
0000
0000
0010
0000
0000
0100
0001
,
1001
0000
0001
0000
0011
0000
0000
0000
0010
0000
0000
0001
0000
0000
1000
0000
,
0100
0000
1000
0000
1010
0000
0000
0000
0100
0010
1000
0000
0001
1000
0100
0000
,
0020
0000
0000
0031
0000
0000
0001
0000
2000
0000
0000
3010
0000
0000
0100
0000
,
0002
0000
0000
0013
0000
0000
0100
0000
2000
0000
0000
3010
0000
0000
0100
0000
,
0010
1000
0010
0100
0010
0001
0010
0100
,
0010
0001
0010
1000
0010
0001
0100
0010
,
1001
0000
0000
0000
;

//---------------dance-single - ----------------
#NOTEDATA:;
#CHARTNAME:;
#STEPSTYPE:dance-single;
#DESCRIPTION:;
#CHARTSTYLE:;
#DIFFICULTY:Medium;
#METER:6;
#RADARVALUES:0.384496,0.527910,0.250974,0.138468,0.212029,311.000000,282.000000,29.000000,16.000000,0.000000,0.000000,0.000000,0.000000,0.000000,0.384496,0.527910,0.250974,0.138468,0.212029,311.000000,282.000000,29.000000,16.000000,0.000000,0.000000,0.000000,0.000000,0.000000;
#CREDIT:;
#NOTES:
0000
0000
0000
0000
,
0000
0000
0000
0000
,
0000
0000
0000
0000
,
0000
1000
0000
0001
0000
1000
0000
0001
0000
0100
0000
0100
0000
0010
0000
0010
,
0000
1000
0000
0010
0000
1000
0000
0010
0000
0100
0000
0100
0000
0001
0000
0001
,
0010
0001
0100
0000
0010
0000
1000
0000
,
0100
0001
0100
0010
,
0001
0100
1000
0000
0100
0000
0010
0000
,
1000
0000
0010
0000
0100
0000
0010
1000
,
0100
0001
0100
0000
0010
0000
0001
0000
,
2000
3010
0200
0301
,
0010
1000
0100
0000
0010
0000
0001
0000
,
2100
3001
0200
0310
,
1001
0000
0000
0000
0000
0000
0000
0000
0001
0000
0000
0100
0000
0000
0001
0000
,
0010
0000
0000
0000
0000
0000
0000
0000
0100
0000
0000
0100
0000
0000
1000
0000
,
0010
0000
0000
0000
0000
0000
0000
0000
0100
0000
0000
0010
0000
0000
1000
0000
,
0001
0000
1000
0001
,
1001
0000
0000
0000
0001
0000
0000
0000
0100
0000
0000
0001
0000
0000
0010
0000
,
0100
0000
0000
0000
0010
0000
0000
0000
0001
0000
0000
1000
0000
0000
0100
0000
,
1000
0000
0000
0000
0100
0000
0000
0000
1000
0000
0000
0010
0000
0000
0100
0000
,
0001
0100
0010
1000
,
0001
0000
0000
0000
1000
0000
0000
0100
0000
1000
0000
0000
0010
0000
0000
0000
,
0100
0000
0000
0000
0010
0000
0000
1000
0000
0010
0000
0000
0100
0000
0010
0000
,
1000
0000
0000
0000
0001
0000
0000
0010
0000
0100
0000
0000
0010
0000
0000
0000
,
0001
0000
0000
0000
1000
0000
0000
0001
0000
0100
0000
0000
0002
0000
2003
0000
,
3010
0000
0000
0000
0100
0000
0000
0010
0000
1000
0000
0000
0010
0000
0000
0000
,
0100
0000
0000
0000
0001
0000
0000
1000
0000
0100
0000
0000
0100
0000
1000
0000
,
0010
0000
0000
0000
0100
0000
0000
0010
0000
1000
0000
0000
0001
0000
0000
0000
,
1000
0000
0000
0000
0001
0000
0000
0100
0000
0000
0000
0000
0000
0000
0000
0000
,
2002
0000
0000
0000
0000
0000
0000
3003
,
0001
0000
0001
0000
1100
0000
0000
1000
0001
0000
0001
0000
1010
0000
0000
0000
,
1000
0000
1000
0000
0011
0000
0000
0001
1000
0000
1000
0000
0101
0000
0000
0000
,
0001
0000
0001
0000
0101
0000
0000
0100
0010
0000
0010
0000
1001
0000
0000
0000
,
1000
0100
0001
0000
0100
0000
0010
0000
,
0001
0010
1000
0000
0010
0000
0001
0100
,
1000
0100
0010
0000
1000
0000
0010
0000
,
0001
0010
1000
0000
0010
0100
0001
0000
,
1000
0100
0001
0100
1000
0000
0001
0000
,
1000
0010
0001
0010
1000
0000
0010
0000
,
0100
1000
0100
0001
0100
0000
0010
0000
,
1001
0000
0010
0000
0100
0010
1000
0000
,
1001
0000
0000
0000
0000
0000
0000
0000
0001
0000
0000
0100
0000
0000
0010
0000
,
1010
0000
0000
0000
0000
0000
0000
0000
1000
0000
0000
0100
0000
0000
0001
0000
,
0101
0000
0000
0000
0000
0000
0000
0000
0100
0000
0000
0010
0000
0000
0001
0000
,
1001
0000
0000
0000
0001
0100
0001
0100
,
0110
0000
0000
0000
0000
0000
0000
0000
0010
0000
0000
1000
0000
0000
0100
0000
,
1100
0000
0101
0000
0000
1100
0000
0000
,
1001
0000
0000
0000
0000
0000
0000
0000
0010
0000
0000
1000
0000
0000
0100
0000
,
0110
0000
0000
0000
0100
1000
0001
0000
,
1000
0100
0010
0000
1001
0000
0000
0000
,
0001
0100
0010
0000
1001
0000
0000
0000
,
1000
0010
0100
0000
1001
0000
0000
0000
,
0001
0010
1000
0000
0110
0000
0000
0000
,
0100
1000
0010
0000
0110
0000
0000
0000
,
0100
1000
0001
0000
1001
0000
0000
0000
,
0110
0010
0100
0000
1001
0000
0000
0000
,
0001
1000
0100
0000
0010
0001
1000
0000
,
0001
0000
0000
0001
0000
0000
0001
0000
1000
0000
0000
1000
0000
0000
1000
0000
,
0010
0000
0000
0010
0000
0000
0010
0000
0100
0000
0000
0100
0000
0000
0100
0000
,
0020
0230
0302
2003
,
3200
0302
0203
2300
,
3001
0000
0000
0000
;

//---------------dance-single - ----------------
#NOTEDATA:;
#CHARTNAME:;
#STEPSTYPE:dance-single;
#DESCRIPTION:;
#CHARTSTYLE:;
#DIFFICULTY:Easy;
#METER:4;
#RADARVALUES:0.289300,0.343141,0.155777,0.250974,0.000000,234.000000,216.000000,18.000000,29.000000,0.000000,0.000000,0.000000,0.000000,0.000000,0.289300,0.343141,0.155777,0.250974,0.000000,234.000000,216.000000,18.000000,29.000000,0.000000,0.000000,0.000000,0.000000,0.000000;
#CREDIT:;
#NOTES:
0000
0000
0000
0000
,
0000
0000
0000
0000
,
0000
0000
0000
0000
,
0000
0000
0000
0000
,
0000
0000
0000
0000
,
1000
0010
0100
0010
,
1000
0001
0010
0100
,
1000
0100
1000
0000
0100
0000
1000
0000
,
0010
0100
0001
1000
,
0001
0100
0001
0000
0100
0000
0010
0000
,
2000
3100
0020
0031
,
1000
0001
1000
0000
0100
0000
0010
0000
,
1001
0001
0200
0310
,
1002
0000
1003
0100
,
0020
0000
0130
1000
,
0002
0000
0103
0001
,
2000
0000
3100
0100
,
1001
0001
1000
0010
,
0200
0310
1000
0001
,
0020
0130
0010
0001
,
2000
3100
1000
0010
,
1000
0100
0010
0001
,
0010
0100
0010
0001
,
1000
0010
0100
0001
,
1000
0000
0001
0000
0100
0000
0010
0010
,
1000
0010
0100
0001
,
1000
0100
1000
0010
,
0100
0001
0010
0100
,
0010
0001
1000
0000
,
1001
0000
0000
0000
,
0001
1000
0010
0000
0010
1000
0001
0000
,
1000
0001
0100
0000
0100
0001
1000
0000
,
1000
0100
0010
0000
0100
0010
0001
0000
,
1000
0001
0100
0001
,
0010
0000
0100
0000
0010
0000
0001
0010
,
0100
0010
0001
1000
,
0100
0000
0010
0000
0100
0000
1000
0100
,
0010
0100
1000
0010
,
0100
0000
0001
0000
1000
0000
0001
0100
,
0001
0100
0010
1000
,
1001
0001
1000
0010
,
1020
0000
0130
0001
,
2000
0000
3100
1000
,
0020
0000
0130
0001
,
2000
0000
3100
0100
,
2000
0000
3100
1000
,
0010
0000
0010
0000
0000
0010
0000
0000
,
0200
0000
0310
1000
,
0002
0000
0013
0001
,
1000
0001
1000
0000
1001
0000
0000
0000
,
0001
0100
0001
0000
0101
0000
0000
0000
,
1000
0010
1000
0000
1010
0000
0000
0000
,
1000
0100
1000
0000
1100
0000
0000
0000
,
0010
0001
0010
0000
0011
0000
0000
0000
,
0001
1000
0001
0000
1001
0000
0000
0000
,
0110
0000
1001
0000
,
0110
1001
0110
1001
,
0002
0000
2003
0000
,
3020
0000
0230
0000
,
0320
0230
0320
2030
,
3200
0320
0032
2003
,
3001
0000
0000
0000
;

//---------------dance-single - ----------------
#NOTEDATA:;
#CHARTNAME:;
#STEPSTYPE:dance-single;
#DESCRIPTION:;
#CHARTSTYLE:;
#DIFFICULTY:Beginner;
#METER:2;
#RADARVALUES:0.110033,0.184768,0.043271,0.000000,0.000000,89.000000,84.000000,5.000000,0.000000,0.000000,0.000000,0.000000,0.000000,0.000000,0.110033,0.184768,0.043271,0.000000,0.000000,89.000000,84.000000,5.000000,0.000000,0.000000,0.000000,0.000000,0.000000,0.000000;
#CREDIT:;
#NOTES:
0000
0000
0000
0000
,
0000
0000
0000
0000
,
0000
0000
0000
0000
,
0000
0000
0000
0000
,
0000
0000
0000
0000
,
0010
0000
0000
0000
,
1000
0000
0000
0000
,
0001
0001
0000
0000
,
1000
0000
0000
0000
,
0100
0000
0000
0000
,
1000
0000
1000
0000
,
0001
0000
0000
0000
,
0110
0000
0000
0000
,
0010
0000
0000
0000
,
1000
0000
0000
0000
,
0100
0000
0000
0000
,
1000
0000
0001
0001
,
1000
0000
0000
0000
,
0001
0000
0000
0000
,
0100
0000
0000
0000
,
0001
0000
0000
0000
,
0010
0000
0000
0000
,
0100
0000
0000
0000
,
1000
0000
0000
0000
,
0001
0000
0000
0000
,
1000
0000
0000
0000
,
0010
0000
0000
0000
,
0100
0000
0000
0000
,
0001
0000
0000
0000
,
1001
0000
0000
0000
,
1000
0000
1000
0000
,
0001
0000
0001
0000
,
0100
0000
0100
0000
,
0010
0000
0000
0000
,
1000
0000
0100
0000
,
1000
0000
0000
0000
,
0001
0000
0010
0000
,
0001
0000
0000
0000
,
0100
0000
0010
0000
,
0100
0000
0000
0000
,
1001
0000
1000
0000
,
0001
0000
0000
0000
,
0100
0000
0010
0000
,
0100
0000
0000
0000
,
0010
0000
1000
0000
,
0001
0000
0000
0000
,
1000
1000
0000
0000
,
0001
0000
1000
0000
,
0100
0000
0000
0000
,
1000
1000
0001
0000
,
0100
0000
0010
0000
,
1000
1000
0100
0000
,
1000
0000
0001
0000
,
0100
0100
0010
0000
,
0100
0000
0001
0000
,
1001
0000
1000
0000
,
0001
0000
0100
0000
,
0010
0000
0000
0000
,
0000
0000
0000
0000
,
1000
0000
0100
0000
,
0010
0000
0001
0000
,
1001
0000
0000
0000
;

//---------------dance-double - ----------------
#NOTEDATA:;
#CHARTNAME:;
#STEPSTYPE:dance-double;
#DESCRIPTION:;
#CHARTSTYLE:;
#DIFFICULTY:Challenge;
#METER:9;
#RADARVALUES:0.541510,0.580701,0.467330,0.129814,0.584163,438.000000,384.000000,54.000000,15.000000,2.000000,0.000000,0.000000,0.000000,0.000000,0.541510,0.580701,0.467330,0.129814,0.584163,438.000000,384.000000,54.000000,15.000000,2.000000,0.000000,0.000000,0.000000,0.000000;
#CREDIT:;
#NOTES:
// measure 0
00000000
00000000
00000000
00000000
,  // measure 1
00000000
00000000
00000000
00000000
,  // measure 2
00000000
00000000
00000000
00000000
,  // measure 3
00000000
01000000
00000000
01000000
00000000
00100000
00000000
00100000
00000000
00010000
00000000
00100000
00000000
00001000
00000000
00010000
,  // measure 4
00000000
00000100
00000000
00000100
00000000
00001000
00000000
00001000
00000000
00000001
00000000
00000100
00000000
00000010
00000000
00001000
,  // measure 5
00000100
00010000
00001000
00000000
01000000
00000000
00010000
00000000
,  // measure 6
00100000
10000000
00100000
00010000
,  // measure 7
00100000
00001000
00010000
00000000
00000100
00000000
00001000
00000000
,  // measure 8
00000010
00000000
00000000
00000000
00000001
00000000
00000000
00000000
00000010
00000000
00000000
00000000
00001000
00000001
00001000
00000000
,  // measure 9
00000101
00000001
00000100
00000010
,  // measure 10
00002000
00003100
00000200
00010300
,  // measure 11
00002000
01003000
00100000
10000000
,  // measure 12
12000000
03100000
02000000
13000000
,  // measure 13
10010000
00000000
00000000
00000000
00000000
00000000
00000000
00000000
01000000
00000000
00000000
01000000
00000000
00000000
00100000
00000000
,  // measure 14
10000000
00000000
00000000
00000000
00000000
00000000
00000000
00000000
01000000
00000000
00000000
00100000
00000000
00000000
00010000
00100000
,  // measure 15
00001000
00000000
00000000
00000000
00000000
00000000
00000000
00000000
00010000
00000000
00000000
00000100
00000000
00000000
00010000
00000000
,  // measure 16
00001000
00000000
00000000
00000000
00000000
00000000
00000000
00000000
00010000
00000100
00010000
00000000
00001000
00000010
00001000
00000000
,  // measure 17
00000101
00000000
00000000
00000000
00000000
00000000
00000000
00000000
00000001
00000000
00000000
00000001
00000000
00000000
00001000
00000000
,  // measure 18
00001100
00001000
00010100
00000100
,  // measure 19
00011000
00000000
00000000
00000000
00001000
00000000
00000000
00000000
01000000
00000000
00000000
01000000
00000000
00000000
00100000
00000000
,  // measure 20
10100000
10000000
10010000
00100000
,  // measure 21
01000000
10000000
00000000
01000000
10000000
00000000
01000000
10000000
00000000
00100000
00000000
01000000
00010000
00100000
00000000
00000000
,  // measure 22
01000000
00100000
00000000
01000000
00010000
00000000
00100000
00001000
00000000
00010000
00000000
00000100
00001000
00000010
00000000
00000000
,  // measure 23
00000100
00000001
00000000
00000010
00000100
00000000
00000010
00000001
00000000
00000100
00000000
00000010
00001000
00000100
00000000
00000000
,  // measure 24
00001000
00000100
00000000
00010000
00001000
00000000
00100000
01000000
00000000
00100000
00000000
00001000
00010000
00000000
000M0010
00000000
,  // measure 25
000001M0
00000001
00000000
00000010
00000100
00000000
00000010
00000001
00000000
00000100
00000000
00000010
00001000
00000100
00000000
00001000
,  // measure 26
00000100
00010000
00000000
00001000
00100000
00000000
00010000
01000000
00000000
00100000
00000000
10000000
01000000
00000000
00100000
00000000
,  // measure 27
01000000
10000000
00000000
01000000
00100000
00000000
01000000
10000000
00000000
00010000
00000000
01000000
00010000
00100000
00000000
00001000
,  // measure 28
00010000
00000000
00000000
00001000
00010000
00000000
00010000
00001000
00000000
00001000
00000000
00000000
00000000
00000000
00000000
00000000
,  // measure 29
01000000
00100000
00000000
00100000
00000000
10000000
00000000
10000000
00000000
00010000
00000000
00100000
00000000
00001000
00000000
00000100
,  // measure 30
00000000
00000010
00000000
00000010
00000000
00000001
00000000
00000001
00000000
00000100
00000000
00000010
00000000
00001000
00000000
00000100
,  // measure 31
00000000
00010000
00000000
00010000
00000000
00100000
00000000
00100000
00000000
01000000
00000000
10000000
00000000
00100000
00000000
01000000
,  // measure 32
00000000
00010000
00000000
00010000
00000000
00100000
00000000
00100000
00000000
00001000
00000000
00010000
00000000
00000100
00000000
00001000
,  // measure 33
00000010
00000100
00000001
00000010
00000001
00000100
00000010
00001000
,  // measure 34
00000100
00000000
00010000
00000000
00001000
00000000
00100000
00000000
01000000
00000000
10000000
00000000
00100000
01000000
00100000
01000000
,  // measure 35
00100000
10000000
00010000
00100000
00001000
00010000
00000100
00001000
,  // measure 36
00000010
00000000
00000100
00000000
00000001
00000000
00000010
00000000
00000100
00000000
00001000
00000000
00000001
00000100
00000001
00000100
,  // measure 37
00000001
00000100
00000010
00001000
00000100
00010000
00001000
01000000
,  // measure 38
00010000
00000000
01000000
00000000
00001000
00000000
00010000
00000000
00000100
00000000
00001000
00000000
00000010
00000100
00000010
00000100
,  // measure 39
00000010
00001000
00000100
00010000
00001000
00100000
01000000
10000000
,  // measure 40
11000000
00000000
01000000
00000000
10000000
00000000
00100000
00000000
01000000
00000000
00010000
00000000
00100000
00001000
00100000
00001000
,  // measure 41
00010000
00000000
00000000
00000000
00000000
00000000
00000000
00000000
00011000
00000000
00000000
00101000
00000000
00000000
00011000
00000000
,  // measure 42
00010100
00000000
00000000
00000000
00000000
00000000
00000000
00000000
00012000
00000000
00000000
02003000
00000000
00000000
03100000
10000000
,  // measure 43
01000000
00000000
00000000
00000000
00000000
00000000
00000000
00000000
01100000
00000000
00000000
00110000
00000000
00000000
00101000
00000000
,  // measure 44
00011000
00000000
00000000
00000000
00000000
00000000
00000000
00000000
00001000
00100000
00010000
00000000
00100000
00001000
00010000
00000000
,  // measure 45
00011000
00000000
00000000
00000000
00000000
00000000
00000000
00000000
00011000
00000000
00000000
00010100
00000000
00000000
00001100
00000000
,  // measure 46
00000110
00000000
00001001
00000000
00000000
00000110
00000000
00000000
,  // measure 47
00001001
00000000
00000000
00000000
00000000
00000000
00000000
00000000
00000101
00000000
00000000
00001010
00000000
00000000
00001100
00000000
,  // measure 48
00010100
00000000
00000000
00000000
00000000
00000000
00000000
00000000
00001000
00010000
00001000
00000000
00010000
00000000
00000000
00000000
,  // measure 49
00001000
00000000
01000000
00000000
01100000
00000000
00000000
00000000
10100000
00000000
00000000
01100000
00000000
00000000
01010000
00000000
,  // measure 50
00010000
00000000
00100000
00000000
00101000
00000000
00000000
00000000
00011000
00000000
00000000
00010100
00000000
00000000
00010000
00000100
,  // measure 51
00001000
00000000
00000010
00000000
00000110
00000000
00000000
00000000
00000101
00000000
00000000
00000011
00000000
00000000
00000110
00000000
,  // measure 52
00000100
00000000
00001000
00000000
00001100
00000000
00000000
00000000
00000100
00010000
00001000
00000000
00001000
01000000
00100000
00000000
,  // measure 53
01000000
00000000
00010000
00000000
00110000
00000000
00000000
00000000
11000000
00000000
00000000
01100000
00000000
00000000
00110000
00000000
,  // measure 54
00010000
00000000
01000000
00000000
01010000
00000000
00000000
00000000
00110000
00000000
00000000
00001000
00000000
00000000
00010000
00000100
,  // measure 55
00001100
00000000
00001000
00000000
00000010
00000000
00000000
00000000
00000110
00000000
00000000
00000101
00000000
00000000
00000011
00000000
,  // measure 56
00000110
00000000
00000000
00000000
00000100
00000000
00000000
00000000
00001000
00000100
00010000
00000000
00001000
00010000
00000100
00000000
,  // measure 57
00010000
00000000
00000000
00100000
00000000
00000000
10000000
00000000
00100000
00000000
00000000
00010000
00000000
00000000
00100000
00000000
,  // measure 58
00001000
00000000
00000000
00010000
00000000
00000000
00000100
00000000
00001000
00000000
00000000
00000100
00000000
00000000
00000001
00000000
,  // measure 59
00000200
00002300
00003020
00002030
,  // measure 60
00003200
00020300
00032000
02003000
,  // measure 61
03100000
00000000
00000000
00000000
;
