#VERSION:0.83;
#TITLE:glacia;
#SUBTITLE:;
#ARTIST:DJ TOTTO;
#TITLETRANSLIT:;
#SUBTITLETRANSLIT:;
#ARTISTTRANSLIT:;
#GENRE:ARTCORE;
#ORIGIN:;
#CREDIT:;
#BANNER:banner.png;
#BACKGROUND:background.png;
#PREVIEWVID:;
#JACKET:jacket.png;
#CDIMAGE:;
#DISCIMAGE:;
#LYRICSPATH:;
#CDTITLE:cdtitle.png;
#MUSIC:glacia.ogg;
#OFFSET:-0.628000;
#SAMPLESTART:23.833807;
#SAMPLELENGTH:15.483870;
#SELECTABLE:YES;
#BPMS:0.000=186.000;
#STOPS:;
#DELAYS:;
#WARPS:;
#TIMESIGNATURES:0.000=4=4;
#TICKCOUNTS:0.000=4;
#COMBOS:0.000=1;
#SPEEDS:0.000=1.000=0.000=0;
#SCROLLS:0.000=1.000;
#FAKES:;
#LABELS:0.000=Song Start;
#BGCHANGES:;
#KEYSOUNDS:;
#ATTACKS:
;

//---------------dance-single - ----------------
#NOTEDATA:;
#CHARTNAME:;
#STEPSTYPE:dance-single;
#DESCRIPTION:;
#CHARTSTYLE:;
#DIFFICULTY:Hard;
#METER:15;
#RADARVALUES:0.663949,0.907438,0.186925,0.161436,0.331368,547.000000,525.000000,22.000000,19.000000,0.000000,0.000000,0.000000,0.000000,0.000000,0.663949,0.907438,0.186925,0.161436,0.331368,547.000000,525.000000,22.000000,19.000000,0.000000,0.000000,0.000000,0.000000,0.000000;
#CREDIT:Pandemonium X;
#NOTES:
// measure 0
0000
0000
0000
0000
,  // measure 1
0000
0000
0000
0000
,  // measure 2
0000
0000
0000
0000
,  // measure 3
0000
0000
0000
0000
,  // measure 4
0000
0000
0000
0000
,  // measure 5
0000
0000
0000
0000
,  // measure 6
0000
0000
0000
0000
,  // measure 7
0000
0000
0000
0000
,  // measure 8
0000
0100
1000
0100
0000
1000
0000
0001
,  // measure 9
0000
0010
0000
0100
0010
0001
0100
0001
,  // measure 10
0000
1000
0010
1000
0000
0001
0000
1000
,  // measure 11
0000
0100
0000
1000
0001
0010
0100
0010
,  // measure 12
0000
0100
1000
0100
0000
1000
0000
0001
,  // measure 13
0000
0010
0000
0100
0010
0100
1000
0001
,  // measure 14
0100
0100
0001
0010
1000
0010
0100
1000
,  // measure 15
0000
0001
0010
1000
0100
1000
0010
0100
,  // measure 16
0020
0000
0000
0000
0000
0000
0000
0130
,  // measure 17
0000
0000
0001
1000
0001
0000
0010
0000
1000
0000
0010
0000
0002
0000
0003
0000
,  // measure 18
0000
0000
1000
0010
1000
0000
0001
0000
0000
0000
1000
0000
0000
0000
0100
0000
,  // measure 19
0000
0000
1000
0000
0000
0000
0010
0100
0010
0000
0100
0000
0001
0000
1000
0000
,  // measure 20
0000
0000
0001
0010
0001
0000
0010
0000
0001
0000
0100
0000
0001
0000
1000
0000
,  // measure 21
0000
0000
0010
0000
1000
0000
0100
0010
0001
1000
0100
0000
1000
0000
0001
0000
,  // measure 22
0000
0000
1000
0000
0001
1000
0010
0000
0100
0000
0010
1000
0001
0000
0010
0000
,  // measure 23
0100
0010
0001
0000
0010
0000
0100
0000
0010
0000
0001
0000
1000
0000
0010
0000
,  // measure 24
0000
0000
1000
0000
0001
0010
0100
0000
0010
0000
0001
0000
0000
0000
0110
0000
,  // measure 25
0000
0000
0100
0000
0010
1000
0001
0000
0010
0000
1000
0000
0010
0000
1001
0000
,  // measure 26
0000
0000
0001
0000
0010
0001
0010
0000
0000
0000
0001
0000
0000
0000
1000
0000
,  // measure 27
0000
0000
0100
0000
0000
0000
0100
0010
0001
0000
0010
0000
0100
0000
1000
0000
,  // measure 28
0000
0000
0001
0000
1000
0010
1000
0000
0100
0000
1000
0000
0001
0000
0100
0000
,  // measure 29
0000
0000
0101
0000
0000
0000
0100
0000
0001
0010
0100
0000
0010
0000
0001
0000
,  // measure 30
0000
0000
1000
0000
0001
1000
0010
0000
0100
0000
0010
1000
0001
0000
0010
0000
,  // measure 31
0100
1000
0010
0000
0100
0000
1000
0000
0100
0000
0010
1000
0001
0000
1000
0000
,  // measure 32
0000
0000
0001
0000
0010
0100
1000
0000
0100
0000
0010
0000
0100
0000
1000
0000
,  // measure 33
0000
0000
0100
0000
1000
0000
0010
0000
0100
0010
0100
0010
1000
0001
1000
0001
,  // measure 34
0010
0000
0200
0000
,  // measure 35
2300
0000
3020
0000
,  // measure 36
0200
0000
0000
0000
,  // measure 37
0000
0000
0000
0330
,  // measure 38
0000
0000
0020
0000
,  // measure 39
2030
0000
3002
0000
,  // measure 40
0020
0000
0000
0000
0000
0000
0033
2000
,  // measure 41
0000
3002
0203
2000
0000
0000
0300
0000
,  // measure 42
3001
1000
1000
0001
0000
1000
0100
0100
,  // measure 43
1000
0000
0000
0000
0000
0000
0000
0010
,  // measure 44
0010
0100
0100
0000
0001
1000
1000
0001
,  // measure 45
0000
0000
0000
0000
,  // measure 46
0010
0010
0100
0010
0000
0100
0010
0010
,  // measure 47
0100
0000
0000
0000
0000
0000
0000
0100
,  // measure 48
1000
1000
0001
0000
1000
1000
0001
1000
,  // measure 49
0001
1000
0010
1020
,  // measure 50
0030
0000
0100
0000
0001
0100
0001
0000
0000
0000
0001
0000
1000
0000
0100
0000
,  // measure 51
0000
0000
0010
0000
0100
1000
0100
0000
0010
0000
0001
0000
1000
0000
0001
0000
,  // measure 52
0000
0000
0100
0000
0010
1000
0010
0000
0000
0000
0100
0000
0001
1000
0100
0000
,  // measure 53
0000
0000
0010
0000
0000
0000
0100
1000
0001
0000
0100
0000
1000
0000
0100
0000
,  // measure 54
0000
0000
0010
0000
1000
0001
1000
0000
0000
0000
0001
0000
0010
0000
1000
0000
,  // measure 55
0000
0000
0010
0100
1000
0001
0100
0000
0001
0000
0010
0000
0001
0000
1000
0000
,  // measure 56
0100
0000
1000
0000
0010
0000
0100
0010
1000
0000
0001
0000
1000
0000
0110
0000
,  // measure 57
0000
1001
0000
0110
0000
0100
1001
0000
,  // measure 58
0000
0000
1000
0010
1000
0010
1000
0000
0000
0000
0100
0000
0010
0000
0001
0000
,  // measure 59
0000
0000
0010
0000
0100
0000
1000
0000
0010
0000
0100
0001
0100
0000
0001
0000
,  // measure 60
0000
0000
0010
0100
0010
0100
0010
0000
0000
0000
0100
0000
1000
0000
1001
0000
,  // measure 61
0000
0000
1000
0000
0000
0000
0010
1000
0100
0000
1000
0000
0001
0000
0100
0000
,  // measure 62
0001
1000
0001
1000
0001
0100
0020
0000
0000
0000
0130
0000
0001
0000
0010
0000
,  // measure 63
0000
0000
0100
1000
0001
0000
0100
0000
0001
0010
0001
0010
0001
0000
1000
0000
,  // measure 64
0001
0000
0100
0010
0100
0010
0100
0000
0001
0000
1000
0000
0001
0000
0011
0000
,  // measure 65
0000
1010
0000
1200
0000
0310
0100
1000
,  // measure 66
1001
1000
0001
1001
0000
0110
0100
0010
,  // measure 67
0000
0000
0110
0000
0100
0000
0100
0000
0001
0010
0100
1000
0001
0000
1000
0000
,  // measure 68
0000
0000
0001
0100
0001
0000
1000
0000
0000
0000
0100
0000
0000
0000
1000
0000
,  // measure 69
0000
0000
0010
0000
0000
0000
0100
0010
1000
0000
0001
0000
0010
0000
0001
0000
,  // measure 70
0000
0000
1000
0010
1000
0000
0010
0000
0100
0000
0010
0000
1000
0000
0100
0000
,  // measure 71
0000
0000
0010
0000
0100
0000
1000
0000
0100
0010
0001
0010
0001
0000
1000
0000
,  // measure 72
0000
0000
0001
0000
0100
0010
1000
0000
0001
0000
0010
0100
1000
0000
0100
0000
,  // measure 73
0010
0001
1000
0000
0100
0000
0010
0000
0100
0000
1000
0001
1000
0000
0001
0000
,  // measure 74
0000
0000
0100
0000
0001
0010
0001
0000
0010
0000
0100
0000
0000
0000
1001
0000
,  // measure 75
0000
0000
1010
0000
0000
0000
1000
0001
0010
0000
0001
0000
0010
0000
0110
0000
,  // measure 76
0000
0000
0100
0010
0100
0000
0010
0000
0000
0000
0001
0000
0000
0000
0100
0000
,  // measure 77
0000
0000
1000
0000
0000
0000
0100
0010
1000
0000
0001
0000
1000
0000
0100
0000
,  // measure 78
0000
0000
0010
0100
0010
0000
0100
0000
1000
0000
0001
0000
0100
0000
0010
0000
,  // measure 79
0000
0000
1000
0000
0001
0000
0001
0010
0100
1000
0001
0000
1000
0000
0001
0000
,  // measure 80
1000
0000
0001
0010
0100
0000
0010
0000
0001
0100
0010
0000
0100
0000
0010
0100
,  // measure 81
0001
0000
1000
0000
0100
0000
0010
0000
0100
1000
0100
0000
1000
0000
0001
0000
,  // measure 82
0000
1000
0001
0010
0100
0010
0001
1001
,  // measure 83
0000
0000
0001
0000
0100
0000
0010
0000
1000
0010
0100
0001
1000
0010
0100
0001
,  // measure 84
1000
0100
0010
0001
1000
0000
0001
0000
0000
0000
0100
1000
0100
0010
1000
0000
,  // measure 85
0000
0000
0101
0000
0000
0000
0001
0010
0100
0000
0010
0000
0001
0000
2002
0000
,  // measure 86
0000
0000
0000
0000
,  // measure 87
0000
0000
0000
0000
,  // measure 88
0000
0000
0000
0000
,  // measure 89
3003
0000
0000
0000
;

//---------------dance-single - ----------------
#NOTEDATA:;
#CHARTNAME:;
#STEPSTYPE:dance-single;
#DESCRIPTION:;
#CHARTSTYLE:;
#DIFFICULTY:Medium;
#METER:13;
#RADARVALUES:0.547424,0.656682,0.203919,0.110456,0.008497,451.000000,427.000000,24.000000,13.000000,0.000000,0.000000,0.000000,0.000000,0.000000,0.547424,0.656682,0.203919,0.110456,0.008497,451.000000,427.000000,24.000000,13.000000,0.000000,0.000000,0.000000,0.000000,0.000000;
#CREDIT:Pandemonium X;
#NOTES:
0000
0000
0000
0000
,
0000
0000
0000
0000
,
0000
0000
0000
0000
,
0000
0000
0000
0000
,
0000
0000
0000
0000
,
0000
0000
0000
0000
,
0000
0000
0000
0000
,
0000
0000
0000
0000
,
0000
1000
0001
1000
0000
0001
0000
0010
,
0000
0001
0000
0100
0001
0000
1000
0000
,
0000
0001
0010
0001
0000
0010
0000
0100
,
0000
1000
0000
0100
1000
0000
0010
0000
,
0000
0100
0001
0100
0000
0001
0000
0100
,
0000
0010
0000
1000
0010
0000
1000
0000
,
0000
0001
1000
0001
1000
0100
0010
0001
,
0000
1000
0100
0010
0000
0100
1000
0010
,
0100
0000
0000
0000
0000
0000
0000
1001
,
0000
0001
0100
0010
1000
0100
0010
0000
,
0000
0100
1000
0010
0000
0100
0000
0101
,
0000
0011
0000
0010
0001
1000
0001
1000
,
0000
0001
1000
0010
1000
0001
0010
0100
,
0000
0010
0100
1000
0100
0001
0100
1000
,
0000
0001
0100
1000
0100
0001
0100
1000
,
0100
0001
0100
1000
0100
0010
1000
0001
,
0000
1000
0010
0001
0010
0100
0000
0010
,
0000
0100
0000
0010
0001
1000
0001
1001
,
0000
0001
0100
0010
0000
0100
0000
0001
,
0000
1000
0000
0100
1000
0010
0100
0001
,
0000
0010
0100
0010
0001
1000
0010
1000
,
0000
0011
0000
0010
0001
1000
0100
0010
,
0000
0100
0001
0100
1000
0010
0001
0010
,
1000
0010
0001
0010
0100
0001
0010
0100
,
0000
0010
0001
1000
0010
1000
0001
1000
,
0000
0001
0010
0100
0000
0010
0001
1000
,
0100
0000
2000
0000
,
3020
0000
2030
0000
,
0002
0000
0000
0000
,
0000
0000
0000
3003
,
0000
0000
0002
0000
,
0023
0000
0032
0000
,
2003
0000
0000
0000
0000
0000
0000
3020
,
0000
1030
0010
0200
0000
0000
0000
0000
,
0310
1000
0010
0100
0000
0010
1000
0001
,
0010
0000
0000
0000
0000
0000
0000
0100
,
0010
0001
1000
0000
0001
1000
0010
1000
,
0000
0000
0000
0000
,
0001
1000
0001
0010
0000
0100
0010
0001
,
1000
0000
0000
0000
0000
0000
0000
0001
,
0100
0001
0010
0000
0100
0010
0001
1000
,
0000
0001
0000
1000
0100
0010
0002
0000
,
0003
1000
0001
1000
0000
0001
0000
0101
,
0000
0001
0100
0010
1000
0001
0010
0100
,
0000
0010
0001
0100
0000
0010
0000
1001
,
0000
1000
0000
0001
0100
0001
1000
0100
,
0000
0010
0100
1000
0000
0100
1000
0001
,
0000
0100
1000
0100
0001
0010
0100
1000
,
0000
0001
1000
0010
1000
0001
0010
0011
,
0000
1010
0000
1001
0000
0010
1001
0000
,
0000
0001
0001
1000
0000
0100
0000
1000
,
0000
0010
0000
0100
0010
0010
0100
0001
,
0000
1000
1000
0100
0000
1000
0000
0001
,
0000
0010
0000
0100
0001
0100
1000
0100
,
0000
0010
0010
0100
0000
0010
0001
0100
,
0000
0100
0010
1000
0001
1000
0001
0100
,
0000
0010
0100
0001
0010
0100
1000
1100
,
0000
0000
0011
0000
0000
0000
2002
0000
3003
0000
0001
1000
0001
0000
1000
0000
,
0001
0100
1000
0100
0000
1100
0000
0101
,
0000
0001
0010
0100
0000
0010
1001
0000
,
0000
1000
0001
0010
0000
0101
0000
0011
,
0000
1001
0000
1000
0001
0010
0001
1000
,
0000
0100
0001
0100
0010
0001
0100
0010
,
0000
1000
0010
1000
0001
0010
0100
0010
,
0000
1000
0100
0001
0100
1000
0100
0001
,
0100
1000
0100
0010
0001
0010
0100
0010
,
0000
0100
0010
0001
0100
0010
0000
0110
,
0000
0100
0010
1000
0001
0010
0001
1001
,
0000
1000
0010
0001
0000
0010
0000
0100
,
0000
0001
0000
0010
1000
0010
0100
0010
,
0000
0100
0001
0100
0010
0001
0010
0100
,
0000
0010
0000
0100
0010
0001
0010
1000
,
0000
0010
0100
1000
0010
0100
1000
0100
,
0010
1000
0001
0010
0100
0010
0001
1000
,
0000
0010
0100
0001
0010
0100
0010
0001
,
0000
1000
0001
0100
0000
0010
1000
0001
,
0010
0010
0001
1000
0000
0001
0001
1000
,
0000
0000
0110
0000
0000
0000
0001
0100
0001
0000
0010
0000
0100
0000
1100
0000
;

//---------------dance-single - ----------------
#NOTEDATA:;
#CHARTNAME:;
#STEPSTYPE:dance-single;
#DESCRIPTION:;
#CHARTSTYLE:;
#DIFFICULTY:Easy;
#METER:8;
#RADARVALUES:0.370209,0.474270,0.025490,0.050980,0.000000,305.000000,302.000000,3.000000,6.000000,0.000000,0.000000,0.000000,0.000000,0.000000,0.370209,0.474270,0.025490,0.050980,0.000000,305.000000,302.000000,3.000000,6.000000,0.000000,0.000000,0.000000,0.000000,0.000000;
#CREDIT:Pandemonium X;
#NOTES:
0000
0000
0000
0000
,
0000
0000
0000
0000
,
0000
0000
0000
0000
,
0000
0000
0000
0000
,
0000
0000
0000
0000
,
0000
0000
0000
0000
,
0000
0000
0000
0000
,
0000
0000
0000
0000
,
1000
0000
0001
0000
,
0100
0001
0100
0000
,
0010
0000
1000
0000
,
0100
0010
0100
0000
,
0010
0000
0001
0000
,
1000
0010
1000
0000
,
0010
0000
0100
0000
,
0010
0100
0001
1000
,
0200
0000
0000
0000
0000
0000
0000
1300
,
0000
0100
0010
0000
0001
0000
1001
0000
,
0000
1000
0001
1000
0000
0001
0000
0100
,
0000
0001
0000
0010
0001
0000
1000
0000
,
0000
0001
0100
0000
0001
0000
0010
0100
,
0000
0100
1000
0001
0100
0000
0010
0000
,
1000
0100
1000
0001
,
0100
0000
0001
0000
0010
0000
0100
1000
,
0000
0100
0010
0000
0001
1000
0000
0010
,
0000
0100
0010
0000
1000
0001
0010
0100
,
0000
0010
0001
0100
0000
0010
0000
1000
,
0000
0001
0000
1000
0001
0000
0010
0000
,
0000
0100
0010
0000
0001
0000
1000
0001
,
0000
0100
0001
0010
0000
0100
1000
0000
,
0001
0010
0001
1000
,
0010
1000
0001
0010
,
0000
0100
0010
0000
0001
0000
1000
0010
,
0000
0100
0000
0001
0000
1000
0100
0010
,
0100
0000
1000
0000
,
0010
0000
0100
0000
,
0002
0000
0000
0000
,
0000
0000
0000
0003
,
0000
0000
1000
0000
,
0001
0000
0010
0000
,
0002
0000
0000
0000
0000
0000
0000
1003
,
0000
0001
0010
0200
0000
0000
0000
0000
,
0310
0001
0010
0001
0000
0010
0001
0010
,
0001
0000
0000
0000
0000
0000
0000
1000
,
0100
1000
0100
0000
1000
0100
1000
0100
,
0000
0000
0000
0000
,
1000
0001
1000
0001
0000
1000
0001
1000
,
0001
0000
0000
0000
0000
0000
0000
0010
,
0100
0010
0100
0000
0010
0100
0010
0100
,
0000
0000
0000
0020
,
1030
0000
0000
0000
0000
0100
1000
0001
,
0000
0000
0000
0000
1000
0100
1000
0001
,
0000
0000
0000
0000
0000
0100
0010
1000
,
0000
0001
0000
0010
0100
0000
0010
0000
,
0000
0010
0001
0010
0000
0001
0000
1000
,
0000
0100
0000
0010
0100
0000
1000
0000
,
0000
1000
0001
0000
0100
0000
0001
0010
,
0000
0100
0000
1000
0000
0100
1000
0010
,
0000
0100
0001
0010
0000
0100
0000
0010
,
0000
0001
0000
1000
0001
0100
0001
1000
,
0000
0100
1000
0010
0000
0100
0000
0010
,
0000
1000
0000
0001
1000
0100
1000
0001
,
0000
1000
0001
0010
0000
0100
0000
0010
,
0000
0100
1000
0010
0000
0100
0000
0010
,
0000
1000
0010
0100
0000
0001
0000
0010
,
0000
0100
0000
1000
0000
0100
1000
0010
,
0200
0000
0000
0000
,
0300
0000
0000
0000
,
1001
1000
0001
0010
0000
0100
0000
0010
,
0000
0001
0000
0100
0001
0000
1000
0000
,
0000
0100
1000
0000
0100
0000
1000
0010
,
0000
0100
0000
0001
0000
1000
0001
0000
,
1000
0001
0010
0001
,
0100
0010
1000
0100
,
0010
0000
0100
0000
1000
0010
0000
0100
,
0000
0010
0000
0100
0010
1000
0001
0010
,
0000
0100
0010
0100
0000
0010
0000
0001
,
0000
1000
0000
0001
0100
0000
0010
0000
,
0000
0100
0001
0010
0000
0100
0000
0010
,
0001
1000
0000
0001
1000
0000
0000
0000
,
0001
1000
0100
1000
,
0010
0100
0001
0010
,
0000
0100
0010
0000
0001
0000
1000
0001
,
0000
0100
0000
0001
0000
0010
0100
1000
,
0001
0000
0000
0000
,
0000
0000
0000
0000
0000
0000
0000
1001
;

//---------------dance-single - ----------------
#NOTEDATA:;
#CHARTNAME:;
#STEPSTYPE:dance-single;
#DESCRIPTION:;
#CHARTSTYLE:;
#DIFFICULTY:Beginner;
#METER:3;
#RADARVALUES:0.109242,0.182412,0.042483,0.016993,0.000000,90.000000,85.000000,5.000000,2.000000,0.000000,0.000000,0.000000,0.000000,0.000000,0.109242,0.182412,0.042483,0.016993,0.000000,90.000000,85.000000,5.000000,2.000000,0.000000,0.000000,0.000000,0.000000,0.000000;
#CREDIT:Pandemonium X;
#NOTES:
0000
0000
0000
0000
,
0000
0000
0000
0000
,
0000
0000
0000
0000
,
0000
0000
0000
0000
,
0000
0000
0000
0000
,
0000
0000
0000
0000
,
0000
0000
0000
0000
,
0000
0000
0000
0000
,
1000
0000
0000
0000
,
0000
0000
0000
0000
,
0001
0000
0000
0000
,
0000
0000
0000
0000
,
0100
0000
0000
0000
,
0000
0000
0000
0000
,
0010
0000
0000
0000
,
0000
0000
0000
0000
,
1000
0000
0000
0000
,
0000
0000
0000
1001
,
0110
0000
0000
0000
,
0010
0000
0000
0000
,
1000
0000
0000
0000
,
0100
0000
0000
0000
,
1000
0000
0000
0000
,
0001
0000
0000
0000
,
0100
0000
0000
0000
,
0010
0000
0100
0000
,
0001
0000
0000
0000
,
1000
0000
0000
0000
,
0100
0000
0000
0000
,
1000
0000
0000
0000
,
0010
0000
0000
0000
,
0100
0000
0000
0000
,
0010
0000
0000
0000
,
1000
0000
0001
0000
,
0100
0000
0010
0000
,
1000
0000
0001
0000
,
2000
0000
0000
0000
,
0000
0000
0000
3000
,
0000
0000
0001
0000
,
0010
0000
0001
0000
,
0200
0000
0000
0300
,
0000
0000
0000
0000
,
0010
0000
0000
0010
,
0010
0000
0000
0000
,
1000
0000
1000
1000
,
0000
0000
0000
0000
,
0001
0000
0000
0001
,
0001
0000
0000
0000
,
0100
0000
0100
0100
,
0000
0000
0000
0010
,
1000
0000
0000
0000
,
0001
0000
0000
0000
,
0010
0000
0000
0000
,
0100
0000
0000
0000
,
1000
0000
0000
0000
,
0001
0000
0000
0000
,
0100
0000
0000
0000
,
0110
0000
0000
0000
,
0010
0000
0000
0000
,
1000
0000
0000
0000
,
0100
0000
0000
0000
,
1000
0000
0000
0000
,
0001
0000
0000
0000
,
0100
0000
0000
0000
,
0010
0000
0000
0000
,
1000
0000
0001
0000
,
0110
0000
0000
0000
,
0000
0000
0000
0010
,
0100
0000
0000
0000
,
0001
0000
0000
0000
,
0010
0000
0000
0000
,
0100
0000
0000
0000
,
1000
0000
0000
0000
,
0001
0000
0000
0000
,
1000
0000
0000
0000
,
0010
0000
1000
0000
,
0100
0000
0000
0000
,
0010
0000
0000
0000
,
0001
0000
0000
0000
,
1000
0000
0000
0000
,
0001
0000
0000
0000
,
1000
0000
0000
0000
,
0010
0000
0000
0000
,
0100
0000
0010
0000
,
1000
0000
0000
0000
,
0000
0000
0000
0000
0000
0000
0000
1001
;
