#TITLE:Virus Funk;
#SUBTITLE:;
#ARTIST:Nhato;
#TITLETRANSLIT:;
#SUBTITLETRANSLIT:;
#ARTISTTRANSLIT:;
#GENRE:PROGRESSIVE DISCO;
#CREDIT:;
#BANNER:banner.png;
#BACKGROUND:background.png;
#LYRICSPATH:;
#CDTITLE:cdtitle.png;
#MUSIC:Virus Funk.ogg;
#OFFSET:-1.000000;
#SAMPLESTART:87.363632;
#SAMPLELENGTH:18.181824;
#SELECTABLE:YES;
#BPMS:0.000000=132.000000
;
#STOPS:
;
#BGCHANGES:;
#KEYSOUNDS:;
#ATTACKS:;

//---------------dance-single - ----------------
#NOTES:
     dance-single:
     :
     Hard:
     10:
     0.348767,0.453722,0.182068,0.405515,0.078620,295.000000,273.000000,22.000000,49.000000,0.000000,0.000000,0.348767,0.453722,0.182068,0.405515,0.078620,295.000000,273.000000,22.000000,49.000000,0.000000,0.000000:
0000
0000
0000
0000
,
0000
0000
0000
0000
,
0000
0000
0000
0000
,
0000
0000
0000
0000
,
0000
0000
0000
0000
0001
0001
0000
0000
,
1000
0000
1000
0000
0000
0000
0000
0000
0010
0000
0000
0000
0100
0000
0000
0001
,
0000
0000
0000
0000
0100
0100
0000
0000
,
0010
0010
0000
0000
2000
0000
0100
0000
,
0010
0000
3001
0000
0100
0010
1000
0020
,
0000
0000
0030
0000
0000
0100
0001
0020
,
0000
0000
0030
0000
0000
0100
1000
0020
,
0000
0130
0001
0020
0000
0130
1000
0010
,
0020
0000
0030
0000
0000
0100
0001
2000
,
0000
0000
3000
0000
0000
0100
0010
0002
,
0000
0000
0000
0000
0003
0000
0000
0000
0011
0000
0000
1000
0000
0000
0010
0000
,
0000
0120
0000
0000
1000
0000
1000
0000
,
1000
1000
1000
1000
,
1000
0000
1000
0000
1030
0002
0000
0010
,
0020
0033
0110
1001
,
0001
0000
0010
0000
0001
0000
0010
0000
0001
0000
0000
0001
0000
0000
0001
0000
,
0000
0001
0000
0000
0001
0000
0000
0000
1001
0000
0000
0000
0101
0000
0000
0000
,
1000
0010
0100
0010
0100
0001
0010
0100
,
1000
0001
1000
0000
1010
0000
0011
0000
,
0010
0000
0100
0000
0010
0000
0100
0000
0010
0000
0000
0010
0000
0000
0010
0000
,
0000
0010
0000
0000
0010
0000
0000
0000
1100
0000
0000
0000
1010
0000
0000
0000
,
1000
0001
0010
0001
0020
0000
0100
0000
,
0001
0000
0130
0000
0000
0010
0100
2000
,
0000
0000
3001
0000
0001
1000
0100
0020
,
0000
0000
0130
0000
0010
0100
1000
0001
,
0000
1000
0001
0100
0000
0010
0100
0010
,
0020
0000
0030
0000
0100
0010
1000
0002
,
0000
0000
1003
0000
0100
1000
0010
0200
,
0000
0000
0000
0000
0001
0000
0000
0000
0310
0000
0000
1000
0000
0000
0101
0000
,
0000
0021
0000
0000
0100
0000
0100
0000
,
0100
0000
0100
0000
0030
0000
0000
0200
,
0320
0000
0000
0032
0000
0000
2003
0000
0000
0000
0000
0000
0000
0000
0000
0000
,
0000
0000
0000
3000
,
0000
0000
0002
0000
0000
0203
0000
0000
0320
0000
0000
0000
0000
0000
0000
0000
,
0000
0000
0000
0000
0230
0000
0000
0320
,
2030
0000
0000
3200
0000
0000
2300
0000
0000
0000
0000
0000
0000
0000
0000
0000
,
0000
0000
0000
0000
0000
0000
3000
0020
,
0000
0230
0320
2030
3200
0000
0000
0000
,
0000
0320
0000
0000
0130
0000
0100
0000
,
1000
0000
0000
0000
1000
0000
0000
0000
1001
0000
0000
0110
0000
0000
1001
0000
,
0000
2001
0000
0000
0010
0000
0010
0000
,
0001
0001
0100
0100
,
0001
0000
3001
0000
0001
0100
1000
0100
,
0001
1000
1001
0000
1000
0000
0011
0000
,
0010
0000
0000
0000
0001
0000
0100
0000
0010
0000
0000
1000
0000
0000
0010
0000
,
0000
1000
0000
0000
0100
0000
0000
1000
0000
0000
0001
0000
0100
0000
0000
0010
,
0000
0100
0001
0010
1000
0010
0001
0100
,
0001
0000
0000
1000
0000
0000
0100
0000
0020
0000
0000
0000
0130
0000
0000
0000
,
0010
0000
0001
0000
1000
0000
0010
0000
0100
0000
0000
0001
0000
0000
1000
0000
,
0100
0001
0100
0010
0001
1000
0010
1000
,
0001
0000
0010
0000
0100
0000
0010
0000
0002
0000
0000
0000
0003
0000
0000
1000
,
0010
0000
0000
0100
0001
0000
0000
0000
1001
0000
0000
0000
0102
0000
0000
0000
,
0010
0100
2000
0000
,
0000
0000
0000
0000
3003
0001
1000
0001
,
0020
0000
0031
0100
0020
0000
0100
0000
,
0100
0130
1001
0002
,
0023
0000
0130
0010
0002
0000
0003
1000
,
0020
0000
0230
0000
0301
1000
0100
0000
,
0010
0100
1000
0000
0200
0000
0000
0310
,
0001
1000
0100
0010
0001
0010
0100
0010
,
0001
0010
0100
1000
1001
0000
0000
0000
;

//---------------dance-single - ----------------
#NOTES:
     dance-single:
     :
     Medium:
     7:
     0.271920,0.346964,0.132413,0.364136,0.049655,230.000000,214.000000,16.000000,44.000000,0.000000,0.000000,0.271920,0.346964,0.132413,0.364136,0.049655,230.000000,214.000000,16.000000,44.000000,0.000000,0.000000:
0000
0000
0000
0000
,
0000
0000
0000
0000
,
0000
0000
0000
0000
,
0000
0000
0000
0000
,
0000
0000
0000
0000
1000
1000
0000
0000
,
0001
0000
0001
0000
0000
0000
0000
0000
0100
0000
0000
0000
0010
0000
0000
1001
,
0000
0000
0000
0000
0010
0010
0000
0000
,
0100
0100
0000
0000
0002
0000
0010
0000
,
0100
1003
1001
0001
,
0100
0010
0100
0000
0010
0000
1000
0000
,
0100
0010
0100
0000
0000
0010
0001
0100
,
0000
0010
1000
0100
0000
0010
0001
0200
,
0000
0300
0010
1000
,
0001
0010
0100
0000
0010
0000
0001
0000
,
1000
0000
0100
0000
0010
0000
0000
0000
0100
0000
0000
1000
0000
0000
0010
0000
,
0000
2002
0000
0000
0000
0000
0000
0000
,
0000
0000
0000
0000
,
0000
0000
0000
3003
0001
0020
0000
0100
,
0130
0000
0001
1100
,
0100
0010
0100
0010
0100
0000
0100
0000
,
0100
0100
0010
1001
,
0001
0100
0010
0000
2000
0000
3002
0000
,
0023
0230
0310
1100
,
0010
0001
0010
0001
1000
0000
1000
0000
,
1000
1000
0001
0110
,
0100
0010
1000
0001
0010
0000
0010
0000
,
0010
0000
0010
0000
0000
0100
1000
0002
,
0000
0003
0000
0000
0000
0100
0010
2000
,
0000
0000
3000
0000
0000
0001
1000
0010
,
0000
1000
0010
0100
0000
0010
1000
0002
,
0000
0000
0003
0000
0000
1000
0100
0020
,
0000
0030
0000
0000
0000
0100
1000
0002
,
0000
0000
0003
0000
0000
0000
0000
0000
1000
0000
0000
0001
0000
0000
1001
0000
,
0000
0220
0000
0000
0000
0000
0000
0000
,
0000
0000
0000
0000
0330
0000
0000
0010
,
1000
0000
0000
0100
0000
0000
0020
0000
0000
0000
0000
0000
0000
0000
0000
0000
,
0000
0000
0000
0000
0000
0030
0000
0000
,
0000
0000
0100
0000
0000
1000
0000
0000
0002
0000
0000
0000
0000
0000
0000
0000
,
0000
0000
0000
0000
0203
0000
0000
0310
,
1000
0000
0000
0001
0000
0000
2000
0000
0000
0000
0000
0000
0000
0000
0000
0000
,
0000
0000
0000
0000
0000
0000
3000
0020
,
0000
0130
0001
0100
0020
0000
0000
0000
,
0000
0230
0000
0000
0000
0000
0000
0000
0000
0000
0000
0000
0000
0000
0000
0000
,
0000
0000
0000
0000
0000
0000
0000
0000
0310
0000
0000
0100
0000
0000
0110
0000
,
0000
2002
0000
0000
0000
0000
0000
0000
,
0000
0000
0000
0000
,
0000
0000
0000
3003
1000
0200
0000
0010
,
0310
1001
0210
0000
,
0300
0000
0000
0000
0001
0000
1000
0000
0100
0000
0000
1000
0000
0000
0010
0000
,
0000
0100
0000
0000
0010
0000
0000
1000
0000
0000
0001
0000
0010
0000
0000
0001
,
0000
1000
0001
0100
0001
0000
0001
0000
,
1000
0001
1000
0000
0001
0000
1010
0000
,
0010
0100
0001
0000
0010
0000
0100
0000
,
1000
0000
0100
1000
0010
0000
0100
0000
,
0010
1000
2002
3000
,
0100
0013
1001
0001
,
0100
1000
0200
0000
,
0000
0000
0000
0000
0300
0000
0010
1000
,
0001
0000
0010
0100
2000
0000
0000
0000
,
0000
0000
3000
0200
,
2300
0000
3010
0100
0002
0000
0000
1003
,
0002
0000
2003
0000
0000
3010
0100
0001
,
0020
0000
0130
1000
0002
0000
0000
1003
,
0200
0320
0032
0203
,
0320
2030
3001
0000
;

//---------------dance-single - ----------------
#NOTES:
     dance-single:
     :
     Easy:
     4:
     0.161970,0.240206,0.082758,0.198620,0.000000,137.000000,127.000000,10.000000,24.000000,0.000000,0.000000,0.161970,0.240206,0.082758,0.198620,0.000000,137.000000,127.000000,10.000000,24.000000,0.000000,0.000000:
0000
0000
0000
0000
,
0000
0000
0000
0000
,
0000
0000
0000
0000
,
0000
0000
0000
0000
,
0000
0000
1000
0000
,
0001
0000
1001
0000
,
0000
0000
0010
0000
,
0100
0000
0020
0000
,
0000
0030
1000
0000
,
0000
0000
0001
0000
,
0000
0000
0100
0000
,
0100
0000
0100
0000
,
0100
0000
0010
0000
,
0000
0000
1000
0000
,
0000
0000
1001
0000
,
0220
0000
0000
0000
,
0000
0000
0000
0000
,
0000
0000
0300
0000
,
0030
0000
0100
1001
,
0001
0001
2000
0000
,
0000
3000
0010
0100
,
0001
0001
0010
0010
,
0100
0100
1000
0000
,
0001
1000
0020
0000
,
0000
0030
0100
0001
,
1000
0100
0010
0010
,
0010
0010
0100
1000
,
0002
0003
1000
0001
,
0200
0300
0010
0000
,
0010
0000
0010
0000
,
0010
0000
0100
0010
,
2000
3000
0001
0010
,
0200
0300
0010
0001
,
2002
0000
0000
0000
,
0000
0000
3003
0000
,
0000
0000
0200
0000
,
0000
0000
0300
0000
,
0000
0000
0020
0000
,
0000
0000
0030
0000
,
1000
0000
0002
0000
,
0000
0000
0003
0000
,
1000
0001
0200
0000
,
0000
0000
0310
0000
,
0000
0000
1001
0000
,
0220
0000
0000
0000
,
0000
0000
0000
0000
,
0000
0330
1000
0001
,
0110
1001
0200
0000
,
0300
0001
1000
0010
,
1000
0001
0010
0001
,
1000
0100
0010
0010
,
0100
0010
0002
0003
,
1000
0001
0100
0001
,
1000
0100
0010
0100
,
1000
0001
0200
0000
,
0310
1001
0000
0001
,
1000
0010
2000
0000
,
0000
0000
3000
0001
,
1000
0100
0020
0000
,
0000
0000
0030
0100
,
0010
0001
0200
0000
,
0301
1000
0000
0001
,
1000
0010
0200
0000
,
0301
0010
0100
1000
,
0100
0010
0001
0000
;

//---------------dance-single - ----------------
#NOTES:
     dance-single:
     :
     Beginner:
     3:
     0.105221,0.240206,0.049655,0.074482,0.000000,89.000000,83.000000,6.000000,9.000000,0.000000,0.000000,0.105221,0.240206,0.049655,0.074482,0.000000,89.000000,83.000000,6.000000,9.000000,0.000000,0.000000:
0000
0000
0000
0000
,
0000
0000
0000
0000
,
0000
0000
0000
0000
,
0000
0000
0000
0000
,
0000
0000
1000
0000
,
1000
0000
1000
0000
,
0000
0000
0001
0000
,
0001
0000
0001
0000
,
0000
0000
0000
0100
,
0000
0000
0000
0010
,
0000
0000
1000
0000
,
1000
0000
1000
0000
,
0000
0000
1001
0000
,
0000
0000
0010
0000
,
0000
0000
0100
0000
,
0020
0000
0000
0000
,
0000
0000
0000
0000
,
0000
0000
0030
0000
,
0000
0000
1000
0000
,
0001
0000
0001
0000
,
0000
0000
0100
0000
,
0010
0000
0010
0000
,
0010
0000
1001
0000
,
1000
0000
1000
0000
,
0000
0000
0001
0000
,
0100
0000
0010
0000
,
0000
0000
0000
1000
,
1000
0000
0000
0001
,
0001
0000
1000
0000
,
0010
0000
0100
0000
,
0001
0000
0000
0100
,
0100
0000
0000
0010
,
0010
0000
0100
0000
,
0020
0000
0000
0000
,
0000
0000
0030
0000
,
0100
0000
0002
0000
,
0000
0000
0000
0003
,
0000
0000
2000
0000
,
0000
0000
0000
0000
,
3000
0000
0020
0000
,
0000
0000
0000
0030
,
0000
0000
0200
0000
,
0000
0000
0000
0000
,
0000
0000
0300
0000
,
2002
0000
0000
0000
,
0000
0000
0000
0000
,
0000
0000
3003
0000
,
0000
0010
0100
0000
,
0000
0001
0001
0000
,
1000
0000
0010
0000
,
1000
0000
0100
0100
,
0100
0000
1000
0000
,
0001
0000
0010
0000
,
0000
0000
0001
0000
,
1000
0000
0010
0000
,
0110
1001
0000
1000
,
0001
1000
0001
0000
,
0000
0000
0000
0100
,
0000
0010
0010
0000
,
0000
0000
1001
1000
,
0001
0010
0001
0000
,
0100
0000
0010
0000
,
1000
0000
0001
0000
,
0200
0000
0000
0000
,
0000
0000
0300
0000
;

//---------------dance-single - ----------------
#NOTES:
     dance-single:
     :
     Challenge:
     14:
     0.527288,0.773996,0.157241,0.413791,0.504825,446.000000,427.000000,19.000000,50.000000,0.000000,0.000000,0.527288,0.773996,0.157241,0.413791,0.504825,446.000000,427.000000,19.000000,50.000000,0.000000,0.000000:
// measure 0
0000
0000
0000
0000
,  // measure 1
0000
0000
0000
0000
,  // measure 2
0000
0000
0000
0000
,  // measure 3
0000
0000
0000
0000
,  // measure 4
0000
0000
0000
0000
0010
0010
2000
0000
,  // measure 5
3002
0000
0000
0000
0013
0100
0000
0000
0012
0000
0000
0000
0013
0000
1000
0001
,  // measure 6
0200
0000
0000
0000
0320
0000
0000
0000
0030
0000
0100
0000
0001
0000
0010
0100
,  // measure 7
1000
0000
0000
0000
0001
0000
1000
0010
0200
0000
0000
0000
0001
0000
0000
0000
,  // measure 8
0010
0000
0301
0000
1001
0001
0010
0200
,  // measure 9
0000
0310
0100
1000
0000
1000
0010
0200
,  // measure 10
0000
0310
1000
0001
0000
0001
1000
0010
,  // measure 11
0000
1000
0001
0010
0000
0001
1000
0010
,  // measure 12
0020
0000
0000
0000
0130
0001
0100
0001
0100
0000
0001
0000
0010
0000
0200
0000
,  // measure 13
0000
0310
0001
1000
0000
1000
0001
0020
,  // measure 14
0000
0000
0130
0000
1000
0000
0010
0000
0110
0000
0000
1010
0000
0000
0101
0000
,  // measure 15
0000
0021
0000
0000
0001
0000
0100
0000
,  // measure 16
0001
0000
0100
0000
0031
1000
0001
1000
,  // measure 17
0001
1000
0001
1000
0001
0200
0000
1300
,  // measure 18
0200
0310
1001
1010
,  // measure 19
0001
0100
0001
0100
0001
0100
0001
0100
0001
0000
0000
0001
0000
0000
1000
0000
,  // measure 20
0000
1000
0000
0000
0010
0000
0000
0000
0200
0000
0000
0000
0320
0000
0000
0000
,  // measure 21
1030
0001
1000
0001
0100
0001
0100
0001
1000
0010
1000
0010
0100
0010
0100
0010
,  // measure 22
0100
0001
0100
0001
0020
0000
0000
0000
0130
0000
0000
0000
1000
0000
0000
0000
,  // measure 23
0001
0010
0001
0010
0001
0010
0001
0010
0001
0000
0000
0001
0000
0000
0100
0000
,  // measure 24
0000
0100
0000
0000
0010
0000
0000
0000
0200
0000
0000
0000
0302
0000
0000
0000
,  // measure 25
1003
0100
1000
0100
0010
0001
0010
0001
0100
0000
0000
0000
0100
0000
0000
0000
,  // measure 26
0100
0100
1001
0001
,  // measure 27
0010
0000
0000
0001
0000
0000
0100
0000
0001
0000
0000
0000
1000
0000
0000
0100
,  // measure 28
0000
1000
0000
0000
0010
0000
0000
0000
0100
0000
0001
0000
1000
0000
0010
0000
,  // measure 29
0100
0001
1000
0010
1000
0001
0100
0010
,  // measure 30
0020
0000
0000
0000
1030
0100
0010
0001
1000
0000
0000
0000
0001
0000
0000
0100
,  // measure 31
0000
0000
0001
0000
0010
0000
0000
0000
0100
0000
0000
0000
0010
0000
0000
0100
,  // measure 32
0000
0010
0000
0000
0001
0000
0000
0000
1001
0000
0000
1010
0000
0000
1100
0000
,  // measure 33
0000
0210
0000
0000
0010
0000
1000
0000
,  // measure 34
0010
0000
1000
0000
0300
0000
0000
0010
,  // measure 35
0002
0000
0000
2003
0000
0000
3020
0000
0000
0000
0000
0000
0000
0000
0000
0000
,  // measure 36
0000
0000
0000
0030
,  // measure 37
0000
0000
0200
0000
0000
0320
0000
0000
0032
0000
0000
0000
0000
0000
0000
0000
,  // measure 38
0000
0000
0000
0000
2003
0000
0000
3020
,  // measure 39
2030
0000
0000
3200
0000
0000
2000
0300
0000
0000
0000
0000
0000
0000
0000
0000
,  // measure 40
0000
0000
0000
0000
0000
3000
0000
0201
,  // measure 41
0000
0320
2030
3002
0023
0000
0000
0000
,  // measure 42
0000
0200
0000
0000
0030
0000
0000
0000
1300
0000
0010
0000
0100
0000
0001
0000
,  // measure 43
1000
0100
0010
0100
1000
0001
1000
0001
,  // measure 44
0100
1000
0100
0001
0100
1000
0100
0001
,  // measure 45
0100
0000
1000
0000
0100
0000
0001
0000
0100
0010
0100
0010
1000
0001
1000
0001
,  // measure 46
0100
0010
1000
0001
0100
0010
1000
0001
0010
0000
0010
0000
0100
0000
1000
0000
,  // measure 47
0001
0010
0100
1000
0001
0000
0000
0000
0201
0000
0000
0000
0000
0000
0300
0000
,  // measure 48
0000
0000
0200
0000
0301
0010
0001
1000
0100
0000
0000
1000
0000
0000
0010
0000
,  // measure 49
0000
0100
0000
0000
0010
0000
1000
0001
0000
0000
0010
0000
0100
0000
0010
0001
,  // measure 50
0000
0010
0100
1000
0100
0001
0100
1000
,  // measure 51
0010
0100
0001
1000
0000
0010
0100
0001
2000
0000
0000
0000
3100
0010
0001
1000
,  // measure 52
0010
0000
0100
0001
1000
0010
1000
0010
0100
0000
0010
0100
0000
0001
0000
0000
,  // measure 53
1000
0000
0000
0000
0000
0000
0001
0000
0100
0000
0010
0000
0100
0000
0000
0001
0000
0000
0010
0000
0000
0100
0000
0000
1000
0000
0000
0100
0000
0000
0010
0000
0000
0100
0000
0000
0010
0000
0000
0001
0000
0000
0010
0000
0000
0001
0000
0000
,  // measure 54
1000
0000
0000
0000
0000
0000
0001
0000
0000
0100
0000
0000
0010
0000
0000
1000
0000
0000
0100
0000
0000
0010
0000
0000
0002
0000
0000
0000
0000
0000
0000
0000
0000
0000
0000
0000
0000
0000
0000
0000
0000
0000
1003
0000
0100
0000
0010
0000
,  // measure 55
0001
0000
0000
0001
0010
0100
1000
0000
0000
0000
0000
0000
0110
0000
0000
0000
0000
0000
0200
0000
0000
0000
0000
0000
,  // measure 56
1300
0010
1000
0010
0100
0001
0100
0001
0100
0000
0000
0100
0000
0000
0010
0000
,  // measure 57
0000
0010
0000
0000
1001
0000
0000
0000
0000
0000
1000
0000
0001
0000
0010
0100
,  // measure 58
1000
0000
0000
0000
0100
0000
0010
0001
0100
0001
0100
0010
0100
0010
1000
0010
,  // measure 59
1000
0001
1000
0001
0020
0000
0000
0000
0031
0000
0000
0000
2100
0000
0000
0000
,  // measure 60
3020
0000
0000
0000
0130
0001
0000
0010
0200
0000
0000
0000
0000
0310
0001
1000
,  // measure 61
0001
0000
0000
0000
0200
0000
0000
0000
0300
0000
0010
0000
1000
0000
0001
0010
,  // measure 62
0200
0000
0000
0000
0310
0000
0001
2000
0000
0000
0000
0000
3000
0100
1000
0010
,  // measure 63
0100
0001
0010
0100
0010
0001
0100
0010
1000
0100
0010
0100
1000
0010
0100
0001
,  // measure 64
0010
0100
0010
0001
0100
0010
1000
0001
1001
0000
0000
0000
0000
0000
0000
0000
;
