#TITLE:Vile Requiem;
#SUBTITLE:;
#ARTIST:GOTH;
#TITLETRANSLIT:;
#SUBTITLETRANSLIT:;
#ARTISTTRANSLIT:;
#GENRE:;
#CREDIT:;
#BANNER:banner.png;
#BACKGROUND:background.png;
#LYRICSPATH:;
#CDTITLE:cdtitle.png;
#MUSIC:Vile Requiem.ogg;
#OFFSET:0.518000;
#SAMPLESTART:45.879997;
#SAMPLELENGTH:12.799999;
#SELECTABLE:YES;
#BPMS:0.000000=150.000000
,40.000000=75.000000
,46.000000=150.000000
,76.000000=75.000000
,77.000000=150.000000
,105.000000=75.000000
,107.000000=150.000000
,265.000000=75.000000
,266.000000=150.000000
,294.000000=75.000000
,296.000000=150.000000
;
#STOPS:
;
#BGCHANGES:;
#KEYSOUNDS:;
#ATTACKS:;

//---------------dance-single - ----------------
#NOTES:
     dance-single:
     :
     Hard:
     13:
     0.510432,0.762843,0.246158,0.343130,0.525884,479.000000,446.000000,33.000000,46.000000,12.000000,0.000000,0.510432,0.762843,0.246158,0.343130,0.525884,479.000000,446.000000,33.000000,46.000000,12.000000,0.000000:
0000
0000
0000
0000
,
0000
0000
0000
0000
,
0000
0000
0000
0000
,
0000
0000
0000
0000
,
0000
0000
0000
0000
,
0000
0000
0000
0000
,
0000
0000
0000
0000
,
0000
0000
0000
0000
,
0000
0000
0000
0000
,
0000
0000
0000
0000
,
0010
0000
0000
0000
0000
0000
1000
0001
0100
0000
0000
0000
0000
0000
0000
0000
,
0000
0000
0000
0000
0000
0000
0000
0000
0010
0000
0100
0001
0000
0100
0001
0000
,
0010
0000
0100
0000
1000
0000
0000
0000
0100
0000
1000
0100
0000
1000
0100
0000
,
1000
0000
0001
0000
0100
0000
1000
0000
0100
0000
0010
1000
0000
0010
1000
0000
,
0001
0000
1000
0000
0100
0000
0000
0000
1000
0000
0010
1000
0000
0010
1000
0000
,
0100
0000
0001
0000
0010
0000
1000
0000
0010
0000
0100
1000
0000
0100
1000
0000
,
0100
0000
1000
0000
0010
0000
0000
0000
0100
0000
0001
0010
0000
0001
0010
0000
,
0100
0000
0010
0000
0001
0000
0100
0000
0010
0000
1000
0010
0000
1000
0010
0000
,
0100
0000
0001
0000
0010
0000
0000
0000
0100
0000
0010
0001
0000
0010
0001
0000
,
1000
0000
0000
0000
1001
0000
0001
0100
0000
0001
0100
0000
0010
0000
0010
0000
,
0100
0000
0010
0000
0110
0000
1000
0100
0000
1000
0100
0000
0010
0000
0100
0000
,
0010
0000
0001
0000
0101
0000
0100
0001
0000
0100
0001
0000
0100
0000
0100
0000
,
0010
0000
0100
0000
0010
0000
1000
0010
0000
1000
0010
0000
0100
0000
0001
0000
,
MM00
0000
0000
0000
1001
0000
0001
0100
0000
0010
1000
0000
1001
0000
1000
0100
,
0000
0010
0001
0000
1001
0000
0001
0100
0000
0010
1000
0000
1001
0000
1000
0100
,
0000
0010
0001
0000
1001
0000
0010
0000
0100
0000
0001
0000
1000
0000
0100
0000
,
0010
0100
1100
0000
MMMM
0000
0001
1000
,
0101
0000
0000
2020
0000
0000
3000
0000
0000
0000
0130
0010
,
1000
0001
0010
0200
0000
0000
2300
0000
0000
3010
0000
0000
,
0100
0000
0010
1000
0000
0000
0001
0000
0010
0100
0010
0001
,
1000
0010
1000
0200
0000
0000
2300
0000
0000
3001
0000
0100
,
0010
0000
0000
2002
0000
3003
0001
1000
0010
0000
1000
0010
,
0100
0001
0010
0100
0000
0000
1001
0000
0000
1020
0000
0000
,
0130
0021
0130
1002
,
0103
2001
3010
1001
,
0101
0000
0000
0021
0000
0000
0130
0010
0001
0000
1000
0001
,
0100
0010
1000
0000
0100
0010
0001
1000
0001
0100
0000
0000
,
1020
0000
0000
0130
0001
0010
1000
0010
0100
1000
0100
0001
,
0100
0010
0001
0100
1000
0100
0010
1000
0001
0020
0000
0000
,
0230
0000
0000
1300
0000
0000
0100
0010
0001
0000
1000
0001
,
0100
0001
0010
0100
1000
0100
0010
0000
0000
4004
0000
0000
,
0000
0000
0000
0000
,
0000
0000
3003
0201
,
0010
0001
0010
0302
,
0010
0000
0103
0020
0000
1030
0200
0000
,
0010
1000
0010
2300
,
3010
0002
0103
0020
,
1000
0000
0100
0000
1030
0001
0200
0000
,
0001
0000
0320
0000
1030
0100
0020
0000
,
0100
0000
0001
0000
0130
0010
0002
0000
,
1003
0000
0020
0000
0130
0000
0001
0001
,
1000
0001
0001
1000
0001
0000
1000
1000
,
0001
1000
1000
0001
1000
0000
0010
0010
,
0100
0010
0010
0100
0010
0000
0100
0100
,
0010
0100
0100
0010
0100
0000
0001
0100
,
0010
0000
1000
0100
0001
0000
0100
0010
,
0001
0000
0001
0010
1000
0000
0010
0100
,
1000
0000
0000
0010
0000
0000
0100
0000
0000
0001
0000
0000
0010
0000
0000
0100
0000
0000
1000
0000
0001
0000
0100
0000
,
0010
1000
0001
0100
0010
1000
0001
0100
0010
1000
0000
0100
,
0010
0000
0000
0021
0000
0001
0000
0001
0000
0001
0000
0001
,
0000
0031
0010
0200
0000
0000
0000
0000
0000
0310
0000
0000
,
0001
0000
0100
0010
0000
1000
0010
0100
0000
0010
0000
0100
,
0010
1000
0001
0020
0000
0000
0230
0000
0000
1300
0000
0010
,
1000
0000
0000
0001
0000
1000
0001
0010
0100
0000
0010
0001
,
1000
0010
0100
0002
0000
0000
1003
0000
0000
2100
0000
0000
,
3010
0201
0310
1002
,
0013
0000
M12M
2030
,
3200
0000
0000
0310
0001
1000
0000
0001
0100
1000
0100
0010
,
1000
0100
0010
0100
1000
0001
2000
0000
0000
3020
0000
0000
,
0130
0010
1000
0001
0010
1000
0000
0010
0100
1000
0010
0100
,
0010
1000
0001
0010
0100
1000
0002
0000
0000
0023
0000
0000
,
0230
0000
0000
0310
0001
1000
0010
0100
1000
0100
0001
0010
,
0001
1000
0100
0010
0000
0000
2100
0000
0000
3010
0000
0000
,
0201
0310
MMMM
0000
,
1001
1000
0100
0010
,
1001
1000
0100
0010
,
1001
0000
0000
0000
1000
0000
0000
0000
0100
0000
0000
0000
0000
0010
0000
0000
,
0000
0000
0001
0000
0000
0000
0000
0010
0000
0000
0000
0000
0100
0000
0000
0000
,
0000
0000
0000
1000
0000
0000
0000
0000
0000
0000
0000
0000
0000
0000
0000
0000
0010
0000
0000
0000
0000
0000
0000
0000
;

//---------------dance-single - ----------------
#NOTES:
     dance-single:
     :
     Medium:
     9:
     0.368705,0.498782,0.402805,0.246158,0.037297,346.000000,292.000000,54.000000,33.000000,0.000000,0.000000,0.368705,0.498782,0.402805,0.246158,0.037297,346.000000,292.000000,54.000000,33.000000,0.000000,0.000000:
// measure 0
0000
0000
0000
0000
,  // measure 1
0000
0000
0000
0000
,  // measure 2
0000
0000
0000
0000
,  // measure 3
0000
0000
0000
0000
,  // measure 4
0000
0000
0000
0000
,  // measure 5
0000
0000
0000
0000
,  // measure 6
0000
0000
0000
0000
,  // measure 7
0000
0000
0000
0000
,  // measure 8
0000
0000
0000
0000
,  // measure 9
0000
0000
0000
0000
,  // measure 10
1000
0000
0000
0000
0000
0000
0001
0010
0100
0000
0000
0000
0000
0000
0000
0000
,  // measure 11
0000
0000
0010
0001
,  // measure 12
1000
0010
1000
0000
0010
0000
1000
0000
,  // measure 13
0001
0100
0001
0100
0001
0000
0010
0000
,  // measure 14
0100
1000
0100
0000
1000
0000
0010
0000
,  // measure 15
0100
0010
0100
0010
1000
0000
0001
0000
,  // measure 16
0010
0100
0010
0000
0001
0000
1000
0000
,  // measure 17
0010
1000
0010
0100
0001
0000
0010
0000
,  // measure 18
0100
0010
0100
1000
0100
0000
1000
0000
,  // measure 19
0000
0000
1001
0000
0001
0100
0010
0000
,  // measure 20
1010
0000
1100
0000
0100
0010
0001
0000
,  // measure 21
0011
0000
0101
0000
0001
0100
0010
0000
,  // measure 22
1010
0000
1001
0000
1000
0001
0100
0000
,  // measure 23
0110
0000
0000
0000
0001
0000
0000
0001
0000
0000
0001
0000
1000
0000
0000
1000
,  // measure 24
0000
0000
1000
0000
0010
0000
0000
0010
0000
0000
0010
0000
0100
0000
0000
0100
,  // measure 25
0000
0100
0010
1000
0001
0000
0010
0100
,  // measure 26
1000
0000
0011
0000
0000
0000
1000
0100
,  // measure 27
0010
0000
2002
0000
0000
3003
0101
0000
,  // measure 28
0001
0000
0011
0000
0010
0000
0100
0010
,  // measure 29
0001
0000
1000
0000
1001
0000
0001
1000
,  // measure 30
0010
0000
0100
0000
0101
0000
0001
1000
,  // measure 31
0010
0000
0202
0000
0000
0303
0011
0000
,  // measure 32
0010
0100
0010
0011
,  // measure 33
0101
1010
0110
1001
,  // measure 34
1010
0000
1001
0000
0011
0000
0010
0100
,  // measure 35
1000
0000
0011
0000
0010
0100
1000
0000
,  // measure 36
0100
1000
0010
0000
1001
0000
1020
0000
,  // measure 37
0130
0000
0001
0000
0010
0001
0100
0000
,  // measure 38
0010
1000
0100
0000
0010
0000
0001
0000
,  // measure 39
1020
0000
0230
0000
0301
0010
0000
0100
,  // measure 40
0010
0001
0000
0010
0100
1000
2002
0000
,  // measure 41
0000
0000
0000
0000
,  // measure 42
0000
0000
3003
0021
,  // measure 43
0000
0000
0000
0230
,  // measure 44
0000
0000
0000
0000
0000
0000
1300
0000
0000
0100
0000
0000
2000
0000
0000
0000
,  // measure 45
0000
0000
0000
3020
,  // measure 46
0000
2030
0000
3002
,  // measure 47
0000
0000
0000
0000
0013
0001
0200
0000
,  // measure 48
0000
0000
0010
0000
0310
0100
0002
0000
,  // measure 49
0000
0000
0000
0000
0000
0000
0000
1000
0003
0000
0001
0000
0200
0000
0000
0000
,  // measure 50
0000
0320
0000
2030
,  // measure 51
0001
0001
3001
0002
,  // measure 52
1000
1000
1003
0020
,  // measure 53
0100
0100
0130
0200
,  // measure 54
0010
0010
0310
2000
,  // measure 55
3100
0002
0103
0002
,  // measure 56
0013
0000
2000
0000
3010
0000
1000
0010
,  // measure 57
0100
0000
0010
1000
0001
0000
0010
0100
,  // measure 58
1000
0100
0001
0100
1000
0010
0100
0001
,  // measure 59
0010
0022
0000
0000
,  // measure 60
0000
0033
0000
1100
,  // measure 61
0100
1001
1000
0101
,  // measure 62
0100
1001
0110
1010
,  // measure 63
0010
0101
0001
0011
,  // measure 64
0001
1001
0001
0101
,  // measure 65
1010
1100
0110
0011
,  // measure 66
0110
0000
1001
0000
0010
1000
0100
0000
,  // measure 67
0022
0033
0001
0010
0000
0100
1000
0010
,  // measure 68
0000
0100
0010
1000
0002
0000
0013
0000
,  // measure 69
0100
1000
0010
0100
0000
0010
1000
0001
,  // measure 70
0000
0010
0100
1000
0100
0000
0210
0000
,  // measure 71
1300
0000
0010
1000
0000
0010
1000
0001
,  // measure 72
0000
0010
0100
1000
1100
0000
0110
0000
,  // measure 73
0011
0101
1010
0000
,  // measure 74
1000
0100
0010
0001
,  // measure 75
1000
0100
0010
0001
,  // measure 76
1000
0000
0000
0000
0100
0000
0000
0000
0010
0000
0000
0000
0000
0001
0000
0000
,  // measure 77
0000
0000
0010
0000
0000
0000
0000
0100
0000
0000
0000
0000
1000
0000
0000
0000
,  // measure 78
0000
0000
0000
0010
0000
0000
0000
0000
0000
0000
0000
0000
0000
0000
0000
0000
0100
0000
0000
0000
0000
0000
0000
0000
;

//---------------dance-single - ----------------
#NOTES:
     dance-single:
     :
     Easy:
     6:
     0.218452,0.410544,0.238699,0.283455,0.000000,205.000000,173.000000,32.000000,38.000000,0.000000,0.000000,0.218452,0.410544,0.238699,0.283455,0.000000,205.000000,173.000000,32.000000,38.000000,0.000000,0.000000:
0000
0000
0000
0000
,
0000
0000
0000
0000
,
0000
0000
0000
0000
,
0000
0000
0000
0000
,
0000
0000
0000
0000
,
0000
0000
0000
0000
,
0000
0000
0000
0000
,
0000
0000
0000
0000
,
0000
0000
0000
0000
,
0000
0000
0000
0000
,
0000
0000
0000
0000
,
0000
0000
1000
0100
,
0010
0010
0100
1000
,
0001
1000
0001
0100
,
0010
0010
0100
0001
,
0010
0100
1000
0100
,
1000
1000
0100
1000
,
0010
0100
0010
1000
,
0001
0001
0010
0001
,
0000
1001
0001
0100
,
0100
0010
1000
0010
,
0100
1001
0001
1000
,
1000
0100
1000
0010
,
0000
0110
0000
1001
,
0000
1010
0000
0011
,
0000
1001
0110
1001
,
0110
0000
2002
0000
3003
0000
0001
0100
,
0001
0200
0000
0310
,
0000
1000
0000
0100
,
1000
0010
0000
0100
,
0001
0000
1000
0000
0100
0000
1000
0010
,
0100
0020
0000
0130
,
0000
0010
0000
1000
,
1000
0001
0001
1001
,
0110
0000
1001
0000
0110
0000
0001
0100
,
0010
2000
0000
3100
,
0000
1000
0000
0100
,
1000
0010
0100
0000
,
0010
0000
1000
0001
,
1000
0100
1000
0000
,
0010
0000
0100
2002
,
0000
0000
0000
0000
,
0000
0000
3003
2000
,
0000
0000
3000
0002
,
0000
0000
1003
0200
,
0000
0000
0000
0320
,
0000
2030
0000
3200
,
0000
0000
1300
0020
,
0000
0130
0001
2000
,
0000
0000
3001
0200
,
0000
0000
0320
0000
0000
0030
2020
0000
,
0000
0000
3030
0202
,
0000
0000
0303
0022
,
0000
0000
0033
2200
,
0000
0000
3300
1002
,
0000
1000
0000
0100
,
0000
0100
0000
0023
,
0000
0000
0000
0230
,
0000
0000
2300
0000
3002
0000
0103
0010
,
1000
0202
0000
0000
,
0000
0303
0000
0001
,
0000
1000
0000
0010
,
1000
0100
0010
0100
,
1000
0010
0000
0100
,
0001
1000
0000
1001
,
0110
1001
0110
1001
,
0110
0000
0120
0000
,
2030
0000
3100
0000
,
1000
0000
0010
1000
,
0100
0000
0010
0001
,
0100
0000
0010
1000
,
0001
1000
0000
0100
,
0000
1000
0010
0110
,
1001
0110
0000
0000
,
2000
0000
0000
3000
,
0200
0000
0000
0300
,
0020
0000
0000
0030
,
0000
0002
0000
0000
0000
0000
0000
0000
,
0000
0000
0000
0000
0000
0003
0000
0000
;

//---------------dance-single - ----------------
#NOTES:
     dance-single:
     :
     Beginner:
     3:
     0.121481,0.205272,0.074593,0.022378,0.000000,114.000000,104.000000,10.000000,3.000000,0.000000,0.000000,0.121481,0.205272,0.074593,0.022378,0.000000,114.000000,104.000000,10.000000,3.000000,0.000000,0.000000:
0000
0000
0000
0000
,
0000
0000
0000
0000
,
0000
0000
0000
0000
,
0000
0000
0000
0000
,
0000
0000
0000
0000
,
0000
0000
0000
0000
,
0000
0000
0000
0000
,
0000
0000
0000
0000
,
0000
0000
0000
0000
,
0000
0000
0000
0000
,
0010
0000
0000
0000
,
0000
0000
1001
0000
,
0000
0000
1000
0000
,
0000
0000
0010
0000
,
0000
0000
1000
0000
,
0000
0000
0001
0000
,
0000
0000
0010
0000
,
0000
0000
0001
0000
,
0000
0000
0100
0000
,
0000
0010
0000
0010
,
0000
0010
0000
0010
,
0000
0100
0000
0100
,
0000
0100
0000
0100
,
0000
1001
0000
0001
,
0000
1000
0000
0010
,
0000
0100
0000
0010
,
0000
1001
0000
0010
,
0000
0110
0000
0100
,
0000
0000
0000
0001
,
0000
0000
0000
1000
,
0000
0000
0000
0010
,
0000
1001
0000
0001
,
0000
0000
0000
1000
,
0000
0001
0000
0100
,
0000
0010
0000
0100
,
0000
1001
0000
0001
,
0000
0001
0000
1000
,
0000
0000
0000
0010
,
0000
0000
0000
0100
,
0000
0010
0000
1000
,
0000
0001
0000
0200
,
0000
0000
0000
0000
,
0000
0000
0300
0010
,
0000
0000
0000
1000
,
0000
0000
0001
0001
,
0000
0000
0000
1000
,
0000
0010
0000
1000
,
0000
0000
0001
0001
,
0000
1000
0001
1000
,
0000
0000
0010
0010
,
0000
0100
0000
1001
,
0000
0000
0000
0010
,
0000
0000
0100
0100
,
0000
0000
0001
0001
,
0000
1000
0000
0010
,
0000
0000
0000
0100
,
0000
0000
0001
1000
,
0000
0000
0000
0100
,
0000
1000
0000
0110
,
0000
0200
0000
0000
,
0000
0300
0000
0010
,
0000
1000
0000
0001
,
0000
1000
0000
0010
,
0000
1000
0000
0001
,
0000
0010
0000
0100
,
0000
0010
0000
0001
,
0000
0000
0110
0000
,
0100
0000
0010
0000
,
1000
0000
0001
0000
,
1000
0000
0010
0000
,
1000
0000
0100
0000
,
1000
0000
0001
0000
,
0100
0000
0010
0000
,
0100
0000
1001
0000
,
0020
0000
0000
0000
,
0000
0000
0000
0000
,
0000
0000
0000
0000
,
0000
0000
0000
0000
,
0000
0000
0000
0000
0000
0030
0000
0000
;

//---------------dance-single - ----------------
#NOTES:
     dance-single:
     :
     Challenge:
     16:
     0.587157,0.835447,0.365508,0.499776,0.716097,551.000000,502.000000,49.000000,67.000000,23.000000,0.000000,0.587157,0.835447,0.365508,0.499776,0.716097,551.000000,502.000000,49.000000,67.000000,23.000000,0.000000:
0000
0000
0000
0000
,
0000
0000
0000
0000
,
2000
0000
0000
0000
,
3002
0000
0023
0000
,
2000
0000
0000
3030
,
2000
0000
3020
0000
,
0002
0000
0000
0033
,
0002
0000
0203
0000
,
2300
0000
3200
0000
,
0020
0000
0000
0330
,
2000
0000
0000
0000
0000
0000
3001
0100
2000
0000
0000
0000
0000
0000
0000
0000
,
0000
0000
0000
0000
0000
0000
0000
0000
3100
0000
0100
0010
0000
0100
0001
0000
,
0010
0000
0010
0000
0001
0000
0010
0000
0100
0000
1000
0001
0000
1000
0001
0000
,
0100
0000
0010
1000
0010
0100
0010
0000
0100
0000
0001
0010
0000
0001
0100
0000
,
0010
0000
0010
0000
1000
0000
0010
0000
1000
0000
0001
0010
0000
0001
0100
0000
,
0010
0000
1000
0010
0100
0010
1000
0000
0001
0000
0010
0100
0000
0010
0001
0000
,
1000
0000
1000
0000
0001
0000
1000
0000
0001
0000
0100
0001
0000
0010
0100
0000
,
0010
0000
0001
0100
0001
1000
0100
0000
0010
0000
0100
1000
0000
0100
0010
0000
,
0100
0000
0100
0000
0010
0000
0100
0000
0010
0000
0001
0100
0000
0010
1000
0000
,
0002
0M00
0203
0000
1300
0000
0100
0001
0010
0000
0100
0000
2100
0000
0000
0000
,
3001
0000
0000
0000
1000
0000
0010
1000
0001
0000
0010
0000
0210
0000
0000
0000
,
1300
0000
0000
0000
0010
0000
0001
0100
0010
0000
1000
0000
1002
0000
0000
0000
,
0013
0000
0000
0000
0100
0000
0010
0001
0100
0000
0010
0000
2010
0000
0000
0000
,
3M00
0000
0000
0000
0011
0000
0010
0001
0000
0010
0100
1000
0010
0000
0100
0001
,
0000
0100
0010
1000
0100
0000
0010
0001
0000
0010
0100
1000
0010
0000
0100
0001
,
0000
0100
0010
1000
0001
0000
0010
0001
0100
0000
0010
1000
0001
0000
0010
0100
,
1000
0000
0100
0010
0002
0000
0000
0000
0200
0000
0000
0303
1010
0000
1000
0000
,
0100
0000
0000
2002
0000
0000
0000
0000
0000
3003
1000
0001
,
0010
0100
0010
0002
0000
0000
0203
0000
0000
0310
0000
0000
,
0100
0000
0010
1000
0100
0010
0100
1000
0001
0100
0000
0010
,
1000
0001
0010
0100
0000
0000
0010
0000
0000
0100
0000
0010
,
0001
0000
0000
1000
0000
0000
0001
0100
0001
0000
0100
0010
,
1000
0000
0100
0000
0010
0100
0020
0000
0000
0000
0000
0000
0032
0000
0000
0000
0000
0000
0103
0000
0000
0000
0000
0000
,
1010
0001
1100
1001
,
0110
1001
0110
0001
,
1100
0000
0000
0000
0000
0000
2020
0000
0000
0000
3030
0000
0100
0000
0001
0000
0010
0000
0000
0000
0100
0010
0100
0000
,
0010
0000
0001
0000
1000
0000
0000
0000
0001
1000
0001
0000
1000
0000
0100
0000
1000
0000
0020
0000
0000
0000
0000
0000
,
0230
0000
0000
0000
0000
0000
0301
0000
0000
0010
0001
0010
0001
0000
0010
0000
0100
0010
0100
0000
1000
0000
0001
0000
,
0100
0000
0010
0000
1000
0001
1000
0000
0100
0000
0010
0000
0100
0000
1000
0000
0001
0000
0020
0000
0000
0000
0000
0000
,
0032
0000
0000
0000
0000
0000
0103
0000
0000
0000
0000
0000
0010
1000
0010
1000
0010
1000
0010
0000
0100
0000
0010
0000
,
1000
0001
1000
0001
1000
0001
1000
0000
0100
0000
0010
0000
0100
0000
0000
0000
0000
0000
4004
0000
0000
0000
0000
0000
,
0000
0000
0000
0000
0000
0000
00M0
0M00
,
0000
00M0
3M03
0201
,
0010
0000
0001
0000
0310
1000
1200
0000
,
0010
0000
0000
0000
1300
0000
0002
0000
0000
0203
0000
0000
0302
0000
0000
0000
,
0010
0000
1000
0000
0103
0001
0021
0000
,
0130
2100
3010
1002
,
0100
0000
0010
0000
1003
0100
0020
0000
,
0130
0000
0020
0000
0031
0010
0200
0000
,
0010
0000
0000
0000
0000
0000
0000
0000
1300
0000
0000
0000
0000
0100
0000
0000
0000
0000
1000
0000
0000
0000
0000
0000
0002
0000
0000
0000
0000
0000
0000
0000
,
0103
0020
1030
0101
,
0001
1100
0000
0010
1001
0000
1100
0000
,
0001
0101
0000
0100
1001
0000
1010
0000
,
0100
0101
0000
0001
0011
0000
0100
0000
,
1000
1010
0000
1000
1001
0000
1000
0100
,
0010
0000
0100
1000
0010
0000
0100
0001
,
0010
0000
0000
0000
0100
0000
0010
0001
1000
0100
0010
0001
1000
0000
0001
0000
,
0100
0000
0000
0001
0000
0000
0010
0000
0000
0100
0000
0000
0010
0000
0000
0001
0000
0000
1000
0000
1000
0000
0010
0000
,
0100
0000
0100
0000
0001
0000
0010
0000
0010
0000
0100
0000
1000
0000
1000
0000
0001
0000
1001
0000
0000
1000
0000
0000
,
0001
0000
0000
1200
0000
2000
3000
2000
3000
2000
3000
2000
,
3000
0000
2300
0000
3100
1000
0002
0000
0000
0000
0000
0000
0000
0000
0000
0000
0000
0000
1003
0000
0000
0000
0010
0000
,
1000
0000
0001
0010
0100
0010
0001
1000
0000
0000
0001
0100
,
0001
0010
0100
0010
0001
1000
0200
0000
0000
0310
0000
0100
,
1000
0000
0010
0200
0000
0000
0301
0001
0010
0000
0100
0010
,
0001
0000
0001
0000
1000
0001
2000
0000
0000
0000
0000
0000
3010
0000
0000
0000
0000
0000
0101
0000
0000
0000
0000
0000
,
0011
1100
1001
1010
,
1001
0000
0000
0000
0000
0000
0000
0000
0000
0000
0000
0000
0000
0000
0000
0000
M000
0M00
000M
0M00
00M0
0M00
M000
000M
00M0
0M00
00M0
000M
M000
00M0
0M00
0000
1MM1
0000
0000
0000
0000
0000
0000
0000
0000
0000
0000
0000
0000
0000
0000
0000
0110
0000
0000
0000
0000
0000
0000
0000
0000
0000
0000
0000
0000
0000
0000
0000
,
2002
0000
0000
3003
0000
0000
0001
0000
1000
0000
0100
0000
0000
0000
0010
0100
0010
0100
0010
0000
0001
0000
0100
0000
,
0000
0000
0010
1000
0010
1000
0010
0000
0100
0000
0001
0000
0020
0000
0000
0000
0000
0000
0230
0000
0000
0000
0000
0000
,
1300
0000
0100
0000
0010
0000
0001
0010
0001
0010
0001
0000
1000
0000
0010
0000
0100
0000
0001
1000
0001
1000
0001
1000
,
0001
0100
1000
0100
0001
0010
0200
0000
0000
2300
0000
0000
,
3010
0000
0000
0000
0000
0000
0100
0000
0001
0000
1000
0000
0000
0000
0100
0000
0010
0000
0100
1000
0100
1000
0100
1000
,
0200
0310
0011
0011
,
1100
0000
0000
0000
1100
0000
0000
0000
2002
0000
0000
0000
0000
0000
0000
3003
,
0110
0001
0100
1000
,
0100
0001
0010
1000
,
0010
0000
0000
0000
0001
0000
0000
0000
1000
0000
0000
0000
0000
0001
0000
0000
,
0000
0000
1000
0000
0000
0000
0000
0100
0000
0000
0000
0000
0001
0000
0000
0000
,
0000
0000
0000
0010
0000
0000
0000
0000
0000
0000
0000
0000
0000
0000
1000
0001
0200
0000
0000
0000
0000
0000
0000
0000
,
0000
0000
0000
0000
,
0300
0000
0000
0000
;
